Американская одиссея / Новая одиссея / American Odyssey (2015) WEB-DLRip [H.264] (Сезон 1, серии 1-9 из 12) LostFilm [MP4|1280x720]

 
 Статистика раздачи 
Размер: 11.69 ГБ   |  Зарегистрирован: 05 июн 2015, 12:25   |   .torrent скачан: 0 раз
Сидеров: 1  [ 0 байт/сек ]     Личеров: 0  [ 0 байт/сек ]  
  

Американская одиссея / Новая одиссея / American Odyssey (2015) WEB-DLRip [H.264] (Сезон 1, серии 1-9 из 12) LostFilm [MP4|1280x720]

Сообщение Thistoll » 05 июн 2015, 12:25

Американская одиссея / Новая одиссея / American Odyssey (2015) WEB-DLRip [H.264]
(Сезон 1, серии 1-9 из 12) LostFilm
«The world thinks she's dead. The truth will change everything»

Производство: США
Жанр: триллер, драма

Режиссер: Джэми Пэйн, Питер Хортон
Актеры: Анна Фрил, Питер Фачинелли, ДжонДжош Ромаро, Адевале Акинойе-Агбаже, Трит Уильямс, Даниэлла Пинеда, Нат Муни, Келли МакКрири, Джейк Робинсон, Ронан Саммерс и др.

Описание:
Политический триллер о разваливающейся на части жизни солдата, корпоративного адвоката и политической активистки. Они оказываются за кулисами военно-промышленного заговора, виновником которого является американская корпорация, связанная с Аль-Каидой ...

Отряд специального назначения армии США проводит успешную военную операцию в Мали, во время которой оказывается уничтожен лидер Аль-Каиды. Сержант Одель Баллард обнаруживает на ноутбуке террориста секретные данные, свидетельствующие о наличии связи между джихадистами и американской корпорацией. Баллард пытается передать эту информацию в штаб, но ее прерывает появление представителей частной армии Osela, которые конфискуют все улики. Одель удается сделать копию, которую она рассчитывает вручить своему начальству после возвращения домой. Однако тем же вечером ракетная атака уничтожает весь ее отряд, а чудом выжившая героиня становится свидетельницей того, как наемники Osela добивают ее боевых товарищей. Правительство и охотившееся за ней ЦРУ считает Одель погибшей. Теперь Баллард предстоит найти способ вернуться домой, чтобы раскрыть заговор в высших эшелонах власти. Сами того не зная, ее напарниками в борьбе за правое дело становятся двое людей по другую сторону океана — юрист Питер Декер и политический активист Харрисон Уолтерс.



Продолжительность: ~ 00:52:00 серия
Качество видео: WEB-DLRip 720p
Перевод: Многоголосый закадровый, профессиональный - LostFilm
Озвучка: Студия «LostFilm»

Видео: AVC/H.264, 1280x720 (16:9), ~4000 Кбит/сек
Аудио: AAC, 2 канала, 250 Кбит/сек - русский (многоголосый закадровый, LostFilm)
Код:
Код: Выделить всё
Полное имя                               : E:\American_Odyssey_s1_WEB-DL720p_x264_LostFilm_[NNM-CLUB]\American.Odyssey.S01E01.720p.WEB.rus.LostFilm.TV.mp4
Формат                                   : MPEG-4
Профиль формата                          : Base Media
Идентификатор кодека                     : isom
Размер файла                             : 1,55 Гбайт
Продолжительность                        : 52 м.
Режим общего битрейта                    : Переменный
Общий поток                              : 4201 Кбит/сек
Коллекция                                : Американская одиссея
Сезон                                    : 1
Альбом                                   : Новая одиссея, Сезон 1
Альбом/Исполнитель                       : Новая одиссея
Часть                                    : 2
Часть/Положение                          : 1
Трек                                     : Пропавшая без вести
Трек/Положение                           : 1
Исполнитель                              : Новая одиссея
Жанр                                     : Drama
Тип содержимого                          : TV Show
Дата записи                              : 2015
Дата кодирования                         : UTC 2015-05-02 20:25:42
Дата пометки                             : UTC 2015-05-02 20:25:42
Программа кодирования                    : Yamb 2.1.0.0 [http:/yamb.unite-video.com] / LostCoder
Правообладатель                          : LostFilm.TV (c)
Обложка                                  : Yes
Примечание                               : Отряд специального назначения армии США проводит успешную военную операцию в Мали, во время которой уничтожен лидер Аль-Каиды. Сержант Оде
Part_ID                                  : 101
rati                                     : (Binary)

Видео
Идентификатор                            : 1
Формат                                   : AVC
Формат/Информация                        : Advanced Video Codec
Профиль формата                          :
Параметр CABAC формата                   : Нет
Параметр ReFrames формата                : 2 кадра
Идентификатор кодека                     : avc1
Идентификатор кодека/Информация          : Advanced Video Coding
Продолжительность                        : 52 м.
Битрейт                                  : 4000 Кбит/сек
Максимальный битрейт                     : 13,4 Мбит/сек
Ширина                                   : 1280 пикселей
Высота                                   : 720 пикселей
Соотношение сторон                       : 16:9
Режим частоты кадров                     : Переменный
Частота кадров                           : 23,976 кадра/сек
Минимальная частота кадров               : 23,974 кадра/сек
Максимальная частота кадров              : 23,981 кадра/сек
Цветовое пространство                    : YUV
Субдискретизация насыщенности            : 4:2:0
Битовая глубина                          : 8 бит
Тип развёртки                            : Прогрессивная
Бит/(Пиксели*Кадры)                      : 0.181
Размер потока                            : 1,46 Гбайт (94%)
Библиотека кодирования                   : x264 core 112 r1834 a51816a
Настройки программы                      : cabac=0 / ref=3 / deblock=1:0:0 / analyse=0x1:0x111 / me=hex / subme=7 / psy=1 / psy_rd=1.00:0.00 / mixed_ref=1 / me_range=16 / chroma_me=1 / trellis=1 / 8x8dct=0 / cqm=0 / deadzone=21,11 / fast_pskip=1 / chroma_qp_offset=-2 / threads=6 / sliced_threads=0 / nr=0 / decimate=1 / interlaced=0 / constrained_intra=0 / bframes=3 / b_pyramid=2 / b_adapt=1 / b_bias=0 / direct=1 / weightb=1 / open_gop=0 / weightp=2 / keyint=250 / keyint_min=25 / scenecut=40 / intra_refresh=0 / rc_lookahead=40 / rc=abr / mbtree=1 / bitrate=4000 / ratetol=1.0 / qcomp=0.60 / qpmin=0 / qpmax=51 / qpstep=4 / vbv_maxrate=5000 / vbv_bufsize=2000 / ip_ratio=1.40 / aq=1:1.00 / nal_hrd=none
Язык                                     : English
Дата пометки                             : UTC 2015-05-02 20:26:35
Основные цвета                           : BT.709
Характеристики трансфера                 : BT.709
Коэффициенты матрицы                     : BT.709

Аудио
Идентификатор                            : 2
Формат                                   : AAC
Формат/Информация                        : Advanced Audio Codec
Профиль формата                          : LC
Идентификатор кодека                     : 40
Продолжительность                        : 52 м.
Вид битрейта                             : Переменный
Битрейт                                  : 249 Кбит/сек
Максимальный битрейт                     : 316 Кбит/сек
Каналы                                   : 2 канала
Расположение каналов                     : Front: L R
Частота                                  : 48,0 КГц
Метод сжатия                             : С потерями
Размер потока                            : 94,3 Мбайт (6%)
Дата кодирования                         : UTC 2015-05-02 20:26:31
Дата пометки                             : UTC 2015-05-02 20:26:35
01 - Пропавшая без вести / Gone Elvis
02 - В пути / Oscar Mike
03 - Двойное убийство / Drop King
04 - В обличии врага / Tango Uniform
05 - Побег / Beat Feet
06 - Напарник / Wingman
07 - Салага / Soup Sandwich
08 - Катитесь к чёрту, вы сами по себе / Kmag Yoyo
Внимание! Раздача ведётся путём добавления новых серий; при каждом добавлении создаётся новый торрент.
Чтобы начать докачку новой серии, пользователям необходимо сделать следующее:
1. Остановить скачивание;
2. Удалить старый торрент у себя из клиента (старые серии удалять не надо);
3. Скачать новый торрент и запустить его у себя в клиенте вместо старого, при этом указать клиенту путь в старую папку куда и должно происходить скачивание новых серий. Ваш клиент при этом должен произвести хеширование (проверку) старой папки и будет докачивать только те серии, которых у вас ещё нет. Старые серии при этом не удаляются, а продолжают раздаваться! Eсли вы уже удалили старые серии, то предотвратить повторную закачку старых серий можно, отжав галочку в соответствующих местах при запуске нового торрента.
Скриншоты:




Время раздачи:
24/7 - круглосуточно
(до первых 5-ти сидов - потом по возможности)
 
Не забывайте говорить Спасибо. Не уходите с раздачи!   
Торрент: Зарегистрирован [05 июн 2015, 12:25] Для скачивания .torrent
необходима регистрация
Или скачать с помощью
MediaGet
Статус:
Проверен
 
.torrent скачан: 0 раз
Хэш: 8a6e1526d9d4a883b941a8b8416f0839e0de8ab3
Размер: 11.69 ГБ (12 551 184 424 байт)
Стать Автором раздачи
 
 
Раздал: 6.67 ГБ
Скачал: 302.5 МБ
Ратио: 22.576
Сообщения: 374198
Зарегистрирован: 17 апр 2014, 11:05


  • Похожие торренты
    Ответы
    Просмотры
    Последнее сообщение

Вернуться в Видео для мобильных устройств

Ресурс не предоставляет электронные версии произведений, а занимается лишь коллекционированием и каталогизацией ссылок, присылаемых и публикуемых на форуме нашими читателями. Если вы являетесь правообладателем какого-либо представленного материала и не желаете чтобы ссылка на него находилась в нашем каталоге, свяжитесь с нами и мы незамедлительно удалим её. Файлы для обмена на трекере предоставлены пользователями сайта, и администрация не несёт ответственности за их содержание. Просьба не заливать файлы, защищенные авторскими правами, а также файлы нелегального содержания!
cron