Коварные горничные / Devious Maid (2015) WEB-DLRip [H.264] (Сезон 3, серия 1 из 13) BaibaKo [MP4|720x400]

 
 Статистика раздачи 
Размер: 563.87 МБ   |  Зарегистрирован: 05 июн 2015, 11:59   |   .torrent скачан: 0 раз
Сидеров: 1  [ 0 байт/сек ]     Личеров: 0  [ 0 байт/сек ]  
  

Коварные горничные / Devious Maid (2015) WEB-DLRip [H.264] (Сезон 3, серия 1 из 13) BaibaKo [MP4|720x400]

Сообщение Thistoll » 05 июн 2015, 11:59

Коварные горничные / Devious Maid (2015) WEB-DLRip [H.264] (Сезон 3, серия 1 из 13) BaibaKo
«Deliciously Dirty»

Производство: США
Жанр: драма, комедия

Режиссер: Роб Бэйли
Актеры: Грант Шоу, Мелинда Пейдж Хэмилтон, Сьюзэн Луччи, Ана Ортиз, Дрю Ван Экер, Дания Рамирез, Эди Ганем, Джуди Рейс,Брианна Браун, Мариана Клавено и др.

Описание:
В центре сюжета - четыре амбициозные латиноамериканские горничные, работающие в домах богатых и знаменитых жителей Беверли-Хиллз. Их подруга найдена жестоко убитой. С собой в могилу она унесла общую шокирующую тайну. После этого им приходится хранить секрет, чего бы это ни стоило, продолжая работать на своих испорченных и красивых хозяев...

Сэмпл

Продолжительность: ~00:43:00 серия
Качество видео: WEB-DLRip
Перевод: Многоголосый закадровый, профессиональный - BaibaKo
Автор перевода: Наталья Черненко
Озвучка: Ольга Мотрич, Юлия Котурбаш, Татьяна Оболевич и Артемий Мирон
Монтаж: Павел Дежин

Видео: AVC/H.264, 720x400 (16:9), ~1536 Кбит/сек
Аудио #1: AAC, 2 канала, 163 Кбит/сек - русский (многоголосый закадровый, BaibaKo)
Аудио #2: AAC, 2 канала, 163 Кбит/сек - английский (оригинальный)
Код:
Код: Выделить всё
Полное имя                               : N:\Devious_Maids_s3_WEB-DLRip_x264_BaibaKo_[NNM-CLUB]\Devious.Maids.s03e01.WEB-DLRip.x264.Rus.Eng.BaibaKo.tv.mp4
Формат                                   : MPEG-4
Профиль формата                          : Base Media
Идентификатор кодека                     : isom
Размер файла                             : 564 Мбайт
Продолжительность                        : 42 м.
Режим общего битрейта                    : Переменный
Общий поток                              : 1867 Кбит/сек
Дата кодирования                         : UTC 2015-06-03 13:16:45
Дата пометки                             : UTC 2015-06-03 13:16:45

Видео
Идентификатор                            : 1
Формат                                   : AVC
Формат/Информация                        : Advanced Video Codec
Профиль формата                          :
Параметр CABAC формата                   : Нет
Параметр ReFrames формата                : 3 кадра
Идентификатор кодека                     : avc1
Идентификатор кодека/Информация          : Advanced Video Coding
Продолжительность                        : 42 м.
Битрейт                                  : 1536 Кбит/сек
Максимальный битрейт                     : 8341 Кбит/сек
Ширина                                   : 720 пикселей
Высота                                   : 400 пикселей
Соотношение сторон                       : 16:9
Режим частоты кадров                     : Переменный
Частота кадров                           : 23,976 кадра/сек
Минимальная частота кадров               : 23,974 кадра/сек
Максимальная частота кадров              : 23,981 кадра/сек
Цветовое пространство                    : YUV
Субдискретизация насыщенности            : 4:2:0
Битовая глубина                          : 8 бит
Тип развёртки                            : Прогрессивная
Бит/(Пиксели*Кадры)                      : 0.222
Размер потока                            : 464 Мбайт (82%)
Библиотека кодирования                   : x264 core 142 r2479 dd79a61
Настройки программы                      : cabac=0 / ref=3 / deblock=1:0:0 / analyse=0x1:0x111 / me=hex / subme=7 / psy=1 / psy_rd=1.00:0.00 / mixed_ref=1 / me_range=16 / chroma_me=1 / trellis=1 / 8x8dct=0 / cqm=0 / deadzone=21,11 / fast_pskip=1 / chroma_qp_offset=-2 / threads=12 / lookahead_threads=2 / sliced_threads=0 / nr=0 / decimate=1 / interlaced=0 / bluray_compat=0 / constrained_intra=0 / bframes=0 / weightp=0 / keyint=240 / keyint_min=24 / scenecut=40 / intra_refresh=0 / rc_lookahead=40 / rc=2pass / mbtree=1 / bitrate=1536 / ratetol=1.0 / qcomp=0.60 / qpmin=0 / qpmax=69 / qpstep=4 / cplxblur=20.0 / qblur=0.5 / vbv_maxrate=10000 / vbv_bufsize=10000 / nal_hrd=none / filler=0 / ip_ratio=1.40 / aq=1:1.00
Дата пометки                             : UTC 2015-06-03 13:20:02
Основные цвета                           : BT.709
Характеристики трансфера                 : BT.709
Коэффициенты матрицы                     : BT.709

Аудио #1
Идентификатор                            : 2
Формат                                   : AAC
Формат/Информация                        : Advanced Audio Codec
Профиль формата                          : LC
Идентификатор кодека                     : 40
Продолжительность                        : 42 м.
Вид битрейта                             : Переменный
Битрейт                                  : 163 Кбит/сек
Максимальный битрейт                     : 202 Кбит/сек
Каналы                                   : 2 канала
Расположение каналов                     : Front: L R
Частота                                  : 48,0 КГц
Метод сжатия                             : С потерями
Размер потока                            : 49,2 Мбайт (9%)
Язык                                     : Russian
Дата кодирования                         : UTC 2015-06-03 13:19:51
Дата пометки                             : UTC 2015-06-03 13:20:02

Аудио #2
Идентификатор                            : 3
Формат                                   : AAC
Формат/Информация                        : Advanced Audio Codec
Профиль формата                          : LC
Идентификатор кодека                     : 40
Продолжительность                        : 42 м.
Вид битрейта                             : Переменный
Битрейт                                  : 163 Кбит/сек
Максимальный битрейт                     : 210 Кбит/сек
Каналы                                   : 2 канала
Расположение каналов                     : Front: L R
Частота                                  : 48,0 КГц
Метод сжатия                             : С потерями
Размер потока                            : 49,2 Мбайт (9%)
Язык                                     : English
Дата кодирования                         : UTC 2015-06-03 13:19:57
Дата пометки                             : UTC 2015-06-03 13:20:02
01. Awakenings / Пробуждения
Внимание! Раздача ведётся путём добавления новых серий; при каждом добавлении создаётся новый торрент.
Чтобы начать докачку новой серии, пользователям необходимо сделать следующее:
1. Остановить скачивание;
2. Удалить старый торрент у себя из клиента (старые серии удалять не надо);
3. Скачать новый торрент и запустить его у себя в клиенте вместо старого, при этом указать клиенту путь в старую папку куда и должно происходить скачивание новых серий. Ваш клиент при этом должен произвести хеширование (проверку) старой папки и будет докачивать только те серии, которых у вас ещё нет. Старые серии при этом не удаляются, а продолжают раздаваться! Eсли вы уже удалили старые серии, то предотвратить повторную закачку старых серий можно, отжав галочку в соответствующих местах при запуске нового торрента.
Скриншоты:




Время раздачи:
24/7 - круглосуточно
(до первых 5-ти сидов - потом по возможности)
 
Не забывайте говорить Спасибо. Не уходите с раздачи!   
Торрент: Зарегистрирован [05 июн 2015, 11:59] Для скачивания .torrent
необходима регистрация
Или скачать с помощью
MediaGet
Статус:
Проверен
 
.torrent скачан: 0 раз
Хэш: c37e651fe81683d3498fe990d3dcc1992d10f3c8
Размер: 563.87 МБ (591 257 396 байт)
Стать Автором раздачи
 
 
Раздал: 6.67 ГБ
Скачал: 302.5 МБ
Ратио: 22.576
Сообщения: 374198
Зарегистрирован: 17 апр 2014, 11:05


  • Похожие торренты
    Ответы
    Просмотры
    Последнее сообщение

Вернуться в Видео для мобильных устройств

Ресурс не предоставляет электронные версии произведений, а занимается лишь коллекционированием и каталогизацией ссылок, присылаемых и публикуемых на форуме нашими читателями. Если вы являетесь правообладателем какого-либо представленного материала и не желаете чтобы ссылка на него находилась в нашем каталоге, свяжитесь с нами и мы незамедлительно удалим её. Файлы для обмена на трекере предоставлены пользователями сайта, и администрация не несёт ответственности за их содержание. Просьба не заливать файлы, защищенные авторскими правами, а также файлы нелегального содержания!
cron