Late Night Alumni - 5 albums (2005 - 2015) [FLAC|Lossless]<Vocal House, Deep House, Chill>

 
 Статистика раздачи 
Размер: 1.71 ГБ   |  Зарегистрирован: 03 июн 2015, 01:21   |   .torrent скачан: 1 раз
Сидеров: 1  [ 0 байт/сек ]     Личеров: 0  [ 0 байт/сек ]  
  

Late Night Alumni - 5 albums (2005 - 2015) [FLAC|Lossless]<Vocal House, Deep House, Chill>

Сообщение Thistoll » 03 июн 2015, 01:21

Late Night Alumni - 5 albums (2005 - 2015)


Несмотря на неоднозначную репутацию, лейбл Hed Kandi таки умудряется выпускать действительно качественные и достойные вещи. Один из ярких примеров тому - перед вами, господа. Этот американский квартет исполняет приятную и мягкую музыку в классической чилловой стилистике, этакий lazy-pop-house, как его называют по другую сторону Атлантики. Главным достоинством всех треков является обволакивающе-бархатный голос хорошенькой вокалистки Becky Williams, а трио довольно возрастных профессиональных ди-джеев обеспечивает весьма достойный, качественный и мелодичный саунд.
О Late Night Alumni известно совсем немного. Кроме того что они записываются под лейблом Hed Kandi Records, известно пожалуй еще, что основателями группы являются двое профессиональных музыкантов - Ryan Raddon и Finn Bjarnson из куда более известного house проекта Kaskade.
Год: 2005
Жанр: Vocal House, Deep House, Chill
Продолжительность: 00:54:03

Кодек: FLAC
Битрейт: Lossless

Трек лист:

1. Seemingly Sleeping (3:38)
2. Raining (4:06)
3. Empty Streets (5:54)
4. The Rest Of You (5:16)
5. Sunrise Comes Too Soon (3:48)
6. Eros (4:01)
7. Keep Up With Me (4:59)
8. Heaven (4:28)
9. Beatiful (3:57)
10. Meant To Be (4:20)
11. All For Nothing (4:57)
12. Nothing Left To Say (4:34)
Код:
Код: Выделить всё
Exact Audio Copy V0.99 prebeta 1 from 25. May 2007

Отчёт EAC об извлечении, выполненном 15. ноября 2008, 13:39

 Late Night Alumni / Empty Streets

Дисковод: Optiarc DVD RW AD-7190A   Adapter: 4  ID: 0

Режим чтения                 : Достоверность
Использование точного потока : Да
Отключение кэша аудио        : Да
Использование указателей C2  : Нет

Коррекция смещения при чтении                 : 6
Способность читать области Lead-in и Lead-out : Нет
Заполнение пропущенных сэмплов тишиной        : Да
Удаление блоков с тишиной в начале и конце    : Нет
Интерфейс                                     : Встроенный Win32-интерфейс для Win NT/2000

Выходной формат : Внутренние WAV-операции
Формат сэмплов  : 44.100 Гц; 16 бит; стерео

TOC извлечённого CD

     Трек |   Старт  | Длительность | Начальный сектор | Конечный сектор
    ---------------------------------------------------------------------
       1  |  0:00.00 |    3:39.37   |           0      |      16461
       2  |  3:39.37 |    4:06.37   |       16462      |      34948
       3  |  7:45.74 |    5:54.34   |       34949      |      61532
       4  | 13:40.33 |    5:17.28   |       61533      |      85335
       5  | 18:57.61 |    3:49.03   |       85336      |     102513
       6  | 22:46.64 |    4:00.71   |      102514      |     120584
       7  | 26:47.60 |    4:57.30   |      120585      |     142889
       8  | 31:45.15 |    4:29.52   |      142890      |     163116
       9  | 36:14.67 |    3:58.27   |      163117      |     180993
      10  | 40:13.19 |    4:21.08   |      180994      |     200576
      11  | 44:34.27 |    4:56.37   |      200577      |     222813
      12  | 49:30.64 |    4:32.55   |      222814      |     243268

Характеристики диапазона извлечения и сообщения об ошибках

Выбранный диапазон

     Имя файла C:\Documents and Settings\AlleyCat\Мои документы\My Music\MP3\Late Night Alumni - Empty Streets.wav

     Пиковый уровень 99.6 %
     Качество диапазона 99.9 %
     CRC копии 483E8FAC
     Копирование... OK

Ошибок не произошло

Конец отчёта
Код:
Код: Выделить всё
-----------------------

DON'T MODIFY THIS FILE

-----------------------

PERFORMER: auCDtect Task Manager, ver. 1.0.1 RC1 build 1.0.1.1
Copyright (c) 2008, 2009 y-soft. All rights reserved
http:/y-soft.110mb.com

ANALYZER: auCDtect: CD records authenticity detector, version 0.8.2
Copyright (c) 2004 Oleg Berngardt. All rights reserved.
Copyright (c) 2004 Alexander Djourik. All rights reserved.

FILE: 02 - Raining.flac
  Size: 26128241 Hash: 92E527A8A4CEA925241C37FA78E192EA Accuracy: -m0
  Conclusion: CDDA 100%
  Signature: 81AFD03BF052FF38DB573B28D2FF4687D09EA83B
FILE: 01 - Seemingly Sleeping.flac
  Size: 26715789 Hash: 9EFEA10F72DCFCB1EB3A0922FF69A182 Accuracy: -m0
  Conclusion: CDDA 99%
  Signature: F9BE19F76B3B36DDC2678CC664D793BB75C2DA3B
FILE: 03 - Empty Streets.flac
  Size: 40977494 Hash: 9E01773620903A421864C59A25FCF19D Accuracy: -m0
  Conclusion: CDDA 99%
  Signature: E4DC51704C701DFAAA68CA8B6A3F0F0F8689A0A8
FILE: 04 - The Rest Of You.flac
  Size: 40100475 Hash: 89EEC0E1FFCA4AB61D5F20A7292D2DB8 Accuracy: -m0
  Conclusion: CDDA 100%
  Signature: 6765CBD1F219762CC105BB787475183BA9F83A58
FILE: 05 - Sunrise Comes.flac
  Size: 26729313 Hash: BC1A62976CEA7B4E5A5482F46FFCC58D Accuracy: -m0
  Conclusion: CDDA 100%
  Signature: 4EB98F65C8AA9B18AE50A7FD2589C773020AC5AA
FILE: 06 - Eros.flac
  Size: 27002747 Hash: E93E39C85DE612085A418976BB7A6636 Accuracy: -m0
  Conclusion: CDDA 99%
  Signature: 650C6666DD0E01A5C3A2B9D2F5780147ADC8D8C9
FILE: 07 - Keep Up With Me.flac
  Size: 37973547 Hash: E5F05340B3A3A0C1930243C8DB374C21 Accuracy: -m0
  Conclusion: CDDA 100%
  Signature: 38BDF4CFC46DF9EB0E5CCEFB3E0E4EC2AF5E178C
FILE: 08 - Heaven.flac
  Size: 30302110 Hash: 062A5558C6FDCA03086F829A6C8D1E9F Accuracy: -m0
  Conclusion: CDDA 100%
  Signature: 2922AFFC36BF2ABB4BFA7609DE8A5DCAF0C31D1F
FILE: 09 - Beatiful.flac
  Size: 26698126 Hash: F996D45A1975B0EB17F9A27C2DD201EB Accuracy: -m0
  Conclusion: CDDA 100%
  Signature: 1CBF514C7A01556D3B3EE32FB9BDA55C93DF0080
FILE: 11 - All For Nothing.flac
  Size: 37006783 Hash: 2385792F1DA8955036291F1B97A3B44B Accuracy: -m0
  Conclusion: CDDA 99%
  Signature: F22ACFADF100E385811EF788803445E0EE2AC2B6
FILE: 10 - Meant To Be.flac
  Size: 29215981 Hash: 5BD87BB9D0C87EBBF93CB9AA6FBCF539 Accuracy: -m0
  Conclusion: MPEG 90%
  Signature: 4782D6AB2800B54CDB9ED5010495B6B3153E2F72
FILE: 12 - Nothing Left To Say.flac
  Size: 35491551 Hash: E3BF071DD4635EA76A58218D710A51CE Accuracy: -m0
  Conclusion: CDDA 100%
  Signature: BC2A9D91DBC4E5B247F01D5965EEC9BA82D239AA
#77Год: 2009
Жанр: Vocal House, Deep House, Chill
Продолжительность: 00:51:15

Кодек: FLAC
Битрейт: Lossless

Трек лист:

1. What's in A Name (3:41)
2. Finally Found (3:45)
3. You Can Be the One (3:12)
4. Light Reading (3:32)
5. Golden (3:40)
6. Uncharted (3:46)
7. Small Things (3:59)
8. Of Birds, Bees, Butterflies, Etc (4:14)
9. It's All the Same to Me (3:27)
0. Potions (3:51)
1. Run A Mile (4:57)
2. What if I Say Please (3:02)
3. Minutes (6:01)
Код:
Код: Выделить всё
Exact Audio Copy V0.99 prebeta 5 from 4. May 2009

EAC extraction logfile from 12. May 2010, 21:26

Late Night Alumni / Of Birds, Bees, Butterflies, Etc.

Used drive  : HL-DT-STDVDRAM GSA-T20L   Adapter: 0  ID: 0

Read mode               : Secure
Utilize accurate stream : Yes
Defeat audio cache      : Yes
Make use of C2 pointers : No

Read offset correction                      : 667
Overread into Lead-In and Lead-Out          : No
Fill up missing offset samples with silence : Yes
Delete leading and trailing silent blocks   : No
Null samples used in CRC calculations       : Yes
Used interface                              : Native Win32 interface for Win NT & 2000
Gap handling                                : Not detected, thus appended to previous track

Used output format              : User Defined Encoder
Selected bitrate                : 1024 kBit/s
Quality                         : High
Add ID3 tag                     : No
Command line compressor         : C:\Program Files (x86)\Exact Audio Copy\FLAC\FLAC.EXE
Additional command line options : -8 -T "artist=%a" -T "title=%t" -T "album=%g" -T "date=%y" -T "tracknumber=%n" -T "genre=%m" %s

TOC of the extracted CD

     Track |   Start  |  Length  | Start sector | End sector
    ---------------------------------------------------------
        1  |  0:00.00 |  3:41.71 |         0    |    16645
        2  |  3:41.71 |  3:45.73 |     16646    |    33593
        3  |  7:27.69 |  3:13.02 |     33594    |    48070
        4  | 10:40.71 |  3:32.64 |     48071    |    64034
        5  | 14:13.60 |  3:40.69 |     64035    |    80603
        6  | 17:54.54 |  3:46.57 |     80604    |    97610
        7  | 21:41.36 |  3:59.14 |     97611    |   115549
        8  | 25:40.50 |  4:57.14 |    115550    |   137838
        9  | 30:37.64 |  4:14.05 |    137839    |   156893
       10  | 34:51.69 |  3:27.08 |    156894    |   172426
       11  | 38:19.02 |  3:51.19 |    172427    |   189770
       12  | 42:10.21 |  3:03.00 |    189771    |   203495
       13  | 45:13.21 |  6:02.00 |    203496    |   230645

Track  1

     Filename M:\J - S\Late Night Alumni\Of Birds, Bees, Butterflies, Etc [FLAC]\01 - Late Night Alumni - What's in a Name.wav

     Peak level 97.0 %
     Track quality 100.0 %
     Test CRC 93366F87
     Copy CRC 93366F87
     Accurately ripped (confidence 2)  [5BC06AF7]
     Copy OK

Track  2

     Filename M:\J - S\Late Night Alumni\Of Birds, Bees, Butterflies, Etc [FLAC]\02 - Late Night Alumni - Finally Found.wav

     Peak level 97.0 %
     Track quality 100.0 %
     Test CRC 6611BDE0
     Copy CRC 6611BDE0
     Accurately ripped (confidence 2)  [8EFB13DC]
     Copy OK

Track  3

     Filename M:\J - S\Late Night Alumni\Of Birds, Bees, Butterflies, Etc [FLAC]\03 - Late Night Alumni - You Can Be The One.wav

     Peak level 97.0 %
     Track quality 100.0 %
     Test CRC 8055B5EE
     Copy CRC 8055B5EE
     Accurately ripped (confidence 2)  [56087C58]
     Copy OK

Track  4

     Filename M:\J - S\Late Night Alumni\Of Birds, Bees, Butterflies, Etc [FLAC]\04 - Late Night Alumni - Light Reading.wav

     Peak level 97.0 %
     Track quality 99.9 %
     Test CRC F9EF1567
     Copy CRC F9EF1567
     Accurately ripped (confidence 2)  [15BF839B]
     Copy OK

Track  5

     Filename M:\J - S\Late Night Alumni\Of Birds, Bees, Butterflies, Etc [FLAC]\05 - Late Night Alumni - Golden.wav

     Peak level 97.0 %
     Track quality 100.0 %
     Test CRC D14CDEAA
     Copy CRC D14CDEAA
     Accurately ripped (confidence 2)  [75AA705E]
     Copy OK

Track  6

     Filename M:\J - S\Late Night Alumni\Of Birds, Bees, Butterflies, Etc [FLAC]\06 - Late Night Alumni - Uncharted.wav

     Peak level 97.0 %
     Track quality 100.0 %
     Test CRC 9D41E17D
     Copy CRC 9D41E17D
     Accurately ripped (confidence 2)  [951DD04C]
     Copy OK

Track  7

     Filename M:\J - S\Late Night Alumni\Of Birds, Bees, Butterflies, Etc [FLAC]\07 - Late Night Alumni - Small Things.wav

     Peak level 96.4 %
     Track quality 100.0 %
     Test CRC 55DC157D
     Copy CRC 55DC157D
     Accurately ripped (confidence 2)  [A9C587F8]
     Copy OK

Track  8

     Filename M:\J - S\Late Night Alumni\Of Birds, Bees, Butterflies, Etc [FLAC]\08 - Late Night Alumni - Run a Mile.wav

     Peak level 97.0 %
     Track quality 99.9 %
     Test CRC 4F8B707D
     Copy CRC 4F8B707D
     Accurately ripped (confidence 2)  [68D79B8C]
     Copy OK

Track  9

     Filename M:\J - S\Late Night Alumni\Of Birds, Bees, Butterflies, Etc [FLAC]\09 - Late Night Alumni - Of Birds, Bees, Butterflies, Etc..wav

     Peak level 97.0 %
     Track quality 100.0 %
     Test CRC DE8A3412
     Copy CRC DE8A3412
     Accurately ripped (confidence 2)  [3CCBD62D]
     Copy OK

Track 10

     Filename M:\J - S\Late Night Alumni\Of Birds, Bees, Butterflies, Etc [FLAC]\10 - Late Night Alumni - It's All the Same to Me.wav

     Peak level 97.0 %
     Track quality 100.0 %
     Test CRC FA05D189
     Copy CRC FA05D189
     Accurately ripped (confidence 2)  [F8548D17]
     Copy OK

Track 11

     Filename M:\J - S\Late Night Alumni\Of Birds, Bees, Butterflies, Etc [FLAC]\11 - Late Night Alumni - Potions.wav

     Peak level 96.4 %
     Track quality 100.0 %
     Test CRC 2B987353
     Copy CRC 2B987353
     Accurately ripped (confidence 2)  [4B56436A]
     Copy OK

Track 12

     Filename M:\J - S\Late Night Alumni\Of Birds, Bees, Butterflies, Etc [FLAC]\12 - Late Night Alumni - What if I Say Please.wav

     Peak level 96.4 %
     Track quality 100.0 %
     Test CRC CDACC761
     Copy CRC CDACC761
     Track not present in AccurateRip database
     Copy OK

Track 13

     Filename M:\J - S\Late Night Alumni\Of Birds, Bees, Butterflies, Etc [FLAC]\13 - Late Night Alumni - Minutes.wav

     Peak level 96.5 %
     Track quality 99.9 %
     Test CRC A854821C
     Copy CRC A854821C
     Accurately ripped (confidence 2)  [9F31B858]
     Copy OK

12 track(s) accurately ripped
 1 track(s) not present in the AccurateRip database

Some tracks could not be verified as accurate

No errors occurred

End of status report
Код:
Код: Выделить всё
-----------------------

DON'T MODIFY THIS FILE

-----------------------

PERFORMER: auCDtect Task Manager, ver. 1.0.1 RC1 build 1.0.1.1
Copyright (c) 2008, 2009 y-soft. All rights reserved
http:/y-soft.110mb.com

ANALYZER: auCDtect: CD records authenticity detector, version 0.8.2
Copyright (c) 2004 Oleg Berngardt. All rights reserved.
Copyright (c) 2004 Alexander Djourik. All rights reserved.

FILE: 02 - Late Night Alumni - Finally Found.flac
  Size: 31143945 Hash: 71400B107557E73D702B1F28FEECB697 Accuracy: -m0
  Conclusion: CDDA 99%
  Signature: 96A6D01894E492A14EC5778A594C9F1E0D6CBE2F
FILE: 01 - Late Night Alumni - What's in a Name.flac
  Size: 27608375 Hash: F1FAE984EFFE76D325ECC7EDB3F6DD9D Accuracy: -m0
  Conclusion: CDDA 100%
  Signature: 46AF581F3262FA715AFBAFE0870C7225E865085B
FILE: 03 - Late Night Alumni - You Can Be The One.flac
  Size: 26346279 Hash: 7A90C315143063750818E73E6473E854 Accuracy: -m0
  Conclusion: CDDA 100%
  Signature: 24AF07674BEB9C1F7E9A27D4E4DB08FB43FE9284
FILE: 04 - Late Night Alumni - Light Reading.flac
  Size: 26122306 Hash: 0D2F02B41429F3DC99587D18F241A866 Accuracy: -m0
  Conclusion: CDDA 100%
  Signature: D9889BF94277721428A6953F68A35CA23F27FBB7
FILE: 05 - Late Night Alumni - Golden.flac
  Size: 25286503 Hash: BAFC83E7B16DEC0B42D3D9DA4EC1721D Accuracy: -m0
  Conclusion: CDDA 99%
  Signature: D0F3EE2A038410F7F30B36B08C09E024C324BF9C
FILE: 06 - Late Night Alumni - Uncharted.flac
  Size: 28487902 Hash: 26B390F4C13CFBED33A518DDF91D62A2 Accuracy: -m0
  Conclusion: CDDA 100%
  Signature: 594D388B713A406273CD657A99CE8607EC825A7B
FILE: 07 - Late Night Alumni - Small Things.flac
  Size: 31557211 Hash: EA3255328EDC6466B16413886A191F0E Accuracy: -m0
  Conclusion: CDDA 100%
  Signature: 773ACBA7A4EC409E73F49C5767E1D63F4D697D88
FILE: 08 - Late Night Alumni - Run a Mile.flac
  Size: 42062477 Hash: EFE2BA75FAB1A01D9EBA92A7D078CA4D Accuracy: -m0
  Conclusion: CDDA 100%
  Signature: 9579934A05D59E8CD2689C9C874ABAD185E0D38E
FILE: 10 - Late Night Alumni - It's All the Same to Me.flac
  Size: 23680576 Hash: 342EACE0D03DAFA7CB017207DD044B4B Accuracy: -m0
  Conclusion: CDDA 99%
  Signature: 343AE9DD6E384F2752286306B8101BBDF4062A22
FILE: 09 - Late Night Alumni - Of Birds, Bees, Butterflies, Etc..flac
  Size: 30250071 Hash: E31712BD7E99857A131DC932B7BD05A7 Accuracy: -m0
  Conclusion: CDDA 100%
  Signature: 7550BC31E32F2763C61CC8FFD1D3F2E985CCC3C9
FILE: 11 - Late Night Alumni - Potions.flac
  Size: 27930187 Hash: F3063886BBCC36F69BEF4899A0EC219A Accuracy: -m0
  Conclusion: CDDA 100%
  Signature: 90FC53C6A2B8A31E78148DFCFFD4A7EA91527210
FILE: 12 - Late Night Alumni - What if I Say Please.flac
  Size: 20597136 Hash: 7A0DB1FCCDC4F4A2BEE5870BF422145E Accuracy: -m0
  Conclusion: CDDA 100%
  Signature: 4D316890CFEA57DF61F0A5F4A95DFDC81D69C5C5
FILE: 13 - Late Night Alumni - Minutes.flac
  Size: 44361513 Hash: D82F339582A2AEA15FCFD5C6C0F5C18C Accuracy: -m0
  Conclusion: CDDA 100%
  Signature: 8BE496D7443C73CA4893F9940FC9FA660AFE7F14
#77Год: 2011
Жанр: Vocal House, Deep House, Chill
Продолжительность: 00:45:49

Кодек: FLAC
Битрейт: Lossless

Трек лист:

1. It's Not Happening (3:01)
2. In The Ashes (4:05)
3. This Is Why (3:53)
4. Epilogue (3:28)
5. Vixen (4:02)
6. Angels & Angels (4:17)
7. Sustaining (3:17)
8. Main Street (3:12)
9. For Life (4:06)
10. No Or Yes (3:48)
11. Spin (3:23)
12. Moonwalking (4:51)
Код:
Код: Выделить всё
-----------------------

DON'T MODIFY THIS FILE

-----------------------

PERFORMER: auCDtect Task Manager, ver. 1.5.1RC4 build 1.5.1.5
Copyright (c) 2008-2010 y-soft. All rights reserved
http:/y-soft.org

ANALYZER: auCDtect: CD records authenticity detector, version 0.8.2
Copyright (c) 2004 Oleg Berngardt. All rights reserved.
Copyright (c) 2004 Alexander Djourik. All rights reserved.

FILE: 01-12 Late Night Alumni - Moonwalking.flac
  Size: 33901025 Hash: B4B81ECE825906267BE210FB2B656FA7 Accuracy: -m0
  Conclusion: CDDA 100%
  Signature: 8D61CF00AE23ACFD558106169936E603D2FE1B2C
FILE: 01-11 Late Night Alumni - Spin.flac
  Size: 24109543 Hash: 5C4F8433A87F01D77DE58DB4A60D4F38 Accuracy: -m0
  Conclusion: CDDA 100%
  Signature: D4D4934568F2938F775CF35132E228E6DFE5CF7D
FILE: 01-10 Late Night Alumni - No or Yes.flac
  Size: 26450634 Hash: A9392FAC0F0BDD3ADC65E574C1396E5F Accuracy: -m0
  Conclusion: CDDA 100%
  Signature: DC1247EC28757CA5778A63DFBC36D3B85BE0710F
FILE: 01-09 Late Night Alumni - For Life.flac
  Size: 29654662 Hash: 588422299F5CE7F61EBB4FCD7669C927 Accuracy: -m0
  Conclusion: CDDA 100%
  Signature: 836C9970D4D5CE0EF3A111A9CBFF3EB94530705A
FILE: 01-08 Late Night Alumni - Main Street.flac
  Size: 20655547 Hash: 7414261176E6B753388DE519BCEF9A85 Accuracy: -m0
  Conclusion: CDDA 100%
  Signature: 98D070EEA9124320B6D6CEAE20BD8DA7A0E67371
FILE: 01-07 Late Night Alumni - Sustaining.flac
  Size: 24900501 Hash: 357FE9225C362ABDD4C16E4D431A3176 Accuracy: -m0
  Conclusion: CDDA 100%
  Signature: C401F3EF34674E830033427D53182B568CE63B93
FILE: 01-06 Late Night Alumni - Angels and Angles.flac
  Size: 32247853 Hash: 35C420CADB9CBC6B938C6858F8991D38 Accuracy: -m0
  Conclusion: CDDA 99%
  Signature: C0038573E5EE2E902056FDD301D0BDCC30E6C1B6
FILE: 01-05 Late Night Alumni - Vixen.flac
  Size: 26927565 Hash: E2D2A66C8105130123650E108D17AD5F Accuracy: -m0
  Conclusion: CDDA 100%
  Signature: 2CF82F082A9DE73A990FFE0A68957A7E6B254A0F
FILE: 01-04 Late Night Alumni - Epilogue.flac
  Size: 22835499 Hash: 983569E339D949CDC9535BEC485DB3F7 Accuracy: -m0
  Conclusion: CDDA 100%
  Signature: AB2CB02CA8DC22A887CD72689441CBFCCB49336A
FILE: 01-03 Late Night Alumni - This Is Why.flac
  Size: 26844583 Hash: EB1C8A5EDFC16BB7C3A934B9B80874ED Accuracy: -m0
  Conclusion: CDDA 100%
  Signature: FC060D7EA668B560593E95F5202DC81FCD8D1B39
FILE: 01-02 Late Night Alumni - In the Ashes.flac
  Size: 30872433 Hash: 72965B5B1F7585945F1FEC61039BA52C Accuracy: -m0
  Conclusion: CDDA 100%
  Signature: 49E4451E1D283B0FDB2BC0F4E439449F74A3206C
FILE: 01-01 Late Night Alumni - It's Not Happening.flac
  Size: 22609648 Hash: 1CA12E3C47CAADD0445956BC1B868A54 Accuracy: -m0
  Conclusion: CDDA 99%
  Signature: 28304F64F4F8FC16520C92158CD78060D449117D
#77Год: 2013
Жанр: Vocal House, Deep House, Chill
Продолжительность: 00:54:56

Кодек: FLAC
Битрейт: Lossless

Трек лист:

1. Ring a Bell
2. The World Spins 'Round
3. Shine
4. Every Breath Is Like a Heartbeat
5. Summer Lies
6. Sun Space
7. Days
8. My Awake
9. It's Only Life
10. Sapphire
11. Mistake
12. Everything
Код:
Код: Выделить всё
-----------------------

DON'T MODIFY THIS FILE

-----------------------

PERFORMER: auCDtect Task Manager, ver. 1.5.1RC4 build 1.5.1.5
Copyright (c) 2008-2010 y-soft. All rights reserved
http:/y-soft.org

ANALYZER: auCDtect: CD records authenticity detector, version 0.8.2
Copyright (c) 2004 Oleg Berngardt. All rights reserved.
Copyright (c) 2004 Alexander Djourik. All rights reserved.

FILE: 12. Everything.flac
  Size: 27962583 Hash: 04C00CBA5E91170977840C7AE1C870F3 Accuracy: -m0
  Conclusion: CDDA 100%
  Signature: 11F3C9E517AE3B99B6CB0C4A988D502B3D57EAC8
FILE: 11. Mistake.flac
  Size: 26580843 Hash: 9B2951CB019361E65FE21CCE1300D591 Accuracy: -m0
  Conclusion: CDDA 100%
  Signature: 8A595A71FD7931AD74E483AFA42512683D785A95
FILE: 10. Sapphire.flac
  Size: 43706631 Hash: 8A1C505A541CE52FD8C61197CE55C486 Accuracy: -m0
  Conclusion: CDDA 100%
  Signature: C6B9D118BF5B49874DE106A9D76E171534FB6131
FILE: 09. It's Only Life.flac
  Size: 28583621 Hash: 1E6C51505673C349D241CEC29C145B3E Accuracy: -m0
  Conclusion: CDDA 100%
  Signature: C610C5B98E5F090DA3A56F73CAA0858676784293
FILE: 08. My Awake.flac
  Size: 35736537 Hash: 0EDDCB4127318167E746BFDEC5302C63 Accuracy: -m0
  Conclusion: CDDA 100%
  Signature: 04461731344D9A8B421F8A51D648D54773E9A999
FILE: 07. Days.flac
  Size: 33228180 Hash: ECE00DC3781B9BB69BF33A1D72262494 Accuracy: -m0
  Conclusion: CDDA 100%
  Signature: 0E14892CD835704A0DBDBA6A6E85EE4C833D37E9
FILE: 06. Sun Space.flac
  Size: 22981174 Hash: 5CA21DAB1F58F5F19A1BDDCF5788AD27 Accuracy: -m0
  Conclusion: CDDA 100%
  Signature: 7F1606AE8F0D7BCDFC57BA13FA69B754F28D3E7F
FILE: 05. Summer Lies.flac
  Size: 37720066 Hash: 10477AECDA42A43D08CB3D313A9A90BB Accuracy: -m0
  Conclusion: CDDA 100%
  Signature: E36015D43B17CB1AFE31D8523B5A0506219B19F0
FILE: 04. Every Breath Is Like A Heartbeat.flac
  Size: 37574338 Hash: BE58A4D9A91329251958D8BC76FC841E Accuracy: -m0
  Conclusion: CDDA 100%
  Signature: D5C56A5CE649B62F999E930AA1D15BCA655CB561
FILE: 03. Shine.flac
  Size: 33697040 Hash: 6B743AC90B7BF4B7A1ABB75AA6C332D3 Accuracy: -m0
  Conclusion: CDDA 100%
  Signature: 76030F5F45E5056934118FB17BDAA68065160222
FILE: 02. The World Spins 'Round.flac
  Size: 34080746 Hash: 4BB9E5BE230AF6AAB03E3D29F958648C Accuracy: -m0
  Conclusion: CDDA 99%
  Signature: 775506C04814E88DEDF4C2519BFB3B6DC201F238
FILE: 01. Ring A Bell.flac
  Size: 37187240 Hash: 94B66361DACA105DAF25872A1D520C25 Accuracy: -m0
  Conclusion: CDDA 100%
  Signature: C431796782E62BD7F5E50CB151816191D74C1FFC
#77Год: 2015
Жанр: Vocal House, Deep House, Chill
Продолжительность: 00:45:01

Кодек: FLAC
Битрейт: Lossless

Трек лист:

1. Another Word For Love
2. Joan Of Arc
3. Runaway
4. Drummer
5. Shades At Night
6. Good Measure
7. The This This
8. Constellations
9. In The Middle
10. Legion
11. The This This (Kaskade remix)
Код:
Код: Выделить всё
-----------------------

DON'T MODIFY THIS FILE

-----------------------

PERFORMER: auCDtect Task Manager, ver. 1.5.1RC4 build 1.5.1.5
Copyright (c) 2008-2010 y-soft. All rights reserved
http:/y-soft.org

ANALYZER: auCDtect: CD records authenticity detector, version 0.8.2
Copyright (c) 2004 Oleg Berngardt. All rights reserved.
Copyright (c) 2004 Alexander Djourik. All rights reserved.

FILE: 11. The This This (Kaskade remix).flac
  Size: 28110015 Hash: 097DD48200C8770C94ACA23CDA5154BC Accuracy: -m0
  Conclusion: CDDA 100%
  Signature: CC1124F3B00EFAA2E729DF277771EE04F0B7556D
FILE: 10. Legion.flac
  Size: 32861226 Hash: A2DD442EC3BA412D210108D2AC986726 Accuracy: -m0
  Conclusion: CDDA 100%
  Signature: 75F83A28753F2632A93C2CE786DA1FF3F8416E89
FILE: 09. In The Middle.flac
  Size: 26563221 Hash: 4C8F5C96EF17A0B3E8ACADE8050F1C35 Accuracy: -m0
  Conclusion: CDDA 100%
  Signature: 9AA563AFE3F8F462A43FD751DA32978A11639A9F
FILE: 08. Constellations.flac
  Size: 31689432 Hash: 746B63FAEFF550F8F35C01810CA178BB Accuracy: -m0
  Conclusion: CDDA 100%
  Signature: BB6275020C59ED7606F79C1D441359E0F8F8A290
FILE: 07. The This This.flac
  Size: 29033650 Hash: C20C714F242AC97A34E8AN81F9CDB8A7 Accuracy: -m0
  Conclusion: CDDA 100%
  Signature: 89814A15104C21E035B06E85D80A146NED002C72
FILE: 06. Good Measure.flac
  Size: 26076901 Hash: 5105FF553B28EDF5893C1MAF6DEA5EC7 Accuracy: -m0
  Conclusion: CDDA 100%
  Signature: 231ED2CF5BEB5301BA0EF38EC2EB45E5FE5473EA
FILE: 05. Shades At Night.flac
  Size: 35356075 Hash: 13B830EB958EB105FF598D478C4443AD Accuracy: -m0
  Conclusion: CDDA 100%
  Signature: 3E222601099C698BAE0135AAB6FE6255FD0BA346
FILE: 04. Drummer.flac
  Size: 33538811 Hash: EBAB5DB5DF84A77A0A545E7A4D084C67 Accuracy: -m0
  Conclusion: CDDA 100%
  Signature: 12929596316952C045569A927A66BF9279B1244A
FILE: 03. Runaway.flac
  Size: 31002468 Hash: 724EE9D62041E233A0AAB15DD3477297 Accuracy: -m0
  Conclusion: CDDA 100%
  Signature: 69E1AB2F0F1D8865BECE87BC05F6FD1EA17938CE
FILE: 02. Joan Of Arc.flac
  Size: 28887914 Hash: 7DB1748FBC7BBB845F10221F0422BBEA Accuracy: -m0
  Conclusion: CDDA 100%
  Signature: CD23B4BDC9A22030947AE8546BC3EC742025BF5D
FILE: 01. AnotherWordFor Love.flac
  Size: 30965131 Hash: 2B14917E1610059CA1BF2E2A320984F7 Accuracy: -m0
  Conclusion: CDDA 100%
  Signature: 37A98FBF81622D648F07F0ECA8024E1CF0FF523A
Время раздачи: До пяти скачавших.
 
Не забывайте говорить Спасибо. Не уходите с раздачи!   
Торрент: Зарегистрирован [03 июн 2015, 01:21] Скачать торрент
Скачать торрент
[ Размер 23.92 КБ / Просмотров 35 ]
Статус:
Проверен
 
.torrent скачан: 1 раз
Хэш: c7503fe1a41cbeecf6ac02c914b526392437626a
Размер: 1.71 ГБ (1 835 815 533 байт)
Стать Автором раздачи
 
 
Раздал: 6.67 ГБ
Скачал: 302.5 МБ
Ратио: 22.576
Сообщения: 374198
Зарегистрирован: 17 апр 2014, 11:05


  • Похожие торренты
    Ответы
    Просмотры
    Последнее сообщение

Вернуться в House, Techno, Electro, Minimal (транзит Lossless)

Ресурс не предоставляет электронные версии произведений, а занимается лишь коллекционированием и каталогизацией ссылок, присылаемых и публикуемых на форуме нашими читателями. Если вы являетесь правообладателем какого-либо представленного материала и не желаете чтобы ссылка на него находилась в нашем каталоге, свяжитесь с нами и мы незамедлительно удалим её. Файлы для обмена на трекере предоставлены пользователями сайта, и администрация не несёт ответственности за их содержание. Просьба не заливать файлы, защищенные авторскими правами, а также файлы нелегального содержания!
cron