Чужестранка / Outlander (2014) WEB-DLRip [H.264] (Сезон 1, серии 1-16 из 16) AlexFilm [MP4|720x400]

 
 Статистика раздачи 
Размер: 11.52 ГБ   |  Зарегистрирован: 02 июн 2015, 02:52   |   .torrent скачан: 0 раз
Сидеров: 1  [ 0 байт/сек ]     Личеров: 0  [ 0 байт/сек ]  
  

Чужестранка / Outlander (2014) WEB-DLRip [H.264] (Сезон 1, серии 1-16 из 16) AlexFilm [MP4|720x400]

Сообщение Thistoll » 02 июн 2015, 02:52

Чужестранка / Outlander (2014) WEB-DLRip [H.264] (Сезон 1, серии 1-16 из 16) AlexFilm
«What if your future was the past?»

Производство: США
Жанр: фантастика, драма, мелодрама

Режиссер: Анна Ферстер, Ричард Кларк, Брайан Келли
Актеры: Каитриона Бэлфи, Сэм Юэн, Дункан Лакруа, Гари Льюис, Грэм Мак Тавиш, Тобиаш Мензес, Стивен Уолтерс, Аннет Бэдленд, Родерик Джилкисон.

Описание:
Клэр, работавшая медсестрой во время Второй мировой войны, случайно перемещается во времени и попадает в 1743 год. В этом мире, полном приключений, она знакомится с шотландским рыцарем Джейми. У героев завязывается страстный роман, несмотря на то, что сердце Клэр разрывается между двумя мужчинами — Джейми и ее мужем Фрэнком, который остался в другом времени.

Сэмпл

Продолжительность: ~ 01:03:00 серия
Качество видео: WEB-DLRip
Перевод: Многоголосый закадровый, профессиональный - студия "Кириллица" для телеканала Sony TV
Автор перевода: Зоя Степанова
Озвучка: Лариса Некипелова, Людмила Иванова, Давид Петросян, Александр Хорлин
Монтаж и сведение звука: TVZ

Видео: AVC/H.264 (Main@L3.0), 720x400 (16:9), ~1536 Кбит/сек
Аудио #1: AAC, 2 канала, 160 Кбит/сек - русский (многоголосый закадровый, AlexFilm)
Аудио #2: AAC, 2 канала, 160 Кбит/сек - английский (оригинальный)
Код:
Код: Выделить всё
Полное имя                               : F:\Outlander_s1_WEB-DLRip_x264_AlexFilm_[NNM-CLUB]\Outlander.S01E01.WEB-DLRip.x264.rus.eng.AlexFilm.mp4
Формат                                   : MPEG-4
Профиль формата                          : Base Media
Идентификатор кодека                     : isom
Размер файла                             : 811 Мбайт
Продолжительность                        : 1 ч. 0 м.
Общий поток                              : 1864 Кбит/сек
Программа кодирования                    : XviD4PSP 7.0.129

Видео
Идентификатор                            : 1
Формат                                   : AVC
Формат/Информация                        : Advanced Video Codec
Профиль формата                          :
Параметр CABAC формата                   : Нет
Параметр ReFrames формата                : 3 кадра
Идентификатор кодека                     : avc1
Идентификатор кодека/Информация          : Advanced Video Coding
Продолжительность                        : 1 ч. 0 м.
Битрейт                                  : 1536 Кбит/сек
Ширина                                   : 720 пикселей
Высота                                   : 400 пикселей
Соотношение сторон                       : 16:9
Режим частоты кадров                     : Постоянный
Частота кадров                           : 25,000 кадров/сек
Цветовое пространство                    : YUV
Субдискретизация насыщенности            : 4:2:0
Битовая глубина                          : 8 бит
Тип развёртки                            : Прогрессивная
Бит/(Пиксели*Кадры)                      : 0.213
Размер потока                            : 669 Мбайт (82%)
Библиотека кодирования                   : x264 core 146 r2538M 121396c
Настройки программы                      : cabac=0 / ref=3 / deblock=1:0:0 / analyse=0x1:0x131 / me=hex / subme=7 / psy=1 / psy_rd=1,00:0,20 / mixed_ref=1 / me_range=16 / chroma_me=1 / trellis=1 / 8x8dct=0 / cqm=0 / deadzone=21,11 / fast_pskip=1 / chroma_qp_offset=-3 / threads=14 / lookahead_threads=2 / sliced_threads=0 / nr=0 / decimate=1 / interlaced=0 / bluray_compat=0 / constrained_intra=0 / bframes=0 / weightp=2 / keyint=250 / keyint_min=25 / scenecut=0 / intra_refresh=0 / rc_lookahead=250 / rc=2pass / mbtree=1 / bitrate=1536 / ratetol=1,0 / qcomp=0,60 / qpmin=10 / qpmax=51 / qpstep=4 / cplxblur=20,0 / qblur=0,5 / ip_ratio=1,40 / aq=1:1,00
Язык                                     : English
Основные цвета                           : BT.709
Характеристики трансфера                 : BT.709
Коэффициенты матрицы                     : BT.709

Аудио #1
Идентификатор                            : 2
Формат                                   : AAC
Формат/Информация                        : Advanced Audio Codec
Профиль формата                          : LC
Идентификатор кодека                     : 40
Продолжительность                        : 1 ч. 0 м.
Вид битрейта                             : Постоянный
Битрейт                                  : 160 Кбит/сек
Каналы                                   : 2 канала
Расположение каналов                     : Front: L R
Частота                                  : 48,0 КГц
Метод сжатия                             : С потерями
Размер потока                            : 69,7 Мбайт (9%)
Заголовок                                : AlexFilm
Язык                                     : Russian

Аудио #2
Идентификатор                            : 3
Формат                                   : AAC
Формат/Информация                        : Advanced Audio Codec
Профиль формата                          : LC
Идентификатор кодека                     : 40
Продолжительность                        : 1 ч. 0 м.
Вид битрейта                             : Постоянный
Битрейт                                  : 160 Кбит/сек
Каналы                                   : 2 канала
Расположение каналов                     : Front: L R
Частота                                  : 48,0 КГц
Метод сжатия                             : С потерями
Размер потока                            : 69,7 Мбайт (9%)
Заголовок                                : Original
Язык                                     : English
01. Sassenach / Сэсинак (Чужестранка)
02. Castle Leoch / Замок Леох
03. The Way Out / Выход
04. The Gathering / Cобрание
05. Rent / Оброк
06. The Garrison Commander / Командир гарнизона
07. The Wedding / Cвадьба
08. Both Sides Now / Теперь по обе стороны
09. The Reckoning / Расчет
10. By the Pricking of My Thumbs / Палец у меня зудит... (Шекспир, Макбет)
11. The Devil's Mark / Метка дьявола
12. Lallybroch / Лалиброх
13. The Watch / Стража
14. The Search / Поиски
15. Wentworth Prison / Тюрьма Вентворт
16. To Ransom a Man's Soul /

Скриншоты:




Время раздачи:
24/7 - круглосуточно
(до первых 5-ти сидов - потом по возможности)
 
Не забывайте говорить Спасибо. Не уходите с раздачи!   
Торрент: Зарегистрирован [02 июн 2015, 02:52] Для скачивания .torrent
необходима регистрация
Или скачать с помощью
MediaGet
Статус:
Проверен
 
.torrent скачан: 0 раз
Хэш: b8298d4bfe76dcef25a061cdac2979d369d26742
Размер: 11.52 ГБ (12 373 611 037 байт)
Стать Автором раздачи
 
 
Раздал: 6.67 ГБ
Скачал: 302.5 МБ
Ратио: 22.576
Сообщения: 374198
Зарегистрирован: 17 апр 2014, 11:05


  • Похожие торренты
    Ответы
    Просмотры
    Последнее сообщение

Вернуться в Видео для мобильных устройств

Ресурс не предоставляет электронные версии произведений, а занимается лишь коллекционированием и каталогизацией ссылок, присылаемых и публикуемых на форуме нашими читателями. Если вы являетесь правообладателем какого-либо представленного материала и не желаете чтобы ссылка на него находилась в нашем каталоге, свяжитесь с нами и мы незамедлительно удалим её. Файлы для обмена на трекере предоставлены пользователями сайта, и администрация не несёт ответственности за их содержание. Просьба не заливать файлы, защищенные авторскими правами, а также файлы нелегального содержания!
cron