Кени Аркана - Я осмелилась / Keny Arkana - J'ai Osé (2013) WEBRip

 
 Статистика раздачи 
Размер: 124.63 МБ   |  Зарегистрирован: 02 июн 2015, 02:29   |   .torrent скачан: 0 раз
Сидеров: 1  [ 0 байт/сек ]     Личеров: 0  [ 0 байт/сек ]  
  

Кени Аркана - Я осмелилась / Keny Arkana - J'ai Osé (2013) WEBRip

Сообщение Thistoll » 02 июн 2015, 02:29

Кени Аркана - Я осмелилась / Keny Arkana - J'ai Osé (2013) WEBRip

Жанр: Музыкальный

Режиссер: Keny Arkana
Актеры: Keny Arkana

Описание:
Французская рэп-исполнительница аргентинского происхождения. В 2004 основала музыкальный коллектив под названием La Rage du peuple, что в переводе с французского обозначает - Движение народного гнев

Продолжительность: 00:04:20
Качество видео: WEBRip
Перевод: Отсутствует

Видео: AVC/H.264, 1920x1080, ~3748 Kbps
Аудио: AAC, 2 ch, 254 Kbps
Код:
Код: Выделить всё
General
Complete name               : E:\Downloads\Keny Arkana - J'ai Osé (Clip Officiel).mp4
Format                      : MPEG-4
Format profile              : Base Media
Codec ID                    : isom
File size                   : 125 MiB
Duration                    : 4mn 20s
Overall bit rate            : 4 007 Kbps
Writing application         : Lavf56.19.100

Video
ID                          : 1
Format                      : AVC
Format/Info                 : Advanced Video Codec
Format profile              : High@L4
Format settings, CABAC      : Yes
Format settings, ReFrames   : 3 frames
Codec ID                    : avc1
Codec ID/Info               : Advanced Video Coding
Duration                    : 4mn 20s
Bit rate                    : 3 748 Kbps
Width                       : 1 920 pixels
Height                      : 1 080 pixels
Display aspect ratio        : 16:9
Frame rate mode             : Variable
Frame rate                  : 23.976 fps
Minimum frame rate          : 23.974 fps
Maximum frame rate          : 23.981 fps
Color space                 : YUV
Chroma subsampling          : 4:2:0
Bit depth                   : 8 bits
Scan type                   : Progressive
Bits/(Pixel*Frame)          : 0.075
Stream size                 : 117 MiB (94%)

Audio
ID                          : 2
Format                      : AAC
Format/Info                 : Advanced Audio Codec
Format profile              : LC
Codec ID                    : 40
Duration                    : 4mn 20s
Bit rate mode               : Constant
Bit rate                    : 254 Kbps
Channel(s)                  : 2 channels
Channel positions           : Front: L R
Sampling rate               : 44.1 KHz
Compression mode            : Lossy
Stream size                 : 7.89 MiB (6%)

Скриншоты:



Время раздачи: 24/7
 
Не забывайте говорить Спасибо. Не уходите с раздачи!   
Торрент: Зарегистрирован [02 июн 2015, 02:29] Скачать торрент
Скачать торрент
[ Размер 20.24 КБ / Просмотров 7 ]
Статус:
Проверен
 
.torrent скачан: 0 раз
Хэш: fcbc3ca3a678e2151afbdfbce9830e6f11b582cc
Размер: 124.63 МБ (130 679 377 байт)
Стать Автором раздачи
 
 
Раздал: 6.67 ГБ
Скачал: 302.5 МБ
Ратио: 22.576
Сообщения: 374198
Зарегистрирован: 17 апр 2014, 11:05


Вернуться в Музыкальные клипы (транзит)

Ресурс не предоставляет электронные версии произведений, а занимается лишь коллекционированием и каталогизацией ссылок, присылаемых и публикуемых на форуме нашими читателями. Если вы являетесь правообладателем какого-либо представленного материала и не желаете чтобы ссылка на него находилась в нашем каталоге, свяжитесь с нами и мы незамедлительно удалим её. Файлы для обмена на трекере предоставлены пользователями сайта, и администрация не несёт ответственности за их содержание. Просьба не заливать файлы, защищенные авторскими правами, а также файлы нелегального содержания!
cron