Кени Аркана - Марсель / Keny Arkana - Marseille (feat. Kalash l'Afro & RPZ) (2011) WEBRip

 
 Статистика раздачи 
Размер: 106.13 МБ   |  Зарегистрирован: 02 июн 2015, 02:23   |   .torrent скачан: 0 раз
Сидеров: 1  [ 0 байт/сек ]     Личеров: 0  [ 0 байт/сек ]  
  

Кени Аркана - Марсель / Keny Arkana - Marseille (feat. Kalash l'Afro & RPZ) (2011) WEBRip

Сообщение Thistoll » 02 июн 2015, 02:23

Кени Аркана - Марсель / Keny Arkana - Marseille (feat. Kalash l'Afro & RPZ) (2011) WEBRip

Жанр: Музыкальный

Режиссер: Keny Arkana
Актеры: Keny Arkana

Описание:
Французская рэп-исполнительница аргентинского происхождения. В 2004 основала музыкальный коллектив под названием La Rage du peuple, что в переводе с французского обозначает - Движение народного гнева

Продолжительность: 00:04:16
Качество видео: WEBRip
Перевод: Отсутствует
Язык: FR

Видео: AVC/H.264, 1920x1080, ~3207 Kbps
Аудио: AAC, 2 ch, 254 Kbps, CBR
Код:
Код: Выделить всё
General
Complete name               : E:\Downloads\Keny Arkana - Marseille feat. Kalash l'Afro & RPZ (Clip Officiel).mp4
Format                      : MPEG-4
Format profile              : Base Media
Codec ID                    : isom
File size                   : 106 MiB
Duration                    : 4mn 16s
Overall bit rate            : 3 466 Kbps
Writing application         : Lavf56.19.100

Video
ID                          : 1
Format                      : AVC
Format/Info                 : Advanced Video Codec
Format profile              : High@L4
Format settings, CABAC      : Yes
Format settings, ReFrames   : 3 frames
Codec ID                    : avc1
Codec ID/Info               : Advanced Video Coding
Duration                    : 4mn 16s
Bit rate                    : 3 207 Kbps
Width                       : 1 920 pixels
Height                      : 1 080 pixels
Display aspect ratio        : 16:9
Frame rate mode             : Constant
Frame rate                  : 25.000 fps
Color space                 : YUV
Chroma subsampling          : 4:2:0
Bit depth                   : 8 bits
Scan type                   : Progressive
Bits/(Pixel*Frame)          : 0.062
Stream size                 : 98.2 MiB (93%)

Audio
ID                          : 2
Format                      : AAC
Format/Info                 : Advanced Audio Codec
Format profile              : LC
Codec ID                    : 40
Duration                    : 4mn 16s
Bit rate mode               : Constant
Bit rate                    : 254 Kbps
Channel(s)                  : 2 channels
Channel positions           : Front: L R
Sampling rate               : 44.1 KHz
Compression mode            : Lossy
Stream size                 : 7.76 MiB (7%)

Скриншоты:



Время раздачи: с 9:00 до 21:00
 
Не забывайте говорить Спасибо. Не уходите с раздачи!   
Торрент: Зарегистрирован [02 июн 2015, 02:23] Скачать торрент
Скачать торрент
[ Размер 17.39 КБ / Просмотров 9 ]
Статус:
Проверен
 
.torrent скачан: 0 раз
Хэш: 73fe52532bca6a68a37e9f3f50095ffac94ed52e
Размер: 106.13 МБ (111 283 867 байт)
Стать Автором раздачи
 
 
Раздал: 6.67 ГБ
Скачал: 302.5 МБ
Ратио: 22.576
Сообщения: 374198
Зарегистрирован: 17 апр 2014, 11:05


  • Похожие торренты
    Ответы
    Просмотры
    Последнее сообщение

Вернуться в Музыкальные клипы (транзит)

Ресурс не предоставляет электронные версии произведений, а занимается лишь коллекционированием и каталогизацией ссылок, присылаемых и публикуемых на форуме нашими читателями. Если вы являетесь правообладателем какого-либо представленного материала и не желаете чтобы ссылка на него находилась в нашем каталоге, свяжитесь с нами и мы незамедлительно удалим её. Файлы для обмена на трекере предоставлены пользователями сайта, и администрация не несёт ответственности за их содержание. Просьба не заливать файлы, защищенные авторскими правами, а также файлы нелегального содержания!
cron