Чужестранка / Outlander (2014) HDTVRip / WEB-DLRip [H.264] (Сезон 1, серии 1-15 из 16) BaibaKo [MP4|720x400]

 
 Статистика раздачи 
Размер: 11.45 ГБ   |  Зарегистрирован: 02 июн 2015, 02:00   |   .torrent скачан: 0 раз
Сидеров: 1  [ 0 байт/сек ]     Личеров: 0  [ 0 байт/сек ]  
  

Чужестранка / Outlander (2014) HDTVRip / WEB-DLRip [H.264] (Сезон 1, серии 1-15 из 16) BaibaKo [MP4|720x400]

Сообщение Thistoll » 02 июн 2015, 02:00

Чужестранка / Outlander (2014) HDTVRip / WEB-DLRip [H.264]
(Сезон 1, серии 1-15 из 16) BaibaKo
«What if your future was the past?»

Производство: США
Жанр: фантастика, драма, мелодрама

Режиссер: Анна Ферстер, Ричард Кларк, Брайан Келли
Актеры: Каитриона Бэлфи, Сэм Юэн, Дункан Лакруа, Гари Льюис, Грэм Мак Тавиш, Тобиаш Мензес, Стивен Уолтерс, Аннет Бэдленд, Родерик Джилкисон.

Описание:
Клэр, работавшая медсестрой во время Второй мировой войны, случайно перемещается во времени и попадает в 1743 год. В этом мире, полном приключений, она знакомится с шотландским рыцарем Джейми. У героев завязывается страстный роман, несмотря на то, что сердце Клэр разрывается между двумя мужчинами — Джейми и ее мужем Фрэнком, который остался в другом времени.

Сэмпл

Продолжительность: ~ 01:03:00 серия
Качество видео: HDTVRip | WEB-DLRip
Перевод: Многоголосый закадровый, профессиональный - BaibaKo
Автор перевода: Татьяна Saavick
Озвучка: Ольга Мотрич, Лира Грим, Акмал Гурезов, Артемий Мирон и Алексей Кузнецов
Монтаж: Павел Дежин

Видео: AVC/H.264, 720x400 (16:9), ~1536 Кбит/сек
Аудио #1: AAC, 2 канала, 192 Кбит/сек - русский (многоголосый закадровый, BaibaKo)
Аудио #2: AAC, 2 канала, 192 Кбит/сек - английский (оригинальный)
Код:
Код: Выделить всё
Полное имя                               : D:\Outlander_s1_HDTVRip_BaibaKo_[NNM-CLUB]\Outlander.s01e01.HDTVRip.x264.Rus.Eng.BaibaKo.tv.mp4
Формат                                   : MPEG-4
Профиль формата                          : Base Media
Идентификатор кодека                     : isom
Размер файла                             : 872 Мбайт
Продолжительность                        : 1 ч. 3 м.
Режим общего битрейта                    : Переменный
Общий поток                              : 1920 Кбит/сек
Дата кодирования                         : UTC 2014-08-04 04:16:10
Дата пометки                             : UTC 2014-08-04 04:16:10

Видео
Идентификатор                            : 1
Формат                                   : AVC
Формат/Информация                        : Advanced Video Codec
Профиль формата                          :
Параметр CABAC формата                   : Нет
Параметр ReFrames формата                : 3 кадра
Идентификатор кодека                     : avc1
Идентификатор кодека/Информация          : Advanced Video Coding
Продолжительность                        : 1 ч. 3 м.
Битрейт                                  : 1536 Кбит/сек
Максимальный битрейт                     : 9387 Кбит/сек
Ширина                                   : 720 пикселей
Высота                                   : 400 пикселей
Соотношение сторон                       : 16:9
Режим частоты кадров                     : Переменный
Частота кадров                           : 23,976 кадра/сек
Минимальная частота кадров               : 23,974 кадра/сек
Максимальная частота кадров              : 23,981 кадра/сек
Цветовое пространство                    : YUV
Субдискретизация насыщенности            : 4:2:0
Битовая глубина                          : 8 бит
Тип развёртки                            : Прогрессивная
Бит/(Пиксели*Кадры)                      : 0.222
Размер потока                            : 698 Мбайт (80%)
Библиотека кодирования                   : x264 core 130 r2273 b3065e6
Настройки программы                      : cabac=0 / ref=3 / deblock=1:0:0 / analyse=0x1:0x111 / me=hex / subme=7 / psy=1 / psy_rd=1.00:0.00 / mixed_ref=1 / me_range=16 / chroma_me=1 / trellis=1 / 8x8dct=0 / cqm=0 / deadzone=21,11 / fast_pskip=1 / chroma_qp_offset=-2 / threads=12 / lookahead_threads=2 / sliced_threads=0 / nr=0 / decimate=1 / interlaced=0 / bluray_compat=0 / constrained_intra=0 / bframes=0 / weightp=0 / keyint=240 / keyint_min=24 / scenecut=40 / intra_refresh=0 / rc_lookahead=40 / rc=2pass / mbtree=1 / bitrate=1536 / ratetol=1.0 / qcomp=0.60 / qpmin=0 / qpmax=69 / qpstep=4 / cplxblur=20.0 / qblur=0.5 / ip_ratio=1.40 / aq=1:1.00
Дата кодирования                         : UTC 2014-08-03 22:30:47
Дата пометки                             : UTC 2014-08-04 04:17:19
Основные цвета                           : BT.709
Характеристики трансфера                 : BT.709
Коэффициенты матрицы                     : BT.709

Аудио #1
Идентификатор                            : 2
Формат                                   : AAC
Формат/Информация                        : Advanced Audio Codec
Профиль формата                          : LC
Идентификатор кодека                     : 67
Продолжительность                        : 1 ч. 3 м.
Вид битрейта                             : Переменный
Битрейт                                  : 192 Кбит/сек
Максимальный битрейт                     : 196 Кбит/сек
Каналы                                   : 2 канала
Расположение каналов                     : Front: L R
Частота                                  : 48,0 КГц
Метод сжатия                             : С потерями
Размер потока                            : 86,1 Мбайт (10%)
Язык                                     : Russian
Дата кодирования                         : UTC 2014-08-04 04:16:55
Дата пометки                             : UTC 2014-08-04 04:17:19

Аудио #2
Идентификатор                            : 3
Формат                                   : AAC
Формат/Информация                        : Advanced Audio Codec
Профиль формата                          : LC
Идентификатор кодека                     : 67
Продолжительность                        : 1 ч. 3 м.
Вид битрейта                             : Переменный
Битрейт                                  : 192 Кбит/сек
Максимальный битрейт                     : 196 Кбит/сек
Каналы                                   : 2 канала
Расположение каналов                     : Front: L R
Частота                                  : 48,0 КГц
Метод сжатия                             : С потерями
Размер потока                            : 86,1 Мбайт (10%)
Язык                                     : English
Дата кодирования                         : UTC 2014-08-04 04:17:10
Дата пометки                             : UTC 2014-08-04 04:17:19
01. Sassenach / Сэсинак (Чужестранка)
02. Castle Leoch / Замок Леох
03. The Way Out / Выход
04. The Gathering / Cобрание
05. Rent / Оброк
06. The Garrison Commander / Командир гарнизона
07. The Wedding / Cвадьба
08. Both Sides Now / Теперь по обе стороны
09. The Reckoning / Расчет
10. By the Pricking of My Thumbs / Палец у меня зудит... (Шекспир, Макбет)
11. The Devil's Mark / Метка дьявола
12. Lallybroch / Лалиброх
13. The Watch / Стража
14. The Search / Поиски
Внимание! Раздача ведётся путём добавления новых серий; при каждом добавлении создаётся новый торрент.
Чтобы начать докачку новой серии, пользователям необходимо сделать следующее:
1. Остановить скачивание;
2. Удалить старый торрент у себя из клиента (старые серии удалять не надо);
3. Скачать новый торрент и запустить его у себя в клиенте вместо старого, при этом указать клиенту путь в старую папку куда и должно происходить скачивание новых серий. Ваш клиент при этом должен произвести хеширование (проверку) старой папки и будет докачивать только те серии, которых у вас ещё нет. Старые серии при этом не удаляются, а продолжают раздаваться! Eсли вы уже удалили старые серии, то предотвратить повторную закачку старых серий можно, отжав галочку в соответствующих местах при запуске нового торрента.

Скриншоты:




Время раздачи:
24/7 - круглосуточно
(до первых 5-ти сидов - потом по возможности)
 
Не забывайте говорить Спасибо. Не уходите с раздачи!   
Торрент: Зарегистрирован [02 июн 2015, 02:00] Для скачивания .torrent
необходима регистрация
Или скачать с помощью
MediaGet
Статус:
Проверен
 
.torrent скачан: 0 раз
Хэш: 83be4dbc8b5e690a1e4a85897e4703b962864821
Размер: 11.45 ГБ (12 298 636 227 байт)
Стать Автором раздачи
 
 
Раздал: 6.67 ГБ
Скачал: 302.5 МБ
Ратио: 22.576
Сообщения: 374198
Зарегистрирован: 17 апр 2014, 11:05


  • Похожие торренты
    Ответы
    Просмотры
    Последнее сообщение

Вернуться в Видео для мобильных устройств

Ресурс не предоставляет электронные версии произведений, а занимается лишь коллекционированием и каталогизацией ссылок, присылаемых и публикуемых на форуме нашими читателями. Если вы являетесь правообладателем какого-либо представленного материала и не желаете чтобы ссылка на него находилась в нашем каталоге, свяжитесь с нами и мы незамедлительно удалим её. Файлы для обмена на трекере предоставлены пользователями сайта, и администрация не несёт ответственности за их содержание. Просьба не заливать файлы, защищенные авторскими правами, а также файлы нелегального содержания!
cron