Последователи / The Following (2013-2015) WEB-DL [H.264] (Сезон 1-3, серии 1-45 из 45) LostFilm [MP4|1280x720/1280x718]

 
 Статистика раздачи 
Размер: 57.56 ГБ   |  Зарегистрирован: 31 май 2015, 02:10   |   .torrent скачан: 0 раз
Сидеров: 1  [ 0 байт/сек ]     Личеров: 1  [ 0 байт/сек ]  
  

Последователи / The Following (2013-2015) WEB-DL [H.264] (Сезон 1-3, серии 1-45 из 45) LostFilm [MP4|1280x720/1280x718]

Сообщение Thistoll » 31 май 2015, 02:10

Последователи (The Following) / (Сезон 1-3, серии 1-45 из 45) LostFilm (2013-2015) WEB-DLRip

«They will never let go»

Производство: США
Жанр: Триллер, Криминал, Драма, Детектив

Описание фильма:
Главный антигерой - Джо Кэрролл, бывший профессор колледжа, который преподавал работы Эдгара По и параллельно убивал молодых женщин во славу романтизма, пока не был пойман. С того момента он провел множество часов за компьютером в тюремной библиотеке, создавая социальную сеть из убийц-подражателей, которые исполняют любую его команду. Сериал начинается с того момента, когда Кэрролл спасается от смертной казни с помощью своих последователей, и ФБР, в свою очередь, приглашает Райана Харди, который схватил Джо в первый раз, для консультирования в деле его поимки.

Режиссер: Маркос Сига, Николь Кэссел, Джошуа Батлер
Продюсер: Маркос Сига, Кевин Уильямсон, Майкл Стрикс
Актеры: Кевин Бейкон, Джеймс Пьюрфой, Шон Эшмор, Кайл Кэтлетт, Натали Зиа, Энни Пэррис, Нико Торторелла и др.

Продолжительность: 45x ~00:44:00 серия
Перевод: Профессиональный многоголосый закадровый LostFilm
Релиз группа: LostFilm

Дата мировой премьеры: 21 января 2013
Дата российской премьеры: 8 апреля 2013
Формат: MP4
Качество видео: WEB-DL
Видеокодек: AVC/H.264
Битрейт видео: ~4000 kb/s
Размер кадра: 1280x720/1280x718
Аудиокодек: AAC
Битрейт аудио: 128 kb/s 2.0 VBR LC
Код:
Код: Выделить всё
General
Complete name               : D:\Сериалы\Последователи (Сезон 1-3)-LostFilm.WEB-DL-720p-NNM-Club\The Following 1 - LostFilm.TV.Web-DL-720P-MP4-NNM-Club\The.Following.S01E07.720p.WEB.rus.LostFilm.TV.mp4
Format                      : MPEG-4
Format profile              : Base Media
Codec ID                    : isom
File size                   : 1.20 GiB
Duration                    : 42mn 6s
Overall bit rate mode       : Variable
Overall bit rate            : 4 063 Kbps
Collection                  : Последователи
Season                      : 1
Album                       : Последователи, Сезон 1
Album/Performer             : Последователи
Part                        : 7
Part/Position               : 1
Track name                  : Отпусти меня
Track name/Position         : 7
Performer                   : Последователи
Genre                       : Drama
ContentType                 : TV Show
Recorded date               : 2013
Encoded date                : UTC 2013-03-05 16:01:13
Tagged date                 : UTC 2013-03-06 16:03:37
Writing application         : LostCoder
Copyright                   : LostFilm.TV (c)
Cover                       : Yes
Comment                     : Бывший профессор колледжа преподавал работы Эдгара По и убивал женщин во славу романтизма, пока не был пойман. Он провел много часов за компьютером в тюремной библиотеке, создавая социальную сеть из убийц-подражателей, которые исполняют любую его команду.
Part_ID                     : 107

Video
ID                          : 1
Format                      : AVC
Format/Info                 : Advanced Video Codec
Format profile              :
Format settings, CABAC      : No
Format settings, ReFrames   : 2 frames
Codec ID                    : avc1
Codec ID/Info               : Advanced Video Coding
Duration                    : 42mn 6s
Bit rate                    : 4 000 Kbps
Maximum bit rate            : 12.1 Mbps
Width                       : 1 280 pixels
Height                      : 720 pixels
Display aspect ratio        : 16:9
Frame rate mode             : Variable
Frame rate                  : 23.976 fps
Minimum frame rate          : 23.974 fps
Maximum frame rate          : 23.981 fps
Color space                 : YUV
Chroma subsampling          : 4:2:0
Bit depth                   : 8 bits
Scan type                   : Progressive
Bits/(Pixel*Frame)          : 0.181
Stream size                 : 1.16 GiB (97%)
Writing library             : x264 core 112 r1834 a51816a
Encoding settings           : cabac=0 / ref=3 / deblock=1:0:0 / analyse=0x1:0x111 / me=hex / subme=7 / psy=1 / psy_rd=1.00:0.00 / mixed_ref=1 / me_range=16 / chroma_me=1 / trellis=1 / 8x8dct=0 / cqm=0 / deadzone=21,11 / fast_pskip=1 / chroma_qp_offset=-2 / threads=6 / sliced_threads=0 / nr=0 / decimate=1 / interlaced=0 / constrained_intra=0 / bframes=3 / b_pyramid=2 / b_adapt=1 / b_bias=0 / direct=1 / weightb=1 / open_gop=0 / weightp=2 / keyint=250 / keyint_min=25 / scenecut=40 / intra_refresh=0 / rc_lookahead=40 / rc=abr / mbtree=1 / bitrate=4000 / ratetol=1.0 / qcomp=0.60 / qpmin=0 / qpmax=51 / qpstep=4 / vbv_maxrate=5000 / vbv_bufsize=2000 / ip_ratio=1.40 / aq=1:1.00 / nal_hrd=none
Language                    : English
Tagged date                 : UTC 2013-03-05 16:01:58
Color range                 : Limited
Color primaries             : BT.709
Transfer characteristics    : BT.709
Matrix coefficients         : BT.709

Audio
ID                          : 2
Format                      : AAC
Format/Info                 : Advanced Audio Codec
Format profile              : LC
Codec ID                    : 40
Duration                    : 42mn 6s
Bit rate mode               : Variable
Bit rate                    : 118 Kbps
Maximum bit rate            : 162 Kbps
Channel(s)                  : 2 channels
Channel positions           : Front: L R
Sampling rate               : 48.0 KHz
Compression mode            : Lossy
Stream size                 : 35.5 MiB (3%)
Encoded date                : UTC 2013-03-05 16:01:57
Tagged date                 : UTC 2013-03-05 16:01:58
Код:
Код: Выделить всё
General
Complete name               : D:\Сериалы\Последователи (Сезон 1-3)-LostFilm.WEB-DL-720p-NNM-Club\The Following 2 - LostFilm.TV.Web-DL-720P-MP4-NNM-Club\The.Following.S02E07.720p.WEB.rus.LostFilm.TV.mp4
Format                      : MPEG-4
Format profile              : Base Media
Codec ID                    : isom
File size                   : 1.31 GiB
Duration                    : 43mn 40s
Overall bit rate mode       : Variable
Overall bit rate            : 4 302 Kbps
Collection                  : Последователи
Season                      : 2
Album                       : Последователи, Сезон 2
Album/Performer             : Последователи
Part                        : 7
Part/Position               : 2
Track name                  : Жертва
Track name/Position         : 7
Performer                   : Последователи
Genre                       : Drama
ContentType                 : TV Show
Recorded date               : 2014
Encoded date                : UTC 2014-03-04 20:41:26
Tagged date                 : UTC 2014-03-05 20:44:06
Writing application         : LostCoder
Copyright                   : LostFilm.TV (c)
Cover                       : Yes
Comment                     : Бывший профессор колледжа преподавал работы Эдгара По и убивал женщин во славу романтизма, пока не был пойман. Он провел много часов за компьютером в тюремной библиотеке, создавая социальную сеть из убийц-подражателей, которые исполняют любую его команду.
Part_ID                     : 207

Video
ID                          : 1
Format                      : AVC
Format/Info                 : Advanced Video Codec
Format profile              :
Format settings, CABAC      : No
Format settings, ReFrames   : 2 frames
Codec ID                    : avc1
Codec ID/Info               : Advanced Video Coding
Duration                    : 43mn 40s
Bit rate                    : 4 000 Kbps
Maximum bit rate            : 13.1 Mbps
Width                       : 1 280 pixels
Height                      : 718 pixels
Display aspect ratio        : 16:9
Frame rate mode             : Variable
Frame rate                  : 23.976 fps
Minimum frame rate          : 23.974 fps
Maximum frame rate          : 23.981 fps
Color space                 : YUV
Chroma subsampling          : 4:2:0
Bit depth                   : 8 bits
Scan type                   : Progressive
Bits/(Pixel*Frame)          : 0.182
Stream size                 : 1.27 GiB (97%)
Writing library             : x264 core 112 r1834 a51816a
Encoding settings           : cabac=0 / ref=3 / deblock=1:0:0 / analyse=0x1:0x111 / me=hex / subme=7 / psy=1 / psy_rd=1.00:0.00 / mixed_ref=1 / me_range=16 / chroma_me=1 / trellis=1 / 8x8dct=0 / cqm=0 / deadzone=21,11 / fast_pskip=1 / chroma_qp_offset=-2 / threads=6 / sliced_threads=0 / nr=0 / decimate=1 / interlaced=0 / constrained_intra=0 / bframes=3 / b_pyramid=2 / b_adapt=1 / b_bias=0 / direct=1 / weightb=1 / open_gop=0 / weightp=2 / keyint=250 / keyint_min=25 / scenecut=40 / intra_refresh=0 / rc_lookahead=40 / rc=abr / mbtree=1 / bitrate=4000 / ratetol=1.0 / qcomp=0.60 / qpmin=0 / qpmax=51 / qpstep=4 / vbv_maxrate=5000 / vbv_bufsize=2000 / ip_ratio=1.40 / aq=1:1.00 / nal_hrd=none
Language                    : English
Tagged date                 : UTC 2014-03-04 20:42:06
Color range                 : Limited
Color primaries             : BT.709
Transfer characteristics    : BT.709
Matrix coefficients         : BT.709

Audio
ID                          : 2
Format                      : AAC
Format/Info                 : Advanced Audio Codec
Format profile              : LC
Codec ID                    : 40
Duration                    : 43mn 40s
Bit rate mode               : Variable
Bit rate                    : 128 Kbps
Maximum bit rate            : 213 Kbps
Channel(s)                  : 2 channels
Channel positions           : Front: L R
Sampling rate               : 48.0 KHz
Compression mode            : Lossy
Stream size                 : 39.9 MiB (3%)
Encoded date                : UTC 2014-03-04 20:42:04
Tagged date                 : UTC 2014-03-04 20:42:06
Код:
Код: Выделить всё
General
Complete name               : D:\Сериалы\Последователи (Сезон 1-3)-LostFilm.WEB-DL-720p-NNM-Club\The Following 3 - LostFilm.TV.Web-DL-720P-MP4-NNM-Club\The.Following.S03E15.720p.WEB.rus.LostFilm.TV.mp4
Format                      : MPEG-4
Format profile              : Base Media
Codec ID                    : isom
File size                   : 1.32 GiB
Duration                    : 44mn 5s
Overall bit rate mode       : Variable
Overall bit rate            : 4 293 Kbps
Collection                  : Последователи
Season                      : 3
Album                       : Последователи, Сезон 3
Album/Performer             : Последователи
Part                        : 12
Part/Position               : 3
Track name                  : Расплата
Track name/Position         : 15
Performer                   : Последователи
Genre                       : Drama
ContentType                 : TV Show
Recorded date               : 2015
Encoded date                : UTC 2015-05-21 16:15:56
Tagged date                 : UTC 2015-05-21 16:15:56
Writing application         : Yamb 2.1.0.0 [http:/yamb.unite-video.com] / LostCoder
Copyright                   : LostFilm.TV (c)
Cover                       : Yes
Comment                     : Бывший профессор колледжа преподавал работы Эдгара По и убивал женщин во славу романтизма, пока не был пойман. Он провел много часов за компьютером в тюремной библиотеке, создавая социальную сеть из убийц-подражателей, которые исполняют любую его команду.
Part_ID                     : 315

Video
ID                          : 1
Format                      : AVC
Format/Info                 : Advanced Video Codec
Format profile              :
Format settings, CABAC      : No
Format settings, ReFrames   : 2 frames
Codec ID                    : avc1
Codec ID/Info               : Advanced Video Coding
Duration                    : 44mn 5s
Bit rate                    : 4 000 Kbps
Maximum bit rate            : 13.4 Mbps
Width                       : 1 280 pixels
Height                      : 718 pixels
Display aspect ratio        : 16:9
Frame rate mode             : Variable
Frame rate                  : 23.976 fps
Minimum frame rate          : 23.974 fps
Maximum frame rate          : 23.981 fps
Color space                 : YUV
Chroma subsampling          : 4:2:0
Bit depth                   : 8 bits
Scan type                   : Progressive
Bits/(Pixel*Frame)          : 0.182
Stream size                 : 1.24 GiB (94%)
Writing library             : x264 core 112 r1834 a51816a
Encoding settings           : cabac=0 / ref=3 / deblock=1:0:0 / analyse=0x1:0x111 / me=hex / subme=7 / psy=1 / psy_rd=1.00:0.00 / mixed_ref=1 / me_range=16 / chroma_me=1 / trellis=1 / 8x8dct=0 / cqm=0 / deadzone=21,11 / fast_pskip=1 / chroma_qp_offset=-2 / threads=12 / sliced_threads=0 / nr=0 / decimate=1 / interlaced=0 / constrained_intra=0 / bframes=3 / b_pyramid=2 / b_adapt=1 / b_bias=0 / direct=1 / weightb=1 / open_gop=0 / weightp=2 / keyint=250 / keyint_min=25 / scenecut=40 / intra_refresh=0 / rc_lookahead=40 / rc=abr / mbtree=1 / bitrate=4000 / ratetol=1.0 / qcomp=0.60 / qpmin=0 / qpmax=51 / qpstep=4 / vbv_maxrate=5000 / vbv_bufsize=2000 / ip_ratio=1.40 / aq=1:1.00 / nal_hrd=none
Language                    : English
Tagged date                 : UTC 2015-05-21 16:16:43
Color range                 : Limited
Color primaries             : BT.709
Transfer characteristics    : BT.709
Matrix coefficients         : BT.709

Audio
ID                          : 2
Format                      : AAC
Format/Info                 : Advanced Audio Codec
Format profile              : LC
Codec ID                    : 40
Duration                    : 44mn 5s
Bit rate mode               : Variable
Bit rate                    : 265 Kbps
Maximum bit rate            : 335 Kbps
Channel(s)                  : 2 channels
Channel positions           : Front: L R
Sampling rate               : 48.0 KHz
Compression mode            : Lossy
Stream size                 : 83.2 MiB (6%)
Encoded date                : UTC 2015-05-21 16:16:40
Tagged date                 : UTC 2015-05-21 16:16:43
Код:
Код: Выделить всё
01. Пилот / Pilot
02. Часть вторая / Chapter Two
03. Поэтическое Пламя / The Poet's Fire
04. Безумная любовь / Mad Love
05. Осада / The siege
06. Провал / The fall
07. Отпусти меня / Let me go
08. Добро пожаловать Домой! / Welcome Home
09. Любящие сердца / Love Hurts
10. Вина / Guilt
11. Плети и сожаление / Whips & Regret
12. Проклятие / The Curse
13. Хэйвепорт / Havenport
14. Конец близок / The End Is Near
15. Последняя глава / The Final Chapter
Код:
Код: Выделить всё
01. Воскрешение / Resurrection
02. Для Джо / For Joe
03. Верь мне / Trust Me
04. Семейное дело / Family Affair
05. Отражения / Reflection
06. Улетай / Fly Away
07, Жертва / Sacrifice
08. Предвестник / The Messenger
09. Без масок / Unmasked
10. Любимчик учителя / Teacher's Pet
11. Свобода / Freedom
12. Предательство / Betrayal
13. Жатва / The Reaping
14. Молчание / Silence
15. Прости / Forgive
Код:
Код: Выделить всё
01. Новая кровь / New Blood
02. В ящик / Boxed In
03. На виду / Exposed
04. Дом / Home
05. Свидетель обвинения / A Hostile Witness
06. Воссоединение / Reunion
07. Охота / The Hunt
08. Плоть и кровь / Flesh & Blood
09. Убить гонца / Kill the Messenger
10. Навеки / Evermore
11. Демоны / Demons
12. На грани / The Edge
13. Простой обмен / A Simple Trade
14. Живым или мёртвым / Dead or Alive
15. Расплата / The Reckoning
Скриншоты:




Время раздачи: Круглосуточно, до первых 10-и скачавших
Приятного просмотра!
 
Не забывайте говорить Спасибо. Не уходите с раздачи!   
Торрент: Зарегистрирован [31 май 2015, 02:10] Для скачивания .torrent
необходима регистрация
Или скачать с помощью
MediaGet
Статус:
Проверен
 
.torrent скачан: 0 раз
Хэш: 9e2ae50a45877fcd1d49c5fb5c5af0c275be5c13
Размер: 57.56 ГБ (61 801 153 221 байт)
Стать Автором раздачи
 
 
Раздал: 6.67 ГБ
Скачал: 302.5 МБ
Ратио: 22.576
Сообщения: 374198
Зарегистрирован: 17 апр 2014, 11:05


  • Похожие торренты
    Ответы
    Просмотры
    Последнее сообщение

Вернуться в Видео для мобильных устройств

Ресурс не предоставляет электронные версии произведений, а занимается лишь коллекционированием и каталогизацией ссылок, присылаемых и публикуемых на форуме нашими читателями. Если вы являетесь правообладателем какого-либо представленного материала и не желаете чтобы ссылка на него находилась в нашем каталоге, свяжитесь с нами и мы незамедлительно удалим её. Файлы для обмена на трекере предоставлены пользователями сайта, и администрация не несёт ответственности за их содержание. Просьба не заливать файлы, защищенные авторскими правами, а также файлы нелегального содержания!
cron