(Score) Безумный Макс: Дорога Ярости / Mad Max: Fury Road (Original Motion Picture Soundtrack) (Tom Holkenborg aka Junkie XL) - 2015, FLAC (tracks+.cue), lossless

 
 Статистика раздачи 
Размер: 427.19 МБ   |  Зарегистрирован: 24 май 2015, 02:26   |   .torrent скачан: 1 раз
Сидеров: 1  [ 0 байт/сек ]     Личеров: 0  [ 0 байт/сек ]  
  

(Score) Безумный Макс: Дорога Ярости / Mad Max: Fury Road (Original Motion Picture Soundtrack) (Tom Holkenborg aka Junkie XL) - 2015, FLAC (tracks+.cue), lossless

Сообщение Satch » 24 май 2015, 02:26

Безумный Макс: Дорога Ярости / Mad Max: Fury Road (Original Motion Picture Soundtrack)


Жанр: Score
Композитор: Tom Holkenborg aka Junkie XL
Год выпуска диска: 2015
Страна-производитель диска: USA
Издатель (лейбл): WaterTower Music
Номер по каталогу: 3964
Аудиокодек: FLAC (*.flac)
Тип рипа: tracks+.cue
Битрейт аудио: lossless
Продолжительность: 01:11:10
Источник: CD
Наличие сканов в содержимом раздачи: да
Треклист:
01. Survive
02. Escape
03. Immortan's Citadel
04. Blood Bag
05. Spikey Cars
06. Storm Is Coming
07. We Are Not Things
08. Water
09. The Rig
10. Brothers In Arms
11. The Bog
12. Redemption
13. Many Mothers
14. Claw Trucks
15. Chapter Doof
16. My Name Is Max
17. Let Them Up
Exact Audio Copy V1.0 beta 3 from 29. August 2011

EAC extraction logfile from 22. May 2015, 18:06

Tom Holkenborg aka Junkie XL / Mad Max Fury Road

Used drive : HL-DT-STBD-RE BH10LS38 Adapter: 0 ID: 0

Read mode : SecureUtilize accurate stream : YesDefeat audio cache : YesMake use of C2 pointers : No

Read offset correction : 667Overread into Lead-In and Lead-Out : NoFill up missing offset samples with silence : YesDelete leading and trailing silent blocks : NoNull samples used in CRC calculations : YesUsed interface : Native Win32 interface for Win NT & 2000Gap handling : Appended to previous track

Used output format : User Defined EncoderSelected bitrate : 768 kBit/sQuality : HighAdd ID3 tag : NoCommand line compressor : C:\Program Files (x86)\Exact Audio Copy\FLAC\FLAC.EXEAdditional command line options : -8 -V -T "ARTIST=%artist%" -T "TITLE=%title%" -T "ALBUM=%albumtitle%" -T "DATE=%year%" -T "TRACKNUMBER=%tracknr%" -T "GENRE=%genre%" -T "PERFORMER=%albuminterpret%" -T "COMPOSER=%composer%" %haslyrics%--tag-from-file=LYRICS="%lyricsfile%"%haslyrics% -T "ALBUMARTIST=%albumartist%" -T "ALBUM ARTIST=%albumartist%" -T "DISCNUMBER=%cdnumber%" -T "TOTALDISCS=%totalcds%" -T "TOTALTRACKS=%numtracks%" -T "COMMENT=%comment%" %source% -o %dest%

TOC of the extracted CD

Track | Start | Length | Start sector | End sector --------------------------------------------------------- 1 | 0:00.00 | 1:30.31 | 0 | 6780 2 | 1:30.31 | 2:14.15 | 6781 | 16845 3 | 3:44.46 | 8:41.14 | 16846 | 55934 4 | 12:25.60 | 2:30.25 | 55935 | 67209 5 | 14:56.10 | 3:11.62 | 67210 | 81596 6 | 18:07.72 | 5:36.39 | 81597 | 106835 7 | 23:44.36 | 1:37.36 | 106836 | 114146 8 | 25:21.72 | 3:15.09 | 114147 | 128780 9 | 28:37.06 | 4:13.39 | 128781 | 147794 10 | 32:50.45 | 4:22.07 | 147795 | 167451 11 | 37:12.52 | 6:58.23 | 167452 | 198824 12 | 44:11.00 | 1:45.36 | 198825 | 206735 13 | 45:56.36 | 5:15.52 | 206736 | 230412 14 | 51:12.13 | 5:31.63 | 230413 | 255300 15 | 56:44.01 | 7:04.57 | 255301 | 287157 16 | 63:48.58 | 4:42.74 | 287158 | 308381 17 | 68:31.57 | 2:36.38 | 308382 | 320119

Track 1

Filename C:\Rips\01 - Survive.wav

Pre-gap length 0:00:02.00

Peak level 100.0 % Extraction speed 1.0 X Track quality 100.0 % Test CRC 95BCE24C Copy CRC 95BCE24C Track not present in AccurateRip database Copy OK

Track 2

Filename C:\Rips\02 - Escape.wav

Peak level 100.0 % Extraction speed 1.1 X Track quality 100.0 % Test CRC 529F1268 Copy CRC 529F1268 Track not present in AccurateRip database Copy OK

Track 3

Filename C:\Rips\03 - Immortan's Citadel.wav

Peak level 100.0 % Extraction speed 1.5 X Track quality 100.0 % Test CRC B6BF04AC Copy CRC B6BF04AC Track not present in AccurateRip database Copy OK

Track 4

Filename C:\Rips\04 - Blood Bag.wav

Peak level 100.0 % Extraction speed 1.4 X Track quality 100.0 % Test CRC 0C6C3FC4 Copy CRC 0C6C3FC4 Track not present in AccurateRip database Copy OK

Track 5

Filename C:\Rips\05 - Spikey Cars.wav

Peak level 100.0 % Extraction speed 1.6 X Track quality 100.0 % Test CRC 5BBA04D9 Copy CRC 5BBA04D9 Track not present in AccurateRip database Copy OK

Track 6

Filename C:\Rips\06 - Storm Is Coming.wav

Peak level 100.0 % Extraction speed 1.8 X Track quality 100.0 % Test CRC A4160230 Copy CRC A4160230 Track not present in AccurateRip database Copy OK

Track 7

Filename C:\Rips\07 - We Are Not Things.wav

Peak level 100.0 % Extraction speed 1.5 X Track quality 100.0 % Test CRC 098A246F Copy CRC 098A246F Track not present in AccurateRip database Copy OK

Track 8

Filename C:\Rips\08 - Water.wav

Peak level 100.0 % Extraction speed 1.8 X Track quality 100.0 % Test CRC 861E8D6A Copy CRC 861E8D6A Track not present in AccurateRip database Copy OK

Track 9

Filename C:\Rips\09 - The Rig.wav

Peak level 100.0 % Extraction speed 1.9 X Track quality 100.0 % Test CRC 0A41C5D1 Copy CRC 0A41C5D1 Track not present in AccurateRip database Copy OK

Track 10

Filename C:\Rips\10 - Brothers In Arms.wav

Peak level 100.0 % Extraction speed 2.0 X Track quality 100.0 % Test CRC 1D662E70 Copy CRC 1D662E70 Track not present in AccurateRip database Copy OK

Track 11

Filename C:\Rips\11 - The Bog.wav

Peak level 100.0 % Extraction speed 2.1 X Track quality 99.9 % Test CRC 71919009 Copy CRC 71919009 Track not present in AccurateRip database Copy OK

Track 12

Filename C:\Rips\12 - Redemption.wav

Peak level 97.6 % Extraction speed 1.9 X Track quality 100.0 % Test CRC D9133BDE Copy CRC D9133BDE Track not present in AccurateRip database Copy OK

Track 13

Filename C:\Rips\13 - Many Mothers.wav

Peak level 100.0 % Extraction speed 2.1 X Track quality 99.9 % Test CRC FC56D7AF Copy CRC FC56D7AF Track not present in AccurateRip database Copy OK

Track 14

Filename C:\Rips\14 - Claw Trucks.wav

Peak level 100.0 % Extraction speed 2.4 X Track quality 100.0 % Test CRC F8D1F4BF Copy CRC F8D1F4BF Track not present in AccurateRip database Copy OK

Track 15

Filename C:\Rips\15 - Chapter Doof.wav

Peak level 100.0 % Extraction speed 2.6 X Track quality 100.0 % Test CRC E18F900E Copy CRC E18F900E Track not present in AccurateRip database Copy OK

Track 16

Filename C:\Rips\16 - My Name Is Max.wav

Peak level 100.0 % Extraction speed 2.6 X Track quality 100.0 % Test CRC 0DC991FE Copy CRC 0DC991FE Track not present in AccurateRip database Copy OK

Track 17

Filename C:\Rips\17 - Let Them Up.wav

Peak level 100.0 % Extraction speed 2.4 X Track quality 100.0 % Test CRC 6C57EAD6 Copy CRC 6C57EAD6 Track not present in AccurateRip database Copy OK

None of the tracks are present in the AccurateRip database

No errors occurred

End of status report

==== Log checksum 800F116DB060AC6737198C036B6F0E5266E7253F6274B0DF9021F57608E9B156 ====
REM GENRE SoundtrackREM DATE 2015REM DISCID F410AC11REM COMMENT "ExactAudioCopy v1.0b3"FILE "01 - Survive.wav" WAVE TRACK 01 AUDIO INDEX 01 00:00:00FILE "02 - Escape.wav" WAVE TRACK 02 AUDIO INDEX 01 00:00:00FILE "03 - Immortan's Citadel.wav" WAVE TRACK 03 AUDIO INDEX 01 00:00:00FILE "04 - Blood Bag.wav" WAVE TRACK 04 AUDIO INDEX 01 00:00:00FILE "05 - Spikey Cars.wav" WAVE TRACK 05 AUDIO INDEX 01 00:00:00FILE "06 - Storm Is Coming.wav" WAVE TRACK 06 AUDIO INDEX 01 00:00:00FILE "07 - We Are Not Things.wav" WAVE TRACK 07 AUDIO INDEX 01 00:00:00FILE "08 - Water.wav" WAVE TRACK 08 AUDIO INDEX 01 00:00:00FILE "09 - The Rig.wav" WAVE TRACK 09 AUDIO INDEX 01 00:00:00FILE "10 - Brothers In Arms.wav" WAVE TRACK 10 AUDIO INDEX 01 00:00:00FILE "11 - The Bog.wav" WAVE TRACK 11 AUDIO INDEX 01 00:00:00FILE "12 - Redemption.wav" WAVE TRACK 12 AUDIO INDEX 01 00:00:00FILE "13 - Many Mothers.wav" WAVE TRACK 13 AUDIO INDEX 01 00:00:00FILE "14 - Claw Trucks.wav" WAVE TRACK 14 AUDIO INDEX 01 00:00:00FILE "15 - Chapter Doof.wav" WAVE TRACK 15 AUDIO INDEX 01 00:00:00FILE "16 - My Name Is Max.wav" WAVE TRACK 16 AUDIO INDEX 01 00:00:00FILE "17 - Let Them Up.wav" WAVE TRACK 17 AUDIO INDEX 01 00:00:00
 
Не забывайте говорить Спасибо. Не уходите с раздачи!   
Торрент: Зарегистрирован [24 май 2015, 02:26] Для скачивания .torrent
необходима регистрация
Или скачать с помощью
MediaGet
Статус:
Проверен
 
.torrent скачан: 1 раз
Хэш: 9aa7db8c0a589cf0a9dc33fffb39265ae5c218f2
Размер: 427.19 МБ (447 943 291 байт)
Стать Автором раздачи
 
Аватара пользователя
 
Раздал: 2.45 ГБ
Скачал: 15.94 МБ
Ратио: 157.696
Сообщения: 337733
Зарегистрирован: 16 янв 2012, 17:03


  • Похожие торренты
    Ответы
    Просмотры
    Последнее сообщение

Вернуться в Саундтреки, Караоке и Минусовки

Ресурс не предоставляет электронные версии произведений, а занимается лишь коллекционированием и каталогизацией ссылок, присылаемых и публикуемых на форуме нашими читателями. Если вы являетесь правообладателем какого-либо представленного материала и не желаете чтобы ссылка на него находилась в нашем каталоге, свяжитесь с нами и мы незамедлительно удалим её. Файлы для обмена на трекере предоставлены пользователями сайта, и администрация не несёт ответственности за их содержание. Просьба не заливать файлы, защищенные авторскими правами, а также файлы нелегального содержания!
cron