Фокус / Focus (Джон Рекуа / John Requa ) [2014, США, Аргентина, Драма, мелодрама, комедия, криминал, BDRip, HD (720p)] DUB + Original + sub (rus, ukr, eng)

 
 Статистика раздачи 
Размер: 3.66 ГБ   |  Зарегистрирован: 23 май 2015, 00:08   |   .torrent скачан: 0 раз
Сидеров: 1  [ 0 байт/сек ]     Личеров: 1  [ 0 байт/сек ]  
  

Фокус / Focus (Джон Рекуа / John Requa ) [2014, США, Аргентина, Драма, мелодрама, комедия, криминал, BDRip, HD (720p)] DUB + Original + sub (rus, ukr, eng)

Сообщение Satch » 23 май 2015, 00:08

Фокус / Focus
«Узнай в чём фокус»

7.072 / 10 6.70 / 10

Год выпуска: 2014
Страна: США, Аргентина
Жанр: Драма, мелодрама, комедия, криминал
Продолжительность: 01:44:44

Перевод: Дублированный (iTunes)
Оригинальная аудиодорожка: Есть
Cубтитры: Русские форсированные, украинские форсированные, русские полные, английские полные
Режиссёр: Джон Рекуа
Сценарий: Гленн Фикарра, Джон Рекуа
Продюсер: Дениз Ди Нови, Чарли Гоголак, Стэн Влодковски
Оператор: Хавьер Гробет
Композитор: Ник Урата
Художник: Бет Микл, Келли Керли, Дэйна Пинк
Монтаж: Ян Ковач
В ролях: Уилл Смит, Марго Робби, Адриан Мартинес, Джералд МакРэйни, Родриго Санторо, Б.Д. Вонг, Бреннан Браун, Роберт Тейлор, Дотан Бонен, Грифф Ферст

Бюджет: $50 100 000
Сборы в США: $53 862 963
Сборы в мире: + $100 100 000 = $153 962 963
Сборы в России: $8 751 683

Мировая премьера: 25 февраля 2015
Премьера (РФ): 26 февраля 2015, «Каро-Премьер»

Релиз на DVD: 25 июня 2015, «CP Дистрибуция»
Релиз на Blu-Ray: 25 июня 2015, «CP Дистрибуция»

Описание: История об опытном мошеннике, который влюбляется в девушку, делающую первые шаги на поприще нелегального отъема средств у граждан. Отношения становятся для них проблемой, когда обнаруживается, что романтика мешает их нечестному бизнесу.
Качество исходника: BDRemux (HDClub)
Качество: BDRip
Тип: HD (720p)
Контейнер: M4V
Видео: H.264, 1280x720, 16:9, 3 500 Kbps, 23.976 fps

Аудио 1: Русский/Дублированный (iTunes), AAC / 2.0 / 157 Kbps / 48.0 KHz
Аудио 2: Английский/Оригинальная дорожка , AAC / 2.0 / 158 Kbps / 48.0 KHz
Аудио 3: Украинский/Дублированный (iTunes), AAC / 2.0 / 156 Kbps / 48.0 KHz
Аудио 4: Русский/Дублированный (iTunes), AC-3 / 5.1 / 384 Kbps / 48.0 KHz
Аудио 5: Английский/Оригинальная дорожка , AC-3 / 5.1 / 640 Kbps / 48.0 KHz

Субтитры 1: Русские форсированные
Субтитры 2: Украинские форсированные
Субтитры 3: Русские полные
Субтитры 4: Английские полные
Sort Name: Focus
XID: Apple:vendor_id:2015-680824
contentID: 966768980
Copyright: © 2014 Warner Bros. Entertainment Inc. and Ratpac-Dune Entertainment LLC
Screenwriters: Гленн Фикарра, Джон Рекуа
Producers: Дениз Ди Нови, Чарли Гоголак, Стэн Влодковски
Director: Гленн Фикарра, Джон Рекуа
Cast: Уилл Смит, Марго Робби, Адриан Мартинес, Джералд МакРэйни, Родриго Санторо, Б.Д. Вонг, Бреннан Браун, Роберт Тейлор, Грифф Ферст, Стефани Онор
Studio: Warner Bros.
Rating Annotation: Rated R for language, some sexual content and brief violence.
Rating: 11
Long Description: История об опытном мошеннике, который влюбляется в девушку, делающую первые шаги на поприще нелегального отъема средств у граждан. Отношения становятся для них проблемой, когда обнаруживается, что романтика мешает их нечестному бизнесу.
Description: История об опытном мошеннике, который влюбляется в девушку, делающую первые шаги на поприще нелегального отъема средств у граждан. Отношения становятся для них проблемой, когда обнаруживается, что романтика мешает их нечестному бизнесу.
Release Date: 2015-02-25T08:00:00Z
Genre: Action & Adventure
Artist: Glenn Ficarra & John Requa
Name: Focus (2015)
General
Complete name                            : /Users/imac/HandBrake/Focus (720p HD).m4v
Format                                   : MPEG-4
Codec ID                                 : M4V
File size                                : 3.66 GiB
Duration                                 : 1h 44mn
Overall bit rate mode                    : Variable
Overall bit rate                         : 5 000 Kbps
Movie name                               : Focus (2015)
Performer                                : Glenn Ficarra & John Requa
Genre                                    : Action & Adventure
Recorded date                            : UTC 2015-02-25 08:00:00
Encoded date                             : UTC 2015-05-22 09:49:20
Tagged date                              : UTC 2015-05-22 10:12:25
Copyright                                : © 2014 Warner Bros. Entertainment Inc. and Ratpac-Dune Entertainment LLC
Cover                                    : Yes / Yes
sonm                                     : Focus
desc                                     : История об опытном мошеннике, который влюбляется в девушку, делающую первые шаги на поприще нелегального отъема средств у граждан. Отношения становятся для них проблемой, когда обнаруживается, что романтика мешает их нечестному бизнесу.
ldes                                     : История об опытном мошеннике, который влюбляется в девушку, делающую первые шаги на поприще нелегального отъема средств у граждан. Отношения становятся для них проблемой, когда обнаруживается, что романтика мешает их нечестному бизнесу.
stik                                     : 9
rtng                                     : 0
cnID                                     : 966768980
xid                                      : Apple:vendor_id:2015-680824
iTunEXTC                                 : mpaa|R|400|Rated R for language, some sexual content and brief violence.
iTunMOVI                                 : <?xml version=\"1.0\" encoding=\"UTF-8\"?> / <!DOCTYPE plist PUBLIC \"-/Apple/DTD PLIST 1.0/EN\" \"http://www.apple.com/DTDs/PropertyList-1.0.dtd\"> / <plist version=\"1.0\"> / <dict> /  <key>cast</key> /  <array> /   <dict> /    <key>name</key> /    <string>Уилл Смит</string> /   </dict> /   <dict> /    <key>name</key> /    <string>Марго Робби</string> /   </dict> /   <dict> /    <key>name</key> /    <string>Адриан Мартинес</string> /   </dict> /   <dict> /    <key>name</key> /    <string>Джералд МакРэйни</string> /   </dict> /   <dict> /    <key>name</key> /    <string>Родриго Санторо</string> /   </dict> /   <dict> /    <key>name</key> /    <string>Б.Д. Вонг</string> /   </dict> /   <dict> /    <key>name</key> /    <string>Бреннан Браун</string> /   </dict> /   <dict> /    <key>name</key> /    <string>Роберт Тейлор</string> /   </dict> /   <dict> /    <key>name</key> /    <string>Грифф Ферст</string> /   </dict> /   <dict> /    <key>name</key> /    <string>Стефани Онор</string> /   </dict> /  </array> /  <key>directors</key> /  <array> /   <dict> /    <key>name</key> /    <string>Гленн Фикарра</string> /   </dict> /   <dict> /    <key>name</key> /    <string>Джон Рекуа</string> /   </dict> /  </array> /  <key>producers</key> /  <array> /   <dict> /    <key>name</key> /    <string>Дениз Ди Нови</string> /   </dict> /   <dict> /    <key>name</key> /    <string>Чарли Гоголак</string> /   </dict> /   <dict> /    <key>name</key> /    <string>Стэн Влодковски</string> /   </dict> /  </array> /  <key>screenwriters</key> /  <array> /   <dict> /    <key>name</key> /    <string>Гленн Фикарра</string> /   </dict> /   <dict> /    <key>name</key> /    <string>Джон Рекуа</string> /   </dict> /  </array> /  <key>studio</key> /  <string>Warner Bros.</string> / </dict> / </plist>

Video #1
ID                                       : 1
Format                                   : AVC
Format/Info                              : Advanced Video Codec
Format profile                           :
Format settings, CABAC                   : No
Format settings, ReFrames                : 3 frames
Codec ID                                 : avc1
Codec ID/Info                            : Advanced Video Coding
Duration                                 : 1h 44mn
Bit rate mode                            : Variable
Bit rate                                 : 3 500 Kbps
Width                                    : 1 280 pixels
Height                                   : 720 pixels
Display aspect ratio                     : 16:9
Frame rate mode                          : Variable
Frame rate                               : 23.976 fps
Minimum frame rate                       : 23.974 fps
Maximum frame rate                       : 23.981 fps
Color space                              : YUV
Chroma subsampling                       : 4:2:0
Bit depth                                : 8 bits
Scan type                                : Progressive
Bits/(Pixel*Frame)                       : 0.158
Stream size                              : 2.56 GiB (70%)
Writing library                          : x264 core 142 r2479 dd79a61
Encoding settings                        : cabac=0 / ref=3 / deblock=1:-3:-3 / analyse=0x3:0x113 / me=umh / subme=9 / psy=1 / psy_rd=1.00:0.15 / mixed_ref=1 / me_range=32 / chroma_me=1 / trellis=0 / 8x8dct=1 / cqm=0 / deadzone=21,11 / fast_pskip=0 / chroma_qp_offset=-2 / threads=36 / lookahead_threads=3 / sliced_threads=0 / nr=0 / decimate=0 / interlaced=0 / bluray_compat=0 / constrained_intra=0 / bframes=3 / b_pyramid=0 / b_adapt=2 / b_bias=0 / direct=1 / weightb=0 / open_gop=0 / weightp=0 / keyint=240 / keyint_min=24 / scenecut=40 / intra_refresh=0 / rc_lookahead=40 / rc=2pass / mbtree=1 / bitrate=3500 / ratetol=1.0 / qcomp=0.65 / qpmin=0 / qpmax=69 / qpstep=4 / cplxblur=20.0 / qblur=0.5 / vbv_maxrate=9500 / vbv_bufsize=9500 / nal_hrd=none / filler=0 / ip_ratio=1.40 / aq=1:1.10
Language                                 : English
Encoded date                             : UTC 2015-05-22 09:49:20
Tagged date                              : UTC 2015-05-22 09:49:27
Color primaries                          : BT.709-5, BT.1361, IEC 61966-2-4, SMPTE RP177
Transfer characteristics                 : BT.709-5, BT.1361
Matrix coefficients                      : BT.709-5, BT.1361, IEC 61966-2-4 709, SMPTE RP177

Video #2
ID                                       : 12
Format                                   : JPEG
Codec ID                                 : jpeg
Duration                                 : 1h 44mn
Bit rate mode                            : Variable
Bit rate                                 : 905 bps
Width                                    : 640 pixels
Height                                   : 360 pixels
Display aspect ratio                     : 16:9
Frame rate mode                          : Variable
Frame rate                               : 0.002 fps
Minimum frame rate                       : 0.001 fps
Maximum frame rate                       : 0.003 fps
Compression mode                         : Lossy
Bits/(Pixel*Frame)                       : 1.964
Stream size                              : 608 KiB (0%)
Language                                 : English
Encoded date                             : UTC 2015-05-22 10:04:58
Tagged date                              : UTC 2015-05-22 10:04:58

Audio #1
ID                                       : 2
Format                                   : AAC
Format/Info                              : Advanced Audio Codec
Format profile                           : LC
Codec ID                                 : 40
Duration                                 : 1h 44mn
Bit rate mode                            : Variable
Bit rate                                 : 157 Kbps
Maximum bit rate                         : 234 Kbps
Channel(s)                               : 2 channels
Channel positions                        : Front: L R
Sampling rate                            : 48.0 KHz
Compression mode                         : Lossy
Stream size                              : 118 MiB (3%)
Language                                 : Russian
Encoded date                             : UTC 2015-05-22 09:49:20
Tagged date                              : UTC 2015-05-22 09:49:30

Audio #2
ID                                       : 3
Format                                   : AAC
Format/Info                              : Advanced Audio Codec
Format profile                           : LC
Codec ID                                 : 40
Duration                                 : 1h 44mn
Bit rate mode                            : Variable
Bit rate                                 : 158 Kbps
Maximum bit rate                         : 243 Kbps
Channel(s)                               : 2 channels
Channel positions                        : Front: L R
Sampling rate                            : 48.0 KHz
Compression mode                         : Lossy
Stream size                              : 118 MiB (3%)
Language                                 : English
Encoded date                             : UTC 2015-05-22 09:49:21
Tagged date                              : UTC 2015-05-22 09:49:31

Audio #3
ID                                       : 4
Format                                   : AAC
Format/Info                              : Advanced Audio Codec
Format profile                           : LC
Codec ID                                 : 40
Duration                                 : 1h 44mn
Bit rate mode                            : Variable
Bit rate                                 : 156 Kbps
Maximum bit rate                         : 227 Kbps
Channel(s)                               : 2 channels
Channel positions                        : Front: L R
Sampling rate                            : 48.0 KHz
Compression mode                         : Lossy
Stream size                              : 117 MiB (3%)
Language                                 : Ukrainian
Encoded date                             : UTC 2015-05-22 10:03:34
Tagged date                              : UTC 2015-05-22 10:03:40

Audio #4
ID                                       : 5
Format                                   : AC-3
Format/Info                              : Audio Coding 3
Mode extension                           : CM (complete main)
Format settings, Endianness              : Big
Codec ID                                 : ac-3
Duration                                 : 1h 44mn
Bit rate mode                            : Constant
Bit rate                                 : 384 Kbps
Channel(s)                               : 6 channels
Channel positions                        : Front: L C R, Side: L R, LFE
Sampling rate                            : 48.0 KHz
Bit depth                                : 16 bits
Compression mode                         : Lossy
Stream size                              : 288 MiB (8%)
Language                                 : Russian
Encoded date                             : UTC 2015-05-22 10:03:34
Tagged date                              : UTC 2015-05-22 10:03:39

Audio #5
ID                                       : 6
Format                                   : AC-3
Format/Info                              : Audio Coding 3
Mode extension                           : CM (complete main)
Format settings, Endianness              : Big
Codec ID                                 : ac-3
Duration                                 : 1h 44mn
Bit rate mode                            : Constant
Bit rate                                 : 640 Kbps
Channel(s)                               : 6 channels
Channel positions                        : Front: L C R, Side: L R, LFE
Sampling rate                            : 48.0 KHz
Bit depth                                : 16 bits
Compression mode                         : Lossy
Stream size                              : 479 MiB (13%)
Language                                 : English
Encoded date                             : UTC 2015-05-22 10:03:34
Tagged date                              : UTC 2015-05-22 10:03:39

Text #1
ID                                       : 7
Format                                   : Timed text
Muxing mode                              : sbtl
Codec ID                                 : tx3g
Duration                                 : 1h 39mn
Bit rate mode                            : Variable
Bit rate                                 : 1 bps
Stream size                              : 475 Bytes (0%)
Language                                 : Russian
Encoded date                             : UTC 2015-05-22 10:04:55
Tagged date                              : UTC 2015-05-22 10:04:55

Text #2
ID                                       : 8
Format                                   : Timed text
Muxing mode                              : sbtl
Codec ID                                 : tx3g
Duration                                 : 1h 39mn
Bit rate mode                            : Variable
Bit rate                                 : 0 bps
Stream size                              : 244 Bytes (0%)
Language                                 : Ukrainian
Encoded date                             : UTC 2015-05-22 10:04:55
Tagged date                              : UTC 2015-05-22 10:04:55

Text #3
ID                                       : 9
Format                                   : Timed text
Muxing mode                              : sbtl
Codec ID                                 : tx3g
Duration                                 : 1h 39mn
Bit rate mode                            : Variable
Bit rate                                 : 114 bps
Stream size                              : 83.1 KiB (0%)
Language                                 : Russian
Encoded date                             : UTC 2015-05-22 10:04:55
Tagged date                              : UTC 2015-05-22 10:04:55

Text #4
ID                                       : 10
Format                                   : Timed text
Muxing mode                              : sbtl
Codec ID                                 : tx3g
Duration                                 : 1h 39mn
Bit rate mode                            : Variable
Bit rate                                 : 75 bps
Stream size                              : 54.4 KiB (0%)
Language                                 : English
Encoded date                             : UTC 2015-05-22 10:04:55
Tagged date                              : UTC 2015-05-22 10:04:55

Text #5
ID                                       : 11
Format                                   : Apple text
Codec ID                                 : text
Duration                                 : 1h 44mn
Bit rate mode                            : Variable
Bit rate                                 : 0 bps
Stream size                              : 255 Bytes (0%)
Language                                 : English
Encoded date                             : UTC 2015-05-22 10:04:55
Tagged date                              : UTC 2015-05-22 10:04:55

Menu
00:00:00.000                             : Chapter 1
00:09:18.057                             : Chapter 2
00:18:55.301                             : Chapter 3
00:30:22.988                             : Chapter 4
00:40:56.162                             : Chapter 5
00:49:16.453                             : Chapter 6
01:00:10.565                             : Chapter 7
01:11:02.842                             : Chapter 8
01:20:27.531                             : Chapter 9
01:28:33.975                             : Chapter 10
01:39:19.704                             : Chapter 11
x264 [info]: frame I:1719  Avg QP:16.86  size:109706
x264 [info]: frame P:57458 Avg QP:19.00  size: 32927
x264 [info]: frame B:91492 Avg QP:20.99  size:  7251
x264 [info]: consecutive B-frames:  3.9% 41.7% 10.7% 43.7%
x264 [info]: mb I  I16..4: 12.6% 54.5% 32.8%
x264 [info]: mb P  I16..4:  2.1%  3.5%  1.7%  P16..4: 52.1% 22.5% 10.5%  0.0%  0.0%    skip: 7.6%
x264 [info]: mb B  I16..4:  0.1%  0.3%  0.1%  B16..8: 45.9%  7.2%  0.9%  direct: 3.0%  skip:42.4%  L0:38.8% L1:55.2% BI: 6.0%
x264 [info]: 8x8 transform intra:50.3% inter:49.2%
x264 [info]: coded y,uvDC,uvAC intra: 69.8% 85.3% 69.9% inter: 17.0% 28.3% 18.1%
x264 [info]: i16 v,h,dc,p: 47% 15%  6% 31%
x264 [info]: i8 v,h,dc,ddl,ddr,vr,hd,vl,hu:  9%  7%  4% 11% 16% 16% 14% 12% 10%
x264 [info]: i4 v,h,dc,ddl,ddr,vr,hd,vl,hu: 11%  9%  4% 12% 17% 16% 13% 11%  8%
x264 [info]: i8c dc,h,v,p: 51% 15% 19% 15%
x264 [info]: ref P L0: 74.5% 14.9% 10.6%
x264 [info]: ref B L0: 82.3% 17.7%
x264 [info]: kb/s:3493.15


Релиз подготовлен для просмотра на Apple TV, iPad, iPhone, iPod Touch.
Для просмотра данного релиза на компьютере с ОС Windows рекомендуется использовать VLC media player
 
Не забывайте говорить Спасибо. Не уходите с раздачи!   
Торрент: Зарегистрирован [23 май 2015, 00:08] Для скачивания .torrent
необходима регистрация
Или скачать с помощью
MediaGet
Статус:
Проверен
 
.torrent скачан: 0 раз
Хэш: 6938a79352751f1cfc22833648582a5e873a6b6b
Размер: 3.66 ГБ (3 927 948 643 байт)
Стать Автором раздачи
 
Аватара пользователя
 
Раздал: 2.45 ГБ
Скачал: 15.94 МБ
Ратио: 157.696
Сообщения: 337733
Зарегистрирован: 16 янв 2012, 17:03


  • Похожие торренты
    Ответы
    Просмотры
    Последнее сообщение

Вернуться в Видео для устройств Apple

Ресурс не предоставляет электронные версии произведений, а занимается лишь коллекционированием и каталогизацией ссылок, присылаемых и публикуемых на форуме нашими читателями. Если вы являетесь правообладателем какого-либо представленного материала и не желаете чтобы ссылка на него находилась в нашем каталоге, свяжитесь с нами и мы незамедлительно удалим её. Файлы для обмена на трекере предоставлены пользователями сайта, и администрация не несёт ответственности за их содержание. Просьба не заливать файлы, защищенные авторскими правами, а также файлы нелегального содержания!
cron