VA - Весенний марафон № 170 / Видеоклипы (Зарубежный Всплеск Хитов) (2015) WEBRip [H.264/1080p-LQ]

 
 Статистика раздачи 
Размер: 2.89 ГБ   |  Зарегистрирован: 20 май 2015, 02:56   |   .torrent скачан: 0 раз
Сидеров: 1  [ 0 байт/сек ]     Личеров: 0  [ 0 байт/сек ]  
  

VA - Весенний марафон № 170 / Видеоклипы (Зарубежный Всплеск Хитов) (2015) WEBRip [H.264/1080p-LQ]

Сообщение Thistoll » 20 май 2015, 02:56

VA - Весенний марафон № 170 / (Зарубежный Всплеск Хитов) (2015) WEBRip

Год выпуска:2015
Жанр: Pop, Dance, Latino, Country, House, Soul, Reggaeton
Контейнер: MP4
Кол-во клипов: 25
Продолжительность: 01:25:36

Описание:
Весенние (19.05.2015) поп. новинки зарубежной эстрады. Не пропустите, держите новые треки.

Видеокодек: AVC/H.264
Битрейт видео: 4.781 ~ 4.085 kbps avg, 0.092 - 0.079 bit.pixel
Размер кадра: 1920x1080 (16:9), 25.000 fps
Качество видео: WEBRip
Аудиокодек: AAC, 2.0
Битрейт аудио: 44.1 KHz, 2 ch, stereo, AAC, 108 - 152 Kbps avg
1. Akcent ft. Veo - La Luna (Official Video) (00:03:27)
2. Andy Nicolas - Señorita (Official Video) (00:03:46)
3. Birdee - B-Love (Official Video) (00:03:33)
4. Britney Spears, Iggy Azalea - Pretty Girls (Official Video) (00:04:31)
5. Christopher S & TomE ft. Jenson Vaughan - No Place Like Home (Official Video) (00:03:25)
6. Cruz Rock Iyatola - Antidote (Official Video) (00:05:29)
7. Daddy Yankee - Pasarela (Official Video) (00:03:39)
8. Foncho - Waya Waya (Official Video) (00:03:20)
9. Giulia - Din cauza ta (Official Video) (00:03:35)
10. Hilary Duff - Sparks (Official Video) (00:03:06)
11. Jay Santos - Dale Morena (Lyric Video) (Official Video) (00:03:44)
12. Jazzy Jo - Amor, Amor (Official Video) (00:03:52)
13. Jochen Miller ft. Chris Hordijk - Fearless (Official Video) (00:03:10)
14. Joe Stone ft. Montell Jordan - The Party (Official Video) (00:03:06)
15. Kat Graham - 1991 (Official Video) (00:03:22)
16. Kyle Dion - Moonshine (Official Video) (00:03:42)
17. Mario Bischin - Loca (Official Video) (00:03:37)
18. Mia Rose - Take My Hand (Official Video) (00:03:36)
19. Miley Cyrus & Ariana Grande - Don't Dream It's Over (Official Video) (00:03:51)
20. Mirami - Amore Eh Oh! (English Version) (Official Video) (00:03:14)
21. Nia Sioux - Star In Your Own Life (Official Video) (00:03:29)
22. Nirvana - Girls (Official Video) (00:03:23)
23. Sofia Reyes - Conmigo (Official Video) (00:03:21)
24. Twax ft. Solomina - Movin On (Official Video) (00:03:39)
25. Xuso Jones - Somos (Official Video) (00:03:19)
Код:
Код: Выделить всё
Общее
Полное имя                       : E:\VA - Весенний марафон № 170 (Весенний Всплеск Хитов)\Akcent ft. Veo - La Luna (Official Video).mp4
Формат                           : MPEG-4
Профиль формата                  : Base Media
Идентификатор кодека             : isom
Размер файла                     : 113 Мбайт
Продолжительность                : 3 м. 27 с.
Общий поток                      : 4596 Кбит/сек
Дата кодирования                 : UTC 2015-05-17 10:08:19
Дата пометки                     : UTC 2015-05-17 10:08:19
Программа кодирования            : Lavf54.63.104

Видео
Идентификатор                    : 1
Формат                           : AVC
Формат/Информация                : Advanced Video Codec
Профиль формата                  :
Параметр CABAC формата           : Да
Параметр ReFrames формата        : 1 кадр
Идентификатор кодека             : avc1
Идентификатор кодека/Информация  : Advanced Video Coding
Продолжительность                : 3 м. 27 с.
Вид битрейта                     : Переменный
Битрейт                          : 4496 Кбит/сек
Ширина                           : 1920 пикс.
Высота                           : 1080 пикс.
Соотношение сторон               : 16:9
Режим частоты кадров             : Постоянный
Частота кадров                   : 25,000 кадр/сек
Цветовое пространство            : YUV
Подвыборка цветности             : 4:2:0
Битовая глубина                  : 8 бит
Тип развёртки                    : Прогрессивная
Бит/(Пиксели*Кадры)              : 0.087
Размер потока                    : 110 Мбайт (97%)
Библиотека кодирования           : x264 core 129
Настройки программы              : cabac=1 / ref=1 / deblock=1:0:0 / analyse=0x1:0x131 / me=dia / subme=2 / psy=1 / psy_rd=1.00:0.00 / mixed_ref=0 / me_range=16 / chroma_me=1 / trellis=0 / 8x8dct=0 / cqm=0 / deadzone=21,11 / fast_pskip=1 / chroma_qp_offset=0 / threads=2 / lookahead_threads=1 / sliced_threads=0 / nr=0 / decimate=1 / interlaced=0 / bluray_compat=0 / constrained_intra=0 / bframes=0 / weightp=2 / keyint=250 / keyint_min=25 / scenecut=40 / intra_refresh=0 / rc_lookahead=40 / rc=abr / mbtree=1 / bitrate=4496 / ratetol=1.0 / qcomp=0.60 / qpmin=10 / qpmax=51 / qpstep=4 / ip_ratio=1.41 / aq=1:1.00
Дата кодирования                 : UTC 2015-05-17 10:08:19
Дата пометки                     : UTC 2015-05-17 10:08:19

Аудио
Идентификатор                    : 2
Формат                           : AAC
Формат/Информация                : Advanced Audio Codec
Профиль формата                  : LC
Идентификатор кодека             : 40
Продолжительность                : 3 м. 27 с.
Вид битрейта                     : Переменный
Битрейт                          : 151 Кбит/сек
Максимальный битрейт             : 176,4 Кбит/сек
Каналы                           : 2 канала
Расположение каналов             : Front: L R
Частота                          : 44,1 КГц
Метод сжатия                     : С потерями
Размер потока                    : 3,74 Мбайт (3%)
Дата кодирования                 : UTC 2015-05-17 10:08:19
Дата пометки                     : UTC 2015-05-17 10:08:19
Общее
Полное имя                       : E:\VA - Весенний марафон № 170 (Весенний Всплеск Хитов)\Andy Nicolas - Señorita (Official Video).mp4
Формат                           : MPEG-4
Профиль формата                  : Base Media
Идентификатор кодека             : isom
Размер файла                     : 123 Мбайт
Продолжительность                : 3 м. 46 с.
Общий поток                      : 4556 Кбит/сек
Дата кодирования                 : UTC 2015-05-18 08:48:42
Дата пометки                     : UTC 2015-05-18 08:48:42
Программа кодирования            : Lavf54.63.104

Видео
Идентификатор                    : 1
Формат                           : AVC
Формат/Информация                : Advanced Video Codec
Профиль формата                  :
Параметр CABAC формата           : Да
Параметр ReFrames формата        : 1 кадр
Идентификатор кодека             : avc1
Идентификатор кодека/Информация  : Advanced Video Coding
Продолжительность                : 3 м. 46 с.
Вид битрейта                     : Переменный
Битрейт                          : 4496 Кбит/сек
Ширина                           : 1920 пикс.
Высота                           : 1080 пикс.
Соотношение сторон               : 16:9
Режим частоты кадров             : Постоянный
Частота кадров                   : 25,000 кадр/сек
Цветовое пространство            : YUV
Подвыборка цветности             : 4:2:0
Битовая глубина                  : 8 бит
Тип развёртки                    : Прогрессивная
Бит/(Пиксели*Кадры)              : 0.087
Размер потока                    : 119 Мбайт (97%)
Библиотека кодирования           : x264 core 129
Настройки программы              : cabac=1 / ref=1 / deblock=1:0:0 / analyse=0x1:0x131 / me=dia / subme=2 / psy=1 / psy_rd=1.00:0.00 / mixed_ref=0 / me_range=16 / chroma_me=1 / trellis=0 / 8x8dct=0 / cqm=0 / deadzone=21,11 / fast_pskip=1 / chroma_qp_offset=0 / threads=2 / lookahead_threads=1 / sliced_threads=0 / nr=0 / decimate=1 / interlaced=0 / bluray_compat=0 / constrained_intra=0 / bframes=0 / weightp=2 / keyint=250 / keyint_min=25 / scenecut=40 / intra_refresh=0 / rc_lookahead=40 / rc=abr / mbtree=1 / bitrate=4496 / ratetol=1.0 / qcomp=0.60 / qpmin=10 / qpmax=51 / qpstep=4 / ip_ratio=1.41 / aq=1:1.00
Дата кодирования                 : UTC 2015-05-18 08:48:42
Дата пометки                     : UTC 2015-05-18 08:48:42

Аудио
Идентификатор                    : 2
Формат                           : AAC
Формат/Информация                : Advanced Audio Codec
Профиль формата                  : LC
Идентификатор кодека             : 40
Продолжительность                : 3 м. 45 с.
Вид битрейта                     : Переменный
Битрейт                          : 152 Кбит/сек
Максимальный битрейт             : 176,4 Кбит/сек
Каналы                           : 2 канала
Расположение каналов             : Front: L R
Частота                          : 44,1 КГц
Метод сжатия                     : С потерями
Размер потока                    : 4,09 Мбайт (3%)
Дата кодирования                 : UTC 2015-05-18 08:48:42
Дата пометки                     : UTC 2015-05-18 08:48:42
Общее
Полное имя                       : E:\VA - Весенний марафон № 170 (Весенний Всплеск Хитов)\Birdee - B-Love (Official Video).mp4
Формат                           : MPEG-4
Профиль формата                  : Base Media
Идентификатор кодека             : isom
Размер файла                     : 117 Мбайт
Продолжительность                : 3 м. 33 с.
Общий поток                      : 4605 Кбит/сек
Дата кодирования                 : UTC 2015-05-16 12:09:00
Дата пометки                     : UTC 2015-05-16 12:09:00
Программа кодирования            : Lavf54.63.104

Видео
Идентификатор                    : 1
Формат                           : AVC
Формат/Информация                : Advanced Video Codec
Профиль формата                  :
Параметр CABAC формата           : Да
Параметр ReFrames формата        : 1 кадр
Идентификатор кодека             : avc1
Идентификатор кодека/Информация  : Advanced Video Coding
Продолжительность                : 3 м. 33 с.
Вид битрейта                     : Переменный
Битрейт                          : 4496 Кбит/сек
Ширина                           : 1920 пикс.
Высота                           : 1080 пикс.
Соотношение сторон               : 16:9
Режим частоты кадров             : Постоянный
Частота кадров                   : 25,000 кадр/сек
Цветовое пространство            : YUV
Подвыборка цветности             : 4:2:0
Битовая глубина                  : 8 бит
Тип развёртки                    : Прогрессивная
Бит/(Пиксели*Кадры)              : 0.087
Размер потока                    : 113 Мбайт (97%)
Библиотека кодирования           : x264 core 129
Настройки программы              : cabac=1 / ref=1 / deblock=1:0:0 / analyse=0x1:0x131 / me=dia / subme=2 / psy=1 / psy_rd=1.00:0.00 / mixed_ref=0 / me_range=16 / chroma_me=1 / trellis=0 / 8x8dct=0 / cqm=0 / deadzone=21,11 / fast_pskip=1 / chroma_qp_offset=0 / threads=2 / lookahead_threads=1 / sliced_threads=0 / nr=0 / decimate=1 / interlaced=0 / bluray_compat=0 / constrained_intra=0 / bframes=0 / weightp=2 / keyint=250 / keyint_min=25 / scenecut=40 / intra_refresh=0 / rc_lookahead=40 / rc=abr / mbtree=1 / bitrate=4496 / ratetol=1.0 / qcomp=0.60 / qpmin=10 / qpmax=51 / qpstep=4 / ip_ratio=1.41 / aq=1:1.00
Дата кодирования                 : UTC 2015-05-16 12:09:00
Дата пометки                     : UTC 2015-05-16 12:09:00

Аудио
Идентификатор                    : 2
Формат                           : AAC
Формат/Информация                : Advanced Audio Codec
Профиль формата                  : LC
Идентификатор кодека             : 40
Продолжительность                : 3 м. 33 с.
Вид битрейта                     : Переменный
Битрейт                          : 152 Кбит/сек
Максимальный битрейт             : 176,4 Кбит/сек
Каналы                           : 2 канала
Расположение каналов             : Front: L R
Частота                          : 44,1 КГц
Метод сжатия                     : С потерями
Размер потока                    : 3,87 Мбайт (3%)
Дата кодирования                 : UTC 2015-05-16 12:09:00
Дата пометки                     : UTC 2015-05-16 12:09:00
Общее
Полное имя                       : E:\VA - Весенний марафон № 170 (Весенний Всплеск Хитов)\Britney Spears, Iggy Azalea - Pretty Girls (Official Video).mp4
Формат                           : MPEG-4
Профиль формата                  : Base Media
Идентификатор кодека             : isom
Размер файла                     : 148 Мбайт
Продолжительность                : 4 м. 31 с.
Общий поток                      : 4570 Кбит/сек
Дата кодирования                 : UTC 2015-05-12 18:38:06
Дата пометки                     : UTC 2015-05-12 18:38:06
Программа кодирования            : Lavf54.63.104

Видео
Идентификатор                    : 1
Формат                           : AVC
Формат/Информация                : Advanced Video Codec
Профиль формата                  :
Параметр CABAC формата           : Да
Параметр ReFrames формата        : 1 кадр
Идентификатор кодека             : avc1
Идентификатор кодека/Информация  : Advanced Video Coding
Продолжительность                : 4 м. 31 с.
Вид битрейта                     : Переменный
Битрейт                          : 4496 Кбит/сек
Ширина                           : 1920 пикс.
Высота                           : 1080 пикс.
Соотношение сторон               : 16:9
Режим частоты кадров             : Постоянный
Частота кадров                   : 25,000 кадр/сек
Цветовое пространство            : YUV
Подвыборка цветности             : 4:2:0
Битовая глубина                  : 8 бит
Тип развёртки                    : Прогрессивная
Бит/(Пиксели*Кадры)              : 0.087
Размер потока                    : 143 Мбайт (97%)
Библиотека кодирования           : x264 core 129
Настройки программы              : cabac=1 / ref=1 / deblock=1:0:0 / analyse=0x1:0x131 / me=dia / subme=2 / psy=1 / psy_rd=1.00:0.00 / mixed_ref=0 / me_range=16 / chroma_me=1 / trellis=0 / 8x8dct=0 / cqm=0 / deadzone=21,11 / fast_pskip=1 / chroma_qp_offset=0 / threads=2 / lookahead_threads=1 / sliced_threads=0 / nr=0 / decimate=1 / interlaced=0 / bluray_compat=0 / constrained_intra=0 / bframes=0 / weightp=2 / keyint=250 / keyint_min=25 / scenecut=40 / intra_refresh=0 / rc_lookahead=40 / rc=abr / mbtree=1 / bitrate=4496 / ratetol=1.0 / qcomp=0.60 / qpmin=10 / qpmax=51 / qpstep=4 / ip_ratio=1.41 / aq=1:1.00
Дата кодирования                 : UTC 2015-05-12 18:38:06
Дата пометки                     : UTC 2015-05-12 18:38:06

Аудио
Идентификатор                    : 2
Формат                           : AAC
Формат/Информация                : Advanced Audio Codec
Профиль формата                  : LC
Идентификатор кодека             : 40
Продолжительность                : 4 м. 31 с.
Вид битрейта                     : Переменный
Битрейт                          : 151 Кбит/сек
Максимальный битрейт             : 176,4 Кбит/сек
Каналы                           : 2 канала
Расположение каналов             : Front: L R
Частота                          : 44,1 КГц
Метод сжатия                     : С потерями
Размер потока                    : 4,90 Мбайт (3%)
Дата кодирования                 : UTC 2015-05-12 18:38:06
Дата пометки                     : UTC 2015-05-12 18:38:06
Общее
Полное имя                       : E:\VA - Весенний марафон № 170 (Весенний Всплеск Хитов)\Christopher S & TomE ft. Jenson Vaughan - No Place Like Home (Official Video).mp4
Формат                           : MPEG-4
Профиль формата                  : Base Media
Идентификатор кодека             : isom
Размер файла                     : 114 Мбайт
Продолжительность                : 3 м. 25 с.
Общий поток                      : 4628 Кбит/сек
Дата кодирования                 : UTC 2015-05-15 13:03:24
Дата пометки                     : UTC 2015-05-15 13:03:24
Программа кодирования            : Lavf54.63.104

Видео
Идентификатор                    : 1
Формат                           : AVC
Формат/Информация                : Advanced Video Codec
Профиль формата                  :
Параметр CABAC формата           : Да
Параметр ReFrames формата        : 1 кадр
Идентификатор кодека             : avc1
Идентификатор кодека/Информация  : Advanced Video Coding
Продолжительность                : 3 м. 25 с.
Вид битрейта                     : Переменный
Битрейт                          : 4496 Кбит/сек
Ширина                           : 1920 пикс.
Высота                           : 1080 пикс.
Соотношение сторон               : 16:9
Режим частоты кадров             : Постоянный
Частота кадров                   : 25,000 кадр/сек
Цветовое пространство            : YUV
Подвыборка цветности             : 4:2:0
Битовая глубина                  : 8 бит
Тип развёртки                    : Прогрессивная
Бит/(Пиксели*Кадры)              : 0.087
Размер потока                    : 110 Мбайт (97%)
Библиотека кодирования           : x264 core 129
Настройки программы              : cabac=1 / ref=1 / deblock=1:0:0 / analyse=0x1:0x131 / me=dia / subme=2 / psy=1 / psy_rd=1.00:0.00 / mixed_ref=0 / me_range=16 / chroma_me=1 / trellis=0 / 8x8dct=0 / cqm=0 / deadzone=21,11 / fast_pskip=1 / chroma_qp_offset=0 / threads=2 / lookahead_threads=1 / sliced_threads=0 / nr=0 / decimate=1 / interlaced=0 / bluray_compat=0 / constrained_intra=0 / bframes=0 / weightp=2 / keyint=250 / keyint_min=25 / scenecut=40 / intra_refresh=0 / rc_lookahead=40 / rc=abr / mbtree=1 / bitrate=4496 / ratetol=1.0 / qcomp=0.60 / qpmin=10 / qpmax=51 / qpstep=4 / ip_ratio=1.41 / aq=1:1.00
Дата кодирования                 : UTC 2015-05-15 13:03:24
Дата пометки                     : UTC 2015-05-15 13:03:24

Аудио
Идентификатор                    : 2
Формат                           : AAC
Формат/Информация                : Advanced Audio Codec
Профиль формата                  : LC
Идентификатор кодека             : 40
Продолжительность                : 3 м. 25 с.
Вид битрейта                     : Переменный
Битрейт                          : 150 Кбит/сек
Максимальный битрейт             : 176,4 Кбит/сек
Каналы                           : 2 канала
Расположение каналов             : Front: L R
Частота                          : 44,1 КГц
Метод сжатия                     : С потерями
Размер потока                    : 3,69 Мбайт (3%)
Дата кодирования                 : UTC 2015-05-15 13:03:24
Дата пометки                     : UTC 2015-05-15 13:03:24
Общее
Полное имя                       : E:\VA - Весенний марафон № 170 (Весенний Всплеск Хитов)\Cruz Rock Iyatola - Antidote (Official Video).mp4
Формат                           : MPEG-4
Профиль формата                  : Base Media
Идентификатор кодека             : isom
Размер файла                     : 166 Мбайт
Продолжительность                : 5 м. 28 с.
Общий поток                      : 4234 Кбит/сек
Дата кодирования                 : UTC 2015-05-15 17:07:17
Дата пометки                     : UTC 2015-05-15 17:07:17
Программа кодирования            : Lavf54.63.104

Видео
Идентификатор                    : 1
Формат                           : AVC
Формат/Информация                : Advanced Video Codec
Профиль формата                  :
Параметр CABAC формата           : Да
Параметр ReFrames формата        : 1 кадр
Идентификатор кодека             : avc1
Идентификатор кодека/Информация  : Advanced Video Coding
Продолжительность                : 5 м. 28 с.
Вид битрейта                     : Переменный
Битрейт                          : 4085 Кбит/сек
Номинальный битрейт              : 4496 Кбит/сек
Ширина                           : 1920 пикс.
Высота                           : 1080 пикс.
Соотношение сторон               : 16:9
Режим частоты кадров             : Постоянный
Частота кадров                   : 25,000 кадр/сек
Цветовое пространство            : YUV
Подвыборка цветности             : 4:2:0
Битовая глубина                  : 8 бит
Тип развёртки                    : Прогрессивная
Бит/(Пиксели*Кадры)              : 0.079
Размер потока                    : 160 Мбайт (96%)
Библиотека кодирования           : x264 core 129
Настройки программы              : cabac=1 / ref=1 / deblock=1:0:0 / analyse=0x1:0x131 / me=dia / subme=2 / psy=1 / psy_rd=1.00:0.00 / mixed_ref=0 / me_range=16 / chroma_me=1 / trellis=0 / 8x8dct=0 / cqm=0 / deadzone=21,11 / fast_pskip=1 / chroma_qp_offset=0 / threads=2 / lookahead_threads=1 / sliced_threads=0 / nr=0 / decimate=1 / interlaced=0 / bluray_compat=0 / constrained_intra=0 / bframes=0 / weightp=2 / keyint=250 / keyint_min=25 / scenecut=40 / intra_refresh=0 / rc_lookahead=40 / rc=abr / mbtree=1 / bitrate=4496 / ratetol=1.0 / qcomp=0.60 / qpmin=10 / qpmax=51 / qpstep=4 / ip_ratio=1.41 / aq=1:1.00
Дата кодирования                 : UTC 2015-05-15 17:07:17
Дата пометки                     : UTC 2015-05-15 17:07:17

Аудио
Идентификатор                    : 2
Формат                           : AAC
Формат/Информация                : Advanced Audio Codec
Профиль формата                  : LC
Идентификатор кодека             : 40
Продолжительность                : 5 м. 28 с.
Вид битрейта                     : Переменный
Битрейт                          : 144 Кбит/сек
Максимальный битрейт             : 176,4 Кбит/сек
Каналы                           : 2 канала
Расположение каналов             : Front: L R
Частота                          : 44,1 КГц
Метод сжатия                     : С потерями
Размер потока                    : 5,62 Мбайт (3%)
Дата кодирования                 : UTC 2015-05-15 17:07:17
Дата пометки                     : UTC 2015-05-15 17:07:17
Общее
Полное имя                       : E:\VA - Весенний марафон № 170 (Весенний Всплеск Хитов)\Daddy Yankee - Pasarela (Official Video).mp4
Формат                           : MPEG-4
Профиль формата                  : Base Media
Идентификатор кодека             : isom
Размер файла                     : 122 Мбайт
Продолжительность                : 3 м. 39 с.
Общий поток                      : 4675 Кбит/сек
Дата кодирования                 : UTC 2015-04-23 06:20:25
Дата пометки                     : UTC 2015-04-23 06:20:25
Программа кодирования            : Lavf54.63.104

Видео
Идентификатор                    : 1
Формат                           : AVC
Формат/Информация                : Advanced Video Codec
Профиль формата                  :
Параметр CABAC формата           : Да
Параметр ReFrames формата        : 1 кадр
Идентификатор кодека             : avc1
Идентификатор кодека/Информация  : Advanced Video Coding
Продолжительность                : 3 м. 39 с.
Вид битрейта                     : Переменный
Битрейт                          : 4496 Кбит/сек
Ширина                           : 1920 пикс.
Высота                           : 1080 пикс.
Соотношение сторон               : 16:9
Режим частоты кадров             : Постоянный
Частота кадров                   : 25,000 кадр/сек
Цветовое пространство            : YUV
Подвыборка цветности             : 4:2:0
Битовая глубина                  : 8 бит
Тип развёртки                    : Прогрессивная
Бит/(Пиксели*Кадры)              : 0.087
Размер потока                    : 119 Мбайт (97%)
Библиотека кодирования           : x264 core 129
Настройки программы              : cabac=1 / ref=1 / deblock=1:0:0 / analyse=0x1:0x131 / me=dia / subme=2 / psy=1 / psy_rd=1.00:0.00 / mixed_ref=0 / me_range=16 / chroma_me=1 / trellis=0 / 8x8dct=0 / cqm=0 / deadzone=21,11 / fast_pskip=1 / chroma_qp_offset=0 / threads=2 / lookahead_threads=1 / sliced_threads=0 / nr=0 / decimate=1 / interlaced=0 / bluray_compat=0 / constrained_intra=0 / bframes=0 / weightp=2 / keyint=250 / keyint_min=25 / scenecut=40 / intra_refresh=0 / rc_lookahead=40 / rc=abr / mbtree=1 / bitrate=4496 / ratetol=1.0 / qcomp=0.60 / qpmin=10 / qpmax=51 / qpstep=4 / ip_ratio=1.41 / aq=1:1.00
Дата кодирования                 : UTC 2015-04-23 06:20:25
Дата пометки                     : UTC 2015-04-23 06:20:25

Аудио
Идентификатор                    : 2
Формат                           : AAC
Формат/Информация                : Advanced Audio Codec
Профиль формата                  : LC
Идентификатор кодека             : 40
Продолжительность                : 3 м. 39 с.
Вид битрейта                     : Переменный
Битрейт                          : 112 Кбит/сек
Максимальный битрейт             : 176,4 Кбит/сек
Каналы                           : 2 канала
Расположение каналов             : Front: L R
Частота                          : 44,1 КГц
Метод сжатия                     : С потерями
Размер потока                    : 2,93 Мбайт (2%)
Дата кодирования                 : UTC 2015-04-23 06:20:25
Дата пометки                     : UTC 2015-04-23 06:20:25
Общее
Полное имя                       : E:\VA - Весенний марафон № 170 (Весенний Всплеск Хитов)\Foncho - Waya Waya (Official Video).mp4
Формат                           : MPEG-4
Профиль формата                  : Base Media
Идентификатор кодека             : isom
Размер файла                     : 111 Мбайт
Продолжительность                : 3 м. 20 с.
Общий поток                      : 4641 Кбит/сек
Дата кодирования                 : UTC 2015-05-13 09:50:36
Дата пометки                     : UTC 2015-05-13 09:50:36
Программа кодирования            : Lavf54.63.104

Видео
Идентификатор                    : 1
Формат                           : AVC
Формат/Информация                : Advanced Video Codec
Профиль формата                  :
Параметр CABAC формата           : Да
Параметр ReFrames формата        : 1 кадр
Идентификатор кодека             : avc1
Идентификатор кодека/Информация  : Advanced Video Coding
Продолжительность                : 3 м. 20 с.
Вид битрейта                     : Переменный
Битрейт                          : 4496 Кбит/сек
Ширина                           : 1920 пикс.
Высота                           : 1080 пикс.
Соотношение сторон               : 16:9
Режим частоты кадров             : Постоянный
Частота кадров                   : 25,000 кадр/сек
Цветовое пространство            : YUV
Подвыборка цветности             : 4:2:0
Битовая глубина                  : 8 бит
Тип развёртки                    : Прогрессивная
Бит/(Пиксели*Кадры)              : 0.087
Размер потока                    : 107 Мбайт (97%)
Библиотека кодирования           : x264 core 129
Настройки программы              : cabac=1 / ref=1 / deblock=1:0:0 / analyse=0x1:0x131 / me=dia / subme=2 / psy=1 / psy_rd=1.00:0.00 / mixed_ref=0 / me_range=16 / chroma_me=1 / trellis=0 / 8x8dct=0 / cqm=0 / deadzone=21,11 / fast_pskip=1 / chroma_qp_offset=0 / threads=2 / lookahead_threads=1 / sliced_threads=0 / nr=0 / decimate=1 / interlaced=0 / bluray_compat=0 / constrained_intra=0 / bframes=0 / weightp=2 / keyint=250 / keyint_min=25 / scenecut=40 / intra_refresh=0 / rc_lookahead=40 / rc=abr / mbtree=1 / bitrate=4496 / ratetol=1.0 / qcomp=0.60 / qpmin=10 / qpmax=51 / qpstep=4 / ip_ratio=1.41 / aq=1:1.00
Дата кодирования                 : UTC 2015-05-13 09:50:36
Дата пометки                     : UTC 2015-05-13 09:50:36

Аудио
Идентификатор                    : 2
Формат                           : AAC
Формат/Информация                : Advanced Audio Codec
Профиль формата                  : LC
Идентификатор кодека             : 40
Продолжительность                : 3 м. 20 с.
Вид битрейта                     : Переменный
Битрейт                          : 152 Кбит/сек
Максимальный битрейт             : 176,4 Кбит/сек
Каналы                           : 2 канала
Расположение каналов             : Front: L R
Частота                          : 44,1 КГц
Метод сжатия                     : С потерями
Размер потока                    : 3,64 Мбайт (3%)
Дата кодирования                 : UTC 2015-05-13 09:50:36
Дата пометки                     : UTC 2015-05-13 09:50:36
Общее
Полное имя                       : E:\VA - Весенний марафон № 170 (Весенний Всплеск Хитов)\Giulia - Din cauza ta (Official Video).mp4
Формат                           : MPEG-4
Профиль формата                  : Base Media
Идентификатор кодека             : isom
Размер файла                     : 115 Мбайт
Продолжительность                : 3 м. 35 с.
Общий поток                      : 4478 Кбит/сек
Программа кодирования            : Lavf54.63.104

Видео
Идентификатор                    : 1
Формат                           : AVC
Формат/Информация                : Advanced Video Codec
Профиль формата                  :
Параметр CABAC формата           : Да
Параметр ReFrames формата        : 1 кадр
Идентификатор кодека             : avc1
Идентификатор кодека/Информация  : Advanced Video Coding
Продолжительность                : 3 м. 35 с.
Вид битрейта                     : Переменный
Битрейт                          : 4496 Кбит/сек
Ширина                           : 1920 пикс.
Высота                           : 1080 пикс.
Соотношение сторон               : 16:9
Режим частоты кадров             : Постоянный
Частота кадров                   : 25,000 кадр/сек
Цветовое пространство            : YUV
Подвыборка цветности             : 4:2:0
Битовая глубина                  : 8 бит
Тип развёртки                    : Прогрессивная
Бит/(Пиксели*Кадры)              : 0.087
Размер потока                    : 111 Мбайт (97%)
Библиотека кодирования           : x264 core 129
Настройки программы              : cabac=1 / ref=1 / deblock=1:0:0 / analyse=0x1:0x131 / me=dia / subme=2 / psy=1 / psy_rd=1.00:0.00 / mixed_ref=0 / me_range=16 / chroma_me=1 / trellis=0 / 8x8dct=0 / cqm=0 / deadzone=21,11 / fast_pskip=1 / chroma_qp_offset=0 / threads=2 / lookahead_threads=1 / sliced_threads=0 / nr=0 / decimate=1 / interlaced=0 / bluray_compat=0 / constrained_intra=0 / bframes=0 / weightp=2 / keyint=250 / keyint_min=25 / scenecut=40 / intra_refresh=0 / rc_lookahead=40 / rc=abr / mbtree=1 / bitrate=4496 / ratetol=1.0 / qcomp=0.60 / qpmin=10 / qpmax=51 / qpstep=4 / ip_ratio=1.41 / aq=1:1.00

Аудио
Идентификатор                    : 2
Формат                           : AAC
Формат/Информация                : Advanced Audio Codec
Профиль формата                  : LC
Идентификатор кодека             : 40
Продолжительность                : 3 м. 35 с.
Вид битрейта                     : Переменный
Битрейт                          : 144 Кбит/сек
Максимальный битрейт             : 176,4 Кбит/сек
Каналы                           : 2 канала
Расположение каналов             : Front: L R
Частота                          : 44,1 КГц
Метод сжатия                     : С потерями
Размер потока                    : 3,68 Мбайт (3%)
Общее
Полное имя                       : E:\VA - Весенний марафон № 170 (Весенний Всплеск Хитов)\Hilary Duff - Sparks (Official Video).mp4
Формат                           : MPEG-4
Профиль формата                  : Base Media
Идентификатор кодека             : isom
Размер файла                     : 104 Мбайт
Продолжительность                : 3 м. 6 с.
Общий поток                      : 4662 Кбит/сек
Дата кодирования                 : UTC 2015-05-16 05:41:38
Дата пометки                     : UTC 2015-05-16 05:41:38
Программа кодирования            : Lavf54.63.104

Видео
Идентификатор                    : 1
Формат                           : AVC
Формат/Информация                : Advanced Video Codec
Профиль формата                  :
Параметр CABAC формата           : Да
Параметр ReFrames формата        : 1 кадр
Идентификатор кодека             : avc1
Идентификатор кодека/Информация  : Advanced Video Coding
Продолжительность                : 3 м. 6 с.
Вид битрейта                     : Переменный
Битрейт                          : 4496 Кбит/сек
Ширина                           : 1920 пикс.
Высота                           : 1080 пикс.
Соотношение сторон               : 16:9
Режим частоты кадров             : Постоянный
Частота кадров                   : 25,000 кадр/сек
Цветовое пространство            : YUV
Подвыборка цветности             : 4:2:0
Битовая глубина                  : 8 бит
Тип развёртки                    : Прогрессивная
Бит/(Пиксели*Кадры)              : 0.087
Размер потока                    : 100 Мбайт (97%)
Библиотека кодирования           : x264 core 129
Настройки программы              : cabac=1 / ref=1 / deblock=1:0:0 / analyse=0x1:0x131 / me=dia / subme=2 / psy=1 / psy_rd=1.00:0.00 / mixed_ref=0 / me_range=16 / chroma_me=1 / trellis=0 / 8x8dct=0 / cqm=0 / deadzone=21,11 / fast_pskip=1 / chroma_qp_offset=0 / threads=2 / lookahead_threads=1 / sliced_threads=0 / nr=0 / decimate=1 / interlaced=0 / bluray_compat=0 / constrained_intra=0 / bframes=0 / weightp=2 / keyint=250 / keyint_min=25 / scenecut=40 / intra_refresh=0 / rc_lookahead=40 / rc=abr / mbtree=1 / bitrate=4496 / ratetol=1.0 / qcomp=0.60 / qpmin=10 / qpmax=51 / qpstep=4 / ip_ratio=1.41 / aq=1:1.00
Дата кодирования                 : UTC 2015-05-16 05:41:38
Дата пометки                     : UTC 2015-05-16 05:41:38

Аудио
Идентификатор                    : 2
Формат                           : AAC
Формат/Информация                : Advanced Audio Codec
Профиль формата                  : LC
Идентификатор кодека             : 40
Продолжительность                : 3 м. 6 с.
Вид битрейта                     : Переменный
Битрейт                          : 151 Кбит/сек
Максимальный битрейт             : 176,4 Кбит/сек
Каналы                           : 2 канала
Расположение каналов             : Front: L R
Частота                          : 44,1 КГц
Метод сжатия                     : С потерями
Размер потока                    : 3,35 Мбайт (3%)
Дата кодирования                 : UTC 2015-05-16 05:41:38
Дата пометки                     : UTC 2015-05-16 05:41:38
Общее
Полное имя                       : E:\VA - Весенний марафон № 170 (Весенний Всплеск Хитов)\Jay Santos - Dale Morena (Lyric Video) (Official Video).mp4
Формат                           : MPEG-4
Профиль формата                  : Base Media
Идентификатор кодека             : isom
Размер файла                     : 125 Мбайт
Продолжительность                : 3 м. 44 с.
Общий поток                      : 4665 Кбит/сек
Программа кодирования            : Lavf54.63.104

Видео
Идентификатор                    : 1
Формат                           : AVC
Формат/Информация                : Advanced Video Codec
Профиль формата                  :
Параметр CABAC формата           : Да
Параметр ReFrames формата        : 1 кадр
Идентификатор кодека             : avc1
Идентификатор кодека/Информация  : Advanced Video Coding
Продолжительность                : 3 м. 44 с.
Вид битрейта                     : Переменный
Битрейт                          : 4496 Кбит/сек
Ширина                           : 1920 пикс.
Высота                           : 1080 пикс.
Соотношение сторон               : 16:9
Режим частоты кадров             : Постоянный
Частота кадров                   : 25,000 кадр/сек
Цветовое пространство            : YUV
Подвыборка цветности             : 4:2:0
Битовая глубина                  : 8 бит
Тип развёртки                    : Прогрессивная
Бит/(Пиксели*Кадры)              : 0.087
Размер потока                    : 121 Мбайт (97%)
Библиотека кодирования           : x264 core 129
Настройки программы              : cabac=1 / ref=1 / deblock=1:0:0 / analyse=0x1:0x131 / me=dia / subme=2 / psy=1 / psy_rd=1.00:0.00 / mixed_ref=0 / me_range=16 / chroma_me=1 / trellis=0 / 8x8dct=0 / cqm=0 / deadzone=21,11 / fast_pskip=1 / chroma_qp_offset=0 / threads=2 / lookahead_threads=1 / sliced_threads=0 / nr=0 / decimate=1 / interlaced=0 / bluray_compat=0 / constrained_intra=0 / bframes=0 / weightp=2 / keyint=250 / keyint_min=25 / scenecut=40 / intra_refresh=0 / rc_lookahead=40 / rc=abr / mbtree=1 / bitrate=4496 / ratetol=1.0 / qcomp=0.60 / qpmin=10 / qpmax=51 / qpstep=4 / ip_ratio=1.41 / aq=1:1.00

Аудио
Идентификатор                    : 2
Формат                           : AAC
Формат/Информация                : Advanced Audio Codec
Профиль формата                  : LC
Идентификатор кодека             : 40
Продолжительность                : 3 м. 44 с.
Вид битрейта                     : Переменный
Битрейт                          : 151 Кбит/сек
Максимальный битрейт             : 176,4 Кбит/сек
Каналы                           : 2 канала
Расположение каналов             : Front: L R
Частота                          : 44,1 КГц
Метод сжатия                     : С потерями
Размер потока                    : 4,04 Мбайт (3%)
Общее
Полное имя                       : E:\VA - Весенний марафон № 170 (Весенний Всплеск Хитов)\Jazzy Jo - Amor, Amor (Official Video).mp4
Формат                           : MPEG-4
Профиль формата                  : Base Media
Идентификатор кодека             : isom
Размер файла                     : 123 Мбайт
Продолжительность                : 3 м. 52 с.
Общий поток                      : 4427 Кбит/сек
Программа кодирования            : Lavf54.63.104

Видео
Идентификатор                    : 1
Формат                           : AVC
Формат/Информация                : Advanced Video Codec
Профиль формата                  :
Параметр CABAC формата           : Да
Параметр ReFrames формата        : 1 кадр
Идентификатор кодека             : avc1
Идентификатор кодека/Информация  : Advanced Video Coding
Продолжительность                : 3 м. 52 с.
Вид битрейта                     : Переменный
Битрейт                          : 4278 Кбит/сек
Номинальный битрейт              : 4496 Кбит/сек
Ширина                           : 1920 пикс.
Высота                           : 1080 пикс.
Соотношение сторон               : 16:9
Режим частоты кадров             : Постоянный
Частота кадров                   : 25,000 кадр/сек
Цветовое пространство            : YUV
Подвыборка цветности             : 4:2:0
Битовая глубина                  : 8 бит
Тип развёртки                    : Прогрессивная
Бит/(Пиксели*Кадры)              : 0.083
Размер потока                    : 119 Мбайт (97%)
Библиотека кодирования           : x264 core 129
Настройки программы              : cabac=1 / ref=1 / deblock=1:0:0 / analyse=0x1:0x131 / me=dia / subme=2 / psy=1 / psy_rd=1.00:0.00 / mixed_ref=0 / me_range=16 / chroma_me=1 / trellis=0 / 8x8dct=0 / cqm=0 / deadzone=21,11 / fast_pskip=1 / chroma_qp_offset=0 / threads=2 / lookahead_threads=1 / sliced_threads=0 / nr=0 / decimate=1 / interlaced=0 / bluray_compat=0 / constrained_intra=0 / bframes=0 / weightp=2 / keyint=250 / keyint_min=25 / scenecut=40 / intra_refresh=0 / rc_lookahead=40 / rc=abr / mbtree=1 / bitrate=4496 / ratetol=1.0 / qcomp=0.60 / qpmin=10 / qpmax=51 / qpstep=4 / ip_ratio=1.41 / aq=1:1.00

Аудио
Идентификатор                    : 2
Формат                           : AAC
Формат/Информация                : Advanced Audio Codec
Профиль формата                  : LC
Идентификатор кодека             : 40
Продолжительность                : 3 м. 52 с.
Вид битрейта                     : Переменный
Битрейт                          : 144 Кбит/сек
Максимальный битрейт             : 176,4 Кбит/сек
Каналы                           : 2 канала
Расположение каналов             : Front: L R
Частота                          : 44,1 КГц
Метод сжатия                     : С потерями
Размер потока                    : 4,00 Мбайт (3%)
Общее
Полное имя                       : E:\VA - Весенний марафон № 170 (Весенний Всплеск Хитов)\Jochen Miller ft. Chris Hordijk - Fearless (Official Video).mp4
Формат                           : MPEG-4
Профиль формата                  : Base Media
Идентификатор кодека             : isom
Размер файла                     : 105 Мбайт
Продолжительность                : 3 м. 10 с.
Общий поток                      : 4608 Кбит/сек
Дата кодирования                 : UTC 2015-05-15 15:36:03
Дата пометки                     : UTC 2015-05-15 15:36:03
Программа кодирования            : Lavf54.63.104

Видео
Идентификатор                    : 1
Формат                           : AVC
Формат/Информация                : Advanced Video Codec
Профиль формата                  :
Параметр CABAC формата           : Да
Параметр ReFrames формата        : 1 кадр
Идентификатор кодека             : avc1
Идентификатор кодека/Информация  : Advanced Video Coding
Продолжительность                : 3 м. 10 с.
Вид битрейта                     : Переменный
Битрейт                          : 4496 Кбит/сек
Ширина                           : 1920 пикс.
Высота                           : 1080 пикс.
Соотношение сторон               : 16:9
Режим частоты кадров             : Постоянный
Частота кадров                   : 25,000 кадр/сек
Цветовое пространство            : YUV
Подвыборка цветности             : 4:2:0
Битовая глубина                  : 8 бит
Тип развёртки                    : Прогрессивная
Бит/(Пиксели*Кадры)              : 0.087
Размер потока                    : 101 Мбайт (97%)
Библиотека кодирования           : x264 core 129
Настройки программы              : cabac=1 / ref=1 / deblock=1:0:0 / analyse=0x1:0x131 / me=dia / subme=2 / psy=1 / psy_rd=1.00:0.00 / mixed_ref=0 / me_range=16 / chroma_me=1 / trellis=0 / 8x8dct=0 / cqm=0 / deadzone=21,11 / fast_pskip=1 / chroma_qp_offset=0 / threads=2 / lookahead_threads=1 / sliced_threads=0 / nr=0 / decimate=1 / interlaced=0 / bluray_compat=0 / constrained_intra=0 / bframes=0 / weightp=2 / keyint=250 / keyint_min=25 / scenecut=40 / intra_refresh=0 / rc_lookahead=40 / rc=abr / mbtree=1 / bitrate=4496 / ratetol=1.0 / qcomp=0.60 / qpmin=10 / qpmax=51 / qpstep=4 / ip_ratio=1.41 / aq=1:1.00
Дата кодирования                 : UTC 2015-05-15 15:36:03
Дата пометки                     : UTC 2015-05-15 15:36:03

Аудио
Идентификатор                    : 2
Формат                           : AAC
Формат/Информация                : Advanced Audio Codec
Профиль формата                  : LC
Идентификатор кодека             : 40
Продолжительность                : 3 м. 10 с.
Вид битрейта                     : Переменный
Битрейт                          : 152 Кбит/сек
Максимальный битрейт             : 176,4 Кбит/сек
Каналы                           : 2 канала
Расположение каналов             : Front: L R
Частота                          : 44,1 КГц
Метод сжатия                     : С потерями
Размер потока                    : 3,45 Мбайт (3%)
Дата кодирования                 : UTC 2015-05-15 15:36:03
Дата пометки                     : UTC 2015-05-15 15:36:03
Общее
Полное имя                       : E:\VA - Весенний марафон № 170 (Весенний Всплеск Хитов)\Joe Stone ft. Montell Jordan - The Party (Official Video).mp4
Формат                           : MPEG-4
Профиль формата                  : Base Media
Идентификатор кодека             : isom
Размер файла                     : 104 Мбайт
Продолжительность                : 3 м. 6 с.
Общий поток                      : 4679 Кбит/сек
Дата кодирования                 : UTC 2015-05-16 07:08:50
Дата пометки                     : UTC 2015-05-16 07:08:50
Программа кодирования            : Lavf54.63.104

Видео
Идентификатор                    : 1
Формат                           : AVC
Формат/Информация                : Advanced Video Codec
Профиль формата                  :
Параметр CABAC формата           : Да
Параметр ReFrames формата        : 1 кадр
Идентификатор кодека             : avc1
Идентификатор кодека/Информация  : Advanced Video Coding
Продолжительность                : 3 м. 6 с.
Вид битрейта                     : Переменный
Битрейт                          : 4496 Кбит/сек
Ширина                           : 1920 пикс.
Высота                           : 1080 пикс.
Соотношение сторон               : 16:9
Режим частоты кадров             : Постоянный
Частота кадров                   : 25,000 кадр/сек
Цветовое пространство            : YUV
Подвыборка цветности             : 4:2:0
Битовая глубина                  : 8 бит
Тип развёртки                    : Прогрессивная
Бит/(Пиксели*Кадры)              : 0.087
Размер потока                    : 101 Мбайт (97%)
Библиотека кодирования           : x264 core 129
Настройки программы              : cabac=1 / ref=1 / deblock=1:0:0 / analyse=0x1:0x131 / me=dia / subme=2 / psy=1 / psy_rd=1.00:0.00 / mixed_ref=0 / me_range=16 / chroma_me=1 / trellis=0 / 8x8dct=0 / cqm=0 / deadzone=21,11 / fast_pskip=1 / chroma_qp_offset=0 / threads=2 / lookahead_threads=1 / sliced_threads=0 / nr=0 / decimate=1 / interlaced=0 / bluray_compat=0 / constrained_intra=0 / bframes=0 / weightp=2 / keyint=250 / keyint_min=25 / scenecut=40 / intra_refresh=0 / rc_lookahead=40 / rc=abr / mbtree=1 / bitrate=4496 / ratetol=1.0 / qcomp=0.60 / qpmin=10 / qpmax=51 / qpstep=4 / ip_ratio=1.41 / aq=1:1.00
Дата кодирования                 : UTC 2015-05-16 07:08:50
Дата пометки                     : UTC 2015-05-16 07:08:50

Аудио
Идентификатор                    : 2
Формат                           : AAC
Формат/Информация                : Advanced Audio Codec
Профиль формата                  : LC
Идентификатор кодека             : 40
Продолжительность                : 3 м. 6 с.
Вид битрейта                     : Переменный
Битрейт                          : 150 Кбит/сек
Максимальный битрейт             : 176,4 Кбит/сек
Каналы                           : 2 канала
Расположение каналов             : Front: L R
Частота                          : 44,1 КГц
Метод сжатия                     : С потерями
Размер потока                    : 3,34 Мбайт (3%)
Дата кодирования                 : UTC 2015-05-16 07:08:50
Дата пометки                     : UTC 2015-05-16 07:08:50
Общее
Полное имя                       : E:\VA - Весенний марафон № 170 (Весенний Всплеск Хитов)\Kat Graham - 1991 (Official Video).mp4
Формат                           : MPEG-4
Профиль формата                  : Base Media
Идентификатор кодека             : isom
Размер файла                     : 110 Мбайт
Продолжительность                : 3 м. 22 с.
Общий поток                      : 4544 Кбит/сек
Дата кодирования                 : UTC 2015-05-14 14:26:31
Дата пометки                     : UTC 2015-05-14 14:26:31
Программа кодирования            : Lavf54.63.104

Видео
Идентификатор                    : 1
Формат                           : AVC
Формат/Информация                : Advanced Video Codec
Профиль формата                  :
Параметр CABAC формата           : Да
Параметр ReFrames формата        : 1 кадр
Идентификатор кодека             : avc1
Идентификатор кодека/Информация  : Advanced Video Coding
Продолжительность                : 3 м. 22 с.
Вид битрейта                     : Переменный
Битрейт                          : 4496 Кбит/сек
Ширина                           : 1920 пикс.
Высота                           : 1080 пикс.
Соотношение сторон               : 16:9
Режим частоты кадров             : Постоянный
Частота кадров                   : 25,000 кадр/сек
Цветовое пространство            : YUV
Подвыборка цветности             : 4:2:0
Битовая глубина                  : 8 бит
Тип развёртки                    : Прогрессивная
Бит/(Пиксели*Кадры)              : 0.087
Размер потока                    : 106 Мбайт (97%)
Библиотека кодирования           : x264 core 129
Настройки программы              : cabac=1 / ref=1 / deblock=1:0:0 / analyse=0x1:0x131 / me=dia / subme=2 / psy=1 / psy_rd=1.00:0.00 / mixed_ref=0 / me_range=16 / chroma_me=1 / trellis=0 / 8x8dct=0 / cqm=0 / deadzone=21,11 / fast_pskip=1 / chroma_qp_offset=0 / threads=2 / lookahead_threads=1 / sliced_threads=0 / nr=0 / decimate=1 / interlaced=0 / bluray_compat=0 / constrained_intra=0 / bframes=0 / weightp=2 / keyint=250 / keyint_min=25 / scenecut=40 / intra_refresh=0 / rc_lookahead=40 / rc=abr / mbtree=1 / bitrate=4496 / ratetol=1.0 / qcomp=0.60 / qpmin=10 / qpmax=51 / qpstep=4 / ip_ratio=1.41 / aq=1:1.00
Дата кодирования                 : UTC 2015-05-14 14:26:31
Дата пометки                     : UTC 2015-05-14 14:26:31

Аудио
Идентификатор                    : 2
Формат                           : AAC
Формат/Информация                : Advanced Audio Codec
Профиль формата                  : LC
Идентификатор кодека             : 40
Продолжительность                : 3 м. 22 с.
Вид битрейта                     : Переменный
Битрейт                          : 144 Кбит/сек
Максимальный битрейт             : 176,4 Кбит/сек
Каналы                           : 2 канала
Расположение каналов             : Front: L R
Частота                          : 44,1 КГц
Метод сжатия                     : С потерями
Размер потока                    : 3,54 Мбайт (3%)
Дата кодирования                 : UTC 2015-05-14 14:26:31
Дата пометки                     : UTC 2015-05-14 14:26:31
Общее
Полное имя                       : E:\VA - Весенний марафон № 170 (Весенний Всплеск Хитов)\Kyle Dion - Moonshine (Official Video).mp4
Формат                           : MPEG-4
Профиль формата                  : Base Media
Идентификатор кодека             : isom
Размер файла                     : 113 Мбайт
Продолжительность                : 3 м. 42 с.
Общий поток                      : 4267 Кбит/сек
Дата кодирования                 : UTC 2015-05-17 20:57:53
Дата пометки                     : UTC 2015-05-17 20:57:53
Программа кодирования            : Lavf54.63.104

Видео
Идентификатор                    : 1
Формат                           : AVC
Формат/Информация                : Advanced Video Codec
Профиль формата                  :
Параметр CABAC формата           : Да
Параметр ReFrames формата        : 1 кадр
Идентификатор кодека             : avc1
Идентификатор кодека/Информация  : Advanced Video Coding
Продолжительность                : 3 м. 42 с.
Вид битрейта                     : Переменный
Битрейт                          : 4110 Кбит/сек
Номинальный битрейт              : 4496 Кбит/сек
Ширина                           : 1920 пикс.
Высота                           : 1080 пикс.
Соотношение сторон               : 16:9
Режим частоты кадров             : Постоянный
Частота кадров                   : 25,000 кадр/сек
Цветовое пространство            : YUV
Подвыборка цветности             : 4:2:0
Битовая глубина                  : 8 бит
Тип развёртки                    : Прогрессивная
Бит/(Пиксели*Кадры)              : 0.079
Размер потока                    : 109 Мбайт (96%)
Библиотека кодирования           : x264 core 129
Настройки программы              : cabac=1 / ref=1 / deblock=1:0:0 / analyse=0x1:0x131 / me=dia / subme=2 / psy=1 / psy_rd=1.00:0.00 / mixed_ref=0 / me_range=16 / chroma_me=1 / trellis=0 / 8x8dct=0 / cqm=0 / deadzone=21,11 / fast_pskip=1 / chroma_qp_offset=0 / threads=2 / lookahead_threads=1 / sliced_threads=0 / nr=0 / decimate=1 / interlaced=0 / bluray_compat=0 / constrained_intra=0 / bframes=0 / weightp=2 / keyint=250 / keyint_min=25 / scenecut=40 / intra_refresh=0 / rc_lookahead=40 / rc=abr / mbtree=1 / bitrate=4496 / ratetol=1.0 / qcomp=0.60 / qpmin=10 / qpmax=51 / qpstep=4 / ip_ratio=1.41 / aq=1:1.00
Дата кодирования                 : UTC 2015-05-17 20:57:53
Дата пометки                     : UTC 2015-05-17 20:57:53

Аудио
Идентификатор                    : 2
Формат                           : AAC
Формат/Информация                : Advanced Audio Codec
Профиль формата                  : LC
Идентификатор кодека             : 40
Продолжительность                : 3 м. 42 с.
Вид битрейта                     : Переменный
Битрейт                          : 151 Кбит/сек
Максимальный битрейт             : 176,4 Кбит/сек
Каналы                           : 2 канала
Расположение каналов             : Front: L R
Частота                          : 44,1 КГц
Метод сжатия                     : С потерями
Размер потока                    : 4,02 Мбайт (4%)
Дата кодирования                 : UTC 2015-05-17 20:57:53
Дата пометки                     : UTC 2015-05-17 20:57:53
Общее
Полное имя                       : E:\VA - Весенний марафон № 170 (Весенний Всплеск Хитов)\Mario Bischin - Loca (Official Video).mp4
Формат                           : MPEG-4
Профиль формата                  : Base Media
Идентификатор кодека             : isom
Размер файла                     : 121 Мбайт
Продолжительность                : 3 м. 37 с.
Общий поток                      : 4660 Кбит/сек
Дата кодирования                 : UTC 2015-05-18 11:40:14
Дата пометки                     : UTC 2015-05-18 11:40:14
Программа кодирования            : Lavf54.63.104

Видео
Идентификатор                    : 1
Формат                           : AVC
Формат/Информация                : Advanced Video Codec
Профиль формата                  :
Параметр CABAC формата           : Да
Параметр ReFrames формата        : 1 кадр
Идентификатор кодека             : avc1
Идентификатор кодека/Информация  : Advanced Video Coding
Продолжительность                : 3 м. 37 с.
Вид битрейта                     : Переменный
Битрейт                          : 4496 Кбит/сек
Ширина                           : 1920 пикс.
Высота                           : 1080 пикс.
Соотношение сторон               : 16:9
Режим частоты кадров             : Постоянный
Частота кадров                   : 25,000 кадр/сек
Цветовое пространство            : YUV
Подвыборка цветности             : 4:2:0
Битовая глубина                  : 8 бит
Тип развёртки                    : Прогрессивная
Бит/(Пиксели*Кадры)              : 0.087
Размер потока                    : 117 Мбайт (97%)
Библиотека кодирования           : x264 core 129
Настройки программы              : cabac=1 / ref=1 / deblock=1:0:0 / analyse=0x1:0x131 / me=dia / subme=2 / psy=1 / psy_rd=1.00:0.00 / mixed_ref=0 / me_range=16 / chroma_me=1 / trellis=0 / 8x8dct=0 / cqm=0 / deadzone=21,11 / fast_pskip=1 / chroma_qp_offset=0 / threads=2 / lookahead_threads=1 / sliced_threads=0 / nr=0 / decimate=1 / interlaced=0 / bluray_compat=0 / constrained_intra=0 / bframes=0 / weightp=2 / keyint=250 / keyint_min=25 / scenecut=40 / intra_refresh=0 / rc_lookahead=40 / rc=abr / mbtree=1 / bitrate=4496 / ratetol=1.0 / qcomp=0.60 / qpmin=10 / qpmax=51 / qpstep=4 / ip_ratio=1.41 / aq=1:1.00
Дата кодирования                 : UTC 2015-05-18 11:40:14
Дата пометки                     : UTC 2015-05-18 11:40:14

Аудио
Идентификатор                    : 2
Формат                           : AAC
Формат/Информация                : Advanced Audio Codec
Профиль формата                  : LC
Идентификатор кодека             : 40
Продолжительность                : 3 м. 37 с.
Вид битрейта                     : Переменный
Битрейт                          : 152 Кбит/сек
Максимальный битрейт             : 176,4 Кбит/сек
Каналы                           : 2 канала
Расположение каналов             : Front: L R
Частота                          : 44,1 КГц
Метод сжатия                     : С потерями
Размер потока                    : 3,93 Мбайт (3%)
Дата кодирования                 : UTC 2015-05-18 11:40:14
Дата пометки                     : UTC 2015-05-18 11:40:14
Общее
Полное имя                       : E:\VA - Весенний марафон № 170 (Весенний Всплеск Хитов)\Mia Rose - Take My Hand (Official Video).mp4
Формат                           : MPEG-4
Профиль формата                  : Base Media
Идентификатор кодека             : isom
Размер файла                     : 116 Мбайт
Продолжительность                : 3 м. 36 с.
Общий поток                      : 4496 Кбит/сек
Дата кодирования                 : UTC 2015-05-16 12:31:51
Дата пометки                     : UTC 2015-05-16 12:31:51
Программа кодирования            : Lavf54.63.104

Видео
Идентификатор                    : 1
Формат                           : AVC
Формат/Информация                : Advanced Video Codec
Профиль формата                  :
Параметр CABAC формата           : Да
Параметр ReFrames формата        : 1 кадр
Идентификатор кодека             : avc1
Идентификатор кодека/Информация  : Advanced Video Coding
Продолжительность                : 3 м. 36 с.
Вид битрейта                     : Переменный
Битрейт                          : 4496 Кбит/сек
Ширина                           : 1920 пикс.
Высота                           : 1080 пикс.
Соотношение сторон               : 16:9
Режим частоты кадров             : Постоянный
Частота кадров                   : 25,000 кадр/сек
Цветовое пространство            : YUV
Подвыборка цветности             : 4:2:0
Битовая глубина                  : 8 бит
Тип развёртки                    : Прогрессивная
Бит/(Пиксели*Кадры)              : 0.087
Размер потока                    : 112 Мбайт (97%)
Библиотека кодирования           : x264 core 129
Настройки программы              : cabac=1 / ref=1 / deblock=1:0:0 / analyse=0x1:0x131 / me=dia / subme=2 / psy=1 / psy_rd=1.00:0.00 / mixed_ref=0 / me_range=16 / chroma_me=1 / trellis=0 / 8x8dct=0 / cqm=0 / deadzone=21,11 / fast_pskip=1 / chroma_qp_offset=0 / threads=2 / lookahead_threads=1 / sliced_threads=0 / nr=0 / decimate=1 / interlaced=0 / bluray_compat=0 / constrained_intra=0 / bframes=0 / weightp=2 / keyint=250 / keyint_min=25 / scenecut=40 / intra_refresh=0 / rc_lookahead=40 / rc=abr / mbtree=1 / bitrate=4496 / ratetol=1.0 / qcomp=0.60 / qpmin=10 / qpmax=51 / qpstep=4 / ip_ratio=1.41 / aq=1:1.00
Дата кодирования                 : UTC 2015-05-16 12:31:51
Дата пометки                     : UTC 2015-05-16 12:31:51

Аудио
Идентификатор                    : 2
Формат                           : AAC
Формат/Информация                : Advanced Audio Codec
Профиль формата                  : LC
Идентификатор кодека             : 40
Продолжительность                : 3 м. 35 с.
Вид битрейта                     : Переменный
Битрейт                          : 147 Кбит/сек
Максимальный битрейт             : 176,4 Кбит/сек
Каналы                           : 2 канала
Расположение каналов             : Front: L R
Частота                          : 44,1 КГц
Метод сжатия                     : С потерями
Размер потока                    : 3,79 Мбайт (3%)
Дата кодирования                 : UTC 2015-05-16 12:31:51
Дата пометки                     : UTC 2015-05-16 12:31:51
Общее
Полное имя                       : E:\VA - Весенний марафон № 170 (Весенний Всплеск Хитов)\Miley Cyrus & Ariana Grande - Don't Dream It's Over (Official Video).mp4
Формат                           : MPEG-4
Профиль формата                  : Base Media
Идентификатор кодека             : isom
Размер файла                     : 130 Мбайт
Продолжительность                : 3 м. 51 с.
Общий поток                      : 4698 Кбит/сек
Дата кодирования                 : UTC 2015-05-13 22:44:43
Дата пометки                     : UTC 2015-05-13 22:44:43
Программа кодирования            : Lavf54.63.104

Видео
Идентификатор                    : 1
Формат                           : AVC
Формат/Информация                : Advanced Video Codec
Профиль формата                  :
Параметр CABAC формата           : Да
Параметр ReFrames формата        : 1 кадр
Идентификатор кодека             : avc1
Идентификатор кодека/Информация  : Advanced Video Coding
Продолжительность                : 3 м. 51 с.
Вид битрейта                     : Переменный
Битрейт                          : 4496 Кбит/сек
Ширина                           : 1920 пикс.
Высота                           : 1080 пикс.
Соотношение сторон               : 16:9
Режим частоты кадров             : Постоянный
Частота кадров                   : 25,000 кадр/сек
Цветовое пространство            : YUV
Подвыборка цветности             : 4:2:0
Битовая глубина                  : 8 бит
Тип развёртки                    : Прогрессивная
Бит/(Пиксели*Кадры)              : 0.087
Размер потока                    : 126 Мбайт (97%)
Библиотека кодирования           : x264 core 129
Настройки программы              : cabac=1 / ref=1 / deblock=1:0:0 / analyse=0x1:0x131 / me=dia / subme=2 / psy=1 / psy_rd=1.00:0.00 / mixed_ref=0 / me_range=16 / chroma_me=1 / trellis=0 / 8x8dct=0 / cqm=0 / deadzone=21,11 / fast_pskip=1 / chroma_qp_offset=0 / threads=2 / lookahead_threads=1 / sliced_threads=0 / nr=0 / decimate=1 / interlaced=0 / bluray_compat=0 / constrained_intra=0 / bframes=0 / weightp=2 / keyint=250 / keyint_min=25 / scenecut=40 / intra_refresh=0 / rc_lookahead=40 / rc=abr / mbtree=1 / bitrate=4496 / ratetol=1.0 / qcomp=0.60 / qpmin=10 / qpmax=51 / qpstep=4 / ip_ratio=1.41 / aq=1:1.00
Дата кодирования                 : UTC 2015-05-13 22:44:43
Дата пометки                     : UTC 2015-05-13 22:44:43

Аудио
Идентификатор                    : 2
Формат                           : AAC
Формат/Информация                : Advanced Audio Codec
Профиль формата                  : LC
Идентификатор кодека             : 40
Продолжительность                : 3 м. 51 с.
Вид битрейта                     : Переменный
Битрейт                          : 151 Кбит/сек
Максимальный битрейт             : 176,4 Кбит/сек
Каналы                           : 2 канала
Расположение каналов             : Front: L R
Частота                          : 44,1 КГц
Метод сжатия                     : С потерями
Размер потока                    : 4,19 Мбайт (3%)
Дата кодирования                 : UTC 2015-05-13 22:44:43
Дата пометки                     : UTC 2015-05-13 22:44:43
Общее
Полное имя                       : E:\VA - Весенний марафон № 170 (Весенний Всплеск Хитов)\Mirami - Amore Eh Oh! (English Version) (Official Video).mp4
Формат                           : MPEG-4
Профиль формата                  : Base Media
Идентификатор кодека             : isom
Размер файла                     : 108 Мбайт
Продолжительность                : 3 м. 14 с.
Общий поток                      : 4645 Кбит/сек
Дата кодирования                 : UTC 2015-05-15 19:09:42
Дата пометки                     : UTC 2015-05-15 19:09:42
Программа кодирования            : Lavf54.63.104

Видео
Идентификатор                    : 1
Формат                           : AVC
Формат/Информация                : Advanced Video Codec
Профиль формата                  :
Параметр CABAC формата           : Да
Параметр ReFrames формата        : 1 кадр
Идентификатор кодека             : avc1
Идентификатор кодека/Информация  : Advanced Video Coding
Продолжительность                : 3 м. 14 с.
Вид битрейта                     : Переменный
Битрейт                          : 4496 Кбит/сек
Ширина                           : 1920 пикс.
Высота                           : 1080 пикс.
Соотношение сторон               : 16:9
Режим частоты кадров             : Постоянный
Частота кадров                   : 25,000 кадр/сек
Цветовое пространство            : YUV
Подвыборка цветности             : 4:2:0
Битовая глубина                  : 8 бит
Тип развёртки                    : Прогрессивная
Бит/(Пиксели*Кадры)              : 0.087
Размер потока                    : 104 Мбайт (97%)
Библиотека кодирования           : x264 core 129
Настройки программы              : cabac=1 / ref=1 / deblock=1:0:0 / analyse=0x1:0x131 / me=dia / subme=2 / psy=1 / psy_rd=1.00:0.00 / mixed_ref=0 / me_range=16 / chroma_me=1 / trellis=0 / 8x8dct=0 / cqm=0 / deadzone=21,11 / fast_pskip=1 / chroma_qp_offset=0 / threads=2 / lookahead_threads=1 / sliced_threads=0 / nr=0 / decimate=1 / interlaced=0 / bluray_compat=0 / constrained_intra=0 / bframes=0 / weightp=2 / keyint=250 / keyint_min=25 / scenecut=40 / intra_refresh=0 / rc_lookahead=40 / rc=abr / mbtree=1 / bitrate=4496 / ratetol=1.0 / qcomp=0.60 / qpmin=10 / qpmax=51 / qpstep=4 / ip_ratio=1.41 / aq=1:1.00
Дата кодирования                 : UTC 2015-05-15 19:09:42
Дата пометки                     : UTC 2015-05-15 19:09:42

Аудио
Идентификатор                    : 2
Формат                           : AAC
Формат/Информация                : Advanced Audio Codec
Профиль формата                  : LC
Идентификатор кодека             : 40
Продолжительность                : 3 м. 14 с.
Вид битрейта                     : Переменный
Битрейт                          : 152 Кбит/сек
Максимальный битрейт             : 176,4 Кбит/сек
Каналы                           : 2 канала
Расположение каналов             : Front: L R
Частота                          : 44,1 КГц
Метод сжатия                     : С потерями
Размер потока                    : 3,52 Мбайт (3%)
Дата кодирования                 : UTC 2015-05-15 19:09:42
Дата пометки                     : UTC 2015-05-15 19:09:42
Общее
Полное имя                       : E:\VA - Весенний марафон № 170 (Весенний Всплеск Хитов)\Nia Sioux - Star In Your Own Life (Official Video).mp4
Формат                           : MPEG-4
Профиль формата                  : Base Media
Идентификатор кодека             : isom
Размер файла                     : 116 Мбайт
Продолжительность                : 3 м. 29 с.
Общий поток                      : 4639 Кбит/сек
Дата кодирования                 : UTC 2015-05-09 11:31:40
Дата пометки                     : UTC 2015-05-09 11:31:40
Программа кодирования            : Lavf54.63.104

Видео
Идентификатор                    : 1
Формат                           : AVC
Формат/Информация                : Advanced Video Codec
Профиль формата                  :
Параметр CABAC формата           : Да
Параметр ReFrames формата        : 1 кадр
Идентификатор кодека             : avc1
Идентификатор кодека/Информация  : Advanced Video Coding
Продолжительность                : 3 м. 29 с.
Вид битрейта                     : Переменный
Битрейт                          : 4496 Кбит/сек
Ширина                           : 1920 пикс.
Высота                           : 1080 пикс.
Соотношение сторон               : 16:9
Режим частоты кадров             : Постоянный
Частота кадров                   : 25,000 кадр/сек
Цветовое пространство            : YUV
Подвыборка цветности             : 4:2:0
Битовая глубина                  : 8 бит
Тип развёртки                    : Прогрессивная
Бит/(Пиксели*Кадры)              : 0.087
Размер потока                    : 112 Мбайт (97%)
Библиотека кодирования           : x264 core 129
Настройки программы              : cabac=1 / ref=1 / deblock=1:0:0 / analyse=0x1:0x131 / me=dia / subme=2 / psy=1 / psy_rd=1.00:0.00 / mixed_ref=0 / me_range=16 / chroma_me=1 / trellis=0 / 8x8dct=0 / cqm=0 / deadzone=21,11 / fast_pskip=1 / chroma_qp_offset=0 / threads=2 / lookahead_threads=1 / sliced_threads=0 / nr=0 / decimate=1 / interlaced=0 / bluray_compat=0 / constrained_intra=0 / bframes=0 / weightp=2 / keyint=250 / keyint_min=25 / scenecut=40 / intra_refresh=0 / rc_lookahead=40 / rc=abr / mbtree=1 / bitrate=4496 / ratetol=1.0 / qcomp=0.60 / qpmin=10 / qpmax=51 / qpstep=4 / ip_ratio=1.41 / aq=1:1.00
Дата кодирования                 : UTC 2015-05-09 11:31:40
Дата пометки                     : UTC 2015-05-09 11:31:40

Аудио
Идентификатор                    : 2
Формат                           : AAC
Формат/Информация                : Advanced Audio Codec
Профиль формата                  : LC
Идентификатор кодека             : 40
Продолжительность                : 3 м. 29 с.
Вид битрейта                     : Переменный
Битрейт                          : 149 Кбит/сек
Максимальный битрейт             : 176,4 Кбит/сек
Каналы                           : 2 канала
Расположение каналов             : Front: L R
Частота                          : 44,1 КГц
Метод сжатия                     : С потерями
Размер потока                    : 3,71 Мбайт (3%)
Дата кодирования                 : UTC 2015-05-09 11:31:40
Дата пометки                     : UTC 2015-05-09 11:31:40
Общее
Полное имя                       : E:\VA - Весенний марафон № 170 (Весенний Всплеск Хитов)\Nirvana - Girls (Official Video).mp4
Формат                           : MPEG-4
Профиль формата                  : Base Media
Идентификатор кодека             : isom
Размер файла                     : 113 Мбайт
Продолжительность                : 3 м. 23 с.
Общий поток                      : 4675 Кбит/сек
Дата кодирования                 : UTC 2015-04-04 08:30:41
Дата пометки                     : UTC 2015-04-04 08:30:41
Программа кодирования            : Lavf54.63.104

Видео
Идентификатор                    : 1
Формат                           : AVC
Формат/Информация                : Advanced Video Codec
Профиль формата                  :
Параметр CABAC формата           : Да
Параметр ReFrames формата        : 1 кадр
Идентификатор кодека             : avc1
Идентификатор кодека/Информация  : Advanced Video Coding
Продолжительность                : 3 м. 23 с.
Вид битрейта                     : Переменный
Битрейт                          : 4496 Кбит/сек
Ширина                           : 1920 пикс.
Высота                           : 1080 пикс.
Соотношение сторон               : 16:9
Режим частоты кадров             : Постоянный
Частота кадров                   : 25,000 кадр/сек
Цветовое пространство            : YUV
Подвыборка цветности             : 4:2:0
Битовая глубина                  : 8 бит
Тип развёртки                    : Прогрессивная
Бит/(Пиксели*Кадры)              : 0.087
Размер потока                    : 109 Мбайт (97%)
Библиотека кодирования           : x264 core 129
Настройки программы              : cabac=1 / ref=1 / deblock=1:0:0 / analyse=0x1:0x131 / me=dia / subme=2 / psy=1 / psy_rd=1.00:0.00 / mixed_ref=0 / me_range=16 / chroma_me=1 / trellis=0 / 8x8dct=0 / cqm=0 / deadzone=21,11 / fast_pskip=1 / chroma_qp_offset=0 / threads=2 / lookahead_threads=1 / sliced_threads=0 / nr=0 / decimate=1 / interlaced=0 / bluray_compat=0 / constrained_intra=0 / bframes=0 / weightp=2 / keyint=250 / keyint_min=25 / scenecut=40 / intra_refresh=0 / rc_lookahead=40 / rc=abr / mbtree=1 / bitrate=4496 / ratetol=1.0 / qcomp=0.60 / qpmin=10 / qpmax=51 / qpstep=4 / ip_ratio=1.41 / aq=1:1.00
Дата кодирования                 : UTC 2015-04-04 08:30:41
Дата пометки                     : UTC 2015-04-04 08:30:41

Аудио
Идентификатор                    : 2
Формат                           : AAC
Формат/Информация                : Advanced Audio Codec
Профиль формата                  : LC
Идентификатор кодека             : 40
Продолжительность                : 3 м. 23 с.
Вид битрейта                     : Переменный
Битрейт                          : 152 Кбит/сек
Максимальный битрейт             : 176,4 Кбит/сек
Каналы                           : 2 канала
Расположение каналов             : Front: L R
Частота                          : 44,1 КГц
Метод сжатия                     : С потерями
Размер потока                    : 3,68 Мбайт (3%)
Дата кодирования                 : UTC 2015-04-04 08:30:41
Дата пометки                     : UTC 2015-04-04 08:30:41
Общее
Полное имя                       : E:\VA - Весенний марафон № 170 (Весенний Всплеск Хитов)\Sofia Reyes - Conmigo (Official Video).mp4
Формат                           : MPEG-4
Профиль формата                  : Base Media
Идентификатор кодека             : isom
Размер файла                     : 111 Мбайт
Продолжительность                : 3 м. 21 с.
Общий поток                      : 4634 Кбит/сек
Дата кодирования                 : UTC 2015-05-05 20:30:48
Дата пометки                     : UTC 2015-05-05 20:30:48
Программа кодирования            : Lavf54.63.104

Видео
Идентификатор                    : 1
Формат                           : AVC
Формат/Информация                : Advanced Video Codec
Профиль формата                  :
Параметр CABAC формата           : Да
Параметр ReFrames формата        : 1 кадр
Идентификатор кодека             : avc1
Идентификатор кодека/Информация  : Advanced Video Coding
Продолжительность                : 3 м. 21 с.
Вид битрейта                     : Переменный
Битрейт                          : 4496 Кбит/сек
Ширина                           : 1920 пикс.
Высота                           : 1080 пикс.
Соотношение сторон               : 16:9
Режим частоты кадров             : Постоянный
Частота кадров                   : 25,000 кадр/сек
Цветовое пространство            : YUV
Подвыборка цветности             : 4:2:0
Битовая глубина                  : 8 бит
Тип развёртки                    : Прогрессивная
Бит/(Пиксели*Кадры)              : 0.087
Размер потока                    : 108 Мбайт (97%)
Библиотека кодирования           : x264 core 129
Настройки программы              : cabac=1 / ref=1 / deblock=1:0:0 / analyse=0x1:0x131 / me=dia / subme=2 / psy=1 / psy_rd=1.00:0.00 / mixed_ref=0 / me_range=16 / chroma_me=1 / trellis=0 / 8x8dct=0 / cqm=0 / deadzone=21,11 / fast_pskip=1 / chroma_qp_offset=0 / threads=2 / lookahead_threads=1 / sliced_threads=0 / nr=0 / decimate=1 / interlaced=0 / bluray_compat=0 / constrained_intra=0 / bframes=0 / weightp=2 / keyint=250 / keyint_min=25 / scenecut=40 / intra_refresh=0 / rc_lookahead=40 / rc=abr / mbtree=1 / bitrate=4496 / ratetol=1.0 / qcomp=0.60 / qpmin=10 / qpmax=51 / qpstep=4 / ip_ratio=1.41 / aq=1:1.00
Дата кодирования                 : UTC 2015-05-05 20:30:48
Дата пометки                     : UTC 2015-05-05 20:30:48

Аудио
Идентификатор                    : 2
Формат                           : AAC
Формат/Информация                : Advanced Audio Codec
Профиль формата                  : LC
Идентификатор кодека             : 40
Продолжительность                : 3 м. 21 с.
Вид битрейта                     : Переменный
Битрейт                          : 149 Кбит/сек
Максимальный битрейт             : 176,4 Кбит/сек
Каналы                           : 2 канала
Расположение каналов             : Front: L R
Частота                          : 44,1 КГц
Метод сжатия                     : С потерями
Размер потока                    : 3,58 Мбайт (3%)
Дата кодирования                 : UTC 2015-05-05 20:30:48
Дата пометки                     : UTC 2015-05-05 20:30:48
Общее
Полное имя                       : E:\VA - Весенний марафон № 170 (Весенний Всплеск Хитов)\Twax ft. Solomina - Movin On (Official Video).mp4
Формат                           : MPEG-4
Профиль формата                  : Base Media
Идентификатор кодека             : isom
Размер файла                     : 118 Мбайт
Продолжительность                : 3 м. 38 с.
Общий поток                      : 4541 Кбит/сек
Дата кодирования                 : UTC 2015-05-16 10:18:17
Дата пометки                     : UTC 2015-05-16 10:18:17
Программа кодирования            : Lavf54.63.104

Видео
Идентификатор                    : 1
Формат                           : AVC
Формат/Информация                : Advanced Video Codec
Профиль формата                  :
Параметр CABAC формата           : Да
Параметр ReFrames формата        : 1 кадр
Идентификатор кодека             : avc1
Идентификатор кодека/Информация  : Advanced Video Coding
Продолжительность                : 3 м. 38 с.
Вид битрейта                     : Переменный
Битрейт                          : 4496 Кбит/сек
Ширина                           : 1920 пикс.
Высота                           : 1080 пикс.
Соотношение сторон               : 16:9
Режим частоты кадров             : Постоянный
Частота кадров                   : 25,000 кадр/сек
Цветовое пространство            : YUV
Подвыборка цветности             : 4:2:0
Битовая глубина                  : 8 бит
Тип развёртки                    : Прогрессивная
Бит/(Пиксели*Кадры)              : 0.087
Размер потока                    : 115 Мбайт (98%)
Библиотека кодирования           : x264 core 129
Настройки программы              : cabac=1 / ref=1 / deblock=1:0:0 / analyse=0x1:0x131 / me=dia / subme=2 / psy=1 / psy_rd=1.00:0.00 / mixed_ref=0 / me_range=16 / chroma_me=1 / trellis=0 / 8x8dct=0 / cqm=0 / deadzone=21,11 / fast_pskip=1 / chroma_qp_offset=0 / threads=2 / lookahead_threads=1 / sliced_threads=0 / nr=0 / decimate=1 / interlaced=0 / bluray_compat=0 / constrained_intra=0 / bframes=0 / weightp=2 / keyint=250 / keyint_min=25 / scenecut=40 / intra_refresh=0 / rc_lookahead=40 / rc=abr / mbtree=1 / bitrate=4496 / ratetol=1.0 / qcomp=0.60 / qpmin=10 / qpmax=51 / qpstep=4 / ip_ratio=1.41 / aq=1:1.00
Дата кодирования                 : UTC 2015-05-16 10:18:17
Дата пометки                     : UTC 2015-05-16 10:18:17

Аудио
Идентификатор                    : 2
Формат                           : AAC
Формат/Информация                : Advanced Audio Codec
Профиль формата                  : LC
Идентификатор кодека             : 40
Продолжительность                : 3 м. 38 с.
Вид битрейта                     : Переменный
Битрейт                          : 108 Кбит/сек
Максимальный битрейт             : 176,4 Кбит/сек
Каналы                           : 2 канала
Расположение каналов             : Front: L R
Частота                          : 44,1 КГц
Метод сжатия                     : С потерями
Размер потока                    : 2,81 Мбайт (2%)
Дата кодирования                 : UTC 2015-05-16 10:18:17
Дата пометки                     : UTC 2015-05-16 10:18:17
Общее
Полное имя                       : E:\VA - Весенний марафон № 170 (Весенний Всплеск Хитов)\Xuso Jones - Somos (Official Video).mp4
Формат                           : MPEG-4
Профиль формата                  : Base Media
Идентификатор кодека             : isom
Размер файла                     : 117 Мбайт
Продолжительность                : 3 м. 18 с.
Общий поток                      : 4938 Кбит/сек
Дата кодирования                 : UTC 2015-05-15 19:51:18
Дата пометки                     : UTC 2015-05-15 19:51:18
Программа кодирования            : Lavf54.63.104

Видео
Идентификатор                    : 1
Формат                           : AVC
Формат/Информация                : Advanced Video Codec
Профиль формата                  :
Параметр CABAC формата           : Да
Параметр ReFrames формата        : 1 кадр
Идентификатор кодека             : avc1
Идентификатор кодека/Информация  : Advanced Video Coding
Продолжительность                : 3 м. 18 с.
Вид битрейта                     : Переменный
Битрейт                          : 4781 Кбит/сек
Номинальный битрейт              : 4496 Кбит/сек
Ширина                           : 1920 пикс.
Высота                           : 1080 пикс.
Соотношение сторон               : 16:9
Режим частоты кадров             : Постоянный
Частота кадров                   : 25,000 кадр/сек
Цветовое пространство            : YUV
Подвыборка цветности             : 4:2:0
Битовая глубина                  : 8 бит
Тип развёртки                    : Прогрессивная
Бит/(Пиксели*Кадры)              : 0.092
Размер потока                    : 113 Мбайт (97%)
Библиотека кодирования           : x264 core 129
Настройки программы              : cabac=1 / ref=1 / deblock=1:0:0 / analyse=0x1:0x131 / me=dia / subme=2 / psy=1 / psy_rd=1.00:0.00 / mixed_ref=0 / me_range=16 / chroma_me=1 / trellis=0 / 8x8dct=0 / cqm=0 / deadzone=21,11 / fast_pskip=1 / chroma_qp_offset=0 / threads=2 / lookahead_threads=1 / sliced_threads=0 / nr=0 / decimate=1 / interlaced=0 / bluray_compat=0 / constrained_intra=0 / bframes=0 / weightp=2 / keyint=250 / keyint_min=25 / scenecut=40 / intra_refresh=0 / rc_lookahead=40 / rc=abr / mbtree=1 / bitrate=4496 / ratetol=1.0 / qcomp=0.60 / qpmin=10 / qpmax=51 / qpstep=4 / ip_ratio=1.41 / aq=1:1.00
Дата кодирования                 : UTC 2015-05-15 19:51:18
Дата пометки                     : UTC 2015-05-15 19:51:18

Аудио
Идентификатор                    : 2
Формат                           : AAC
Формат/Информация                : Advanced Audio Codec
Профиль формата                  : LC
Идентификатор кодека             : 40
Продолжительность                : 3 м. 18 с.
Вид битрейта                     : Переменный
Битрейт                          : 152 Кбит/сек
Максимальный битрейт             : 176,4 Кбит/сек
Каналы                           : 2 канала
Расположение каналов             : Front: L R
Частота                          : 44,1 КГц
Метод сжатия                     : С потерями
Размер потока                    : 3,59 Мбайт (3%)
Дата кодирования                 : UTC 2015-05-15 19:51:18
Дата пометки                     : UTC 2015-05-15 19:51:18

Скриншоты:


Хорошего настроения.

Время раздачи:
24/7 - до 5 скачавших, далее по возможности.
 
Не забывайте говорить Спасибо. Не уходите с раздачи!   
Торрент: Зарегистрирован [20 май 2015, 02:56] Скачать торрент
Скачать торрент
[ Размер 17.31 КБ / Просмотров 12 ]
Статус:
Проверен
 
.torrent скачан: 0 раз
Хэш: 556404991bfeae824576c9b354a2255acc6cc209
Размер: 2.89 ГБ (3 105 443 844 байт)
Стать Автором раздачи
 
 
Раздал: 6.67 ГБ
Скачал: 302.5 МБ
Ратио: 22.576
Сообщения: 374198
Зарегистрирован: 17 апр 2014, 11:05


  • Похожие торренты
    Ответы
    Просмотры
    Последнее сообщение

Вернуться в Музыкальные клипы (транзит)

Ресурс не предоставляет электронные версии произведений, а занимается лишь коллекционированием и каталогизацией ссылок, присылаемых и публикуемых на форуме нашими читателями. Если вы являетесь правообладателем какого-либо представленного материала и не желаете чтобы ссылка на него находилась в нашем каталоге, свяжитесь с нами и мы незамедлительно удалим её. Файлы для обмена на трекере предоставлены пользователями сайта, и администрация не несёт ответственности за их содержание. Просьба не заливать файлы, защищенные авторскими правами, а также файлы нелегального содержания!
cron