Салем / Salem (2015) WEB-DLRip [H.264] (Сезон 2, серии 1-7 из 13) BaibaKo [MP4|720x400]

 
 Статистика раздачи 
Размер: 4.16 ГБ   |  Зарегистрирован: 20 май 2015, 02:21   |   .torrent скачан: 0 раз
Сидеров: 1  [ 0 байт/сек ]     Личеров: 1  [ 0 байт/сек ]  
  

Салем / Salem (2015) WEB-DLRip [H.264] (Сезон 2, серии 1-7 из 13) BaibaKo [MP4|720x400]

Сообщение Thistoll » 20 май 2015, 02:21

Салем / Salem (2015) WEB-DLRip [H.264] (Сезон 2, серии 1-7 из 13) BaibaKo
«Ведьмы среди нас»

Производство: США
Жанр: Фантастика, триллер, драма

Режиссер: Ричард Шепард
Актеры: Шэйн Уэст, Джанет Монтгомери, Эжур Дэун, Моргана Шоу, Сет Гейбл, Ксандер Беркли, Эшли Мадекве, Элиз Эберли, Джон Артур, Кристофер Берри и др.

Описание:
В Салем XVII века после семи лет отсутствия возвращается ветеран войны Джон Олден (Шэйн Уэст). Город сильно изменился. Теперь здесь хозяйничают ведьмы, держащие в страхе горожан. Бывшая возлюбленная Джона, Мэри Сибли (Джанет Монтгомери), теперь является богатой домовладелицей и скрывает какую-то тайну. Городские власти, священники и их преданная паства всеми силами стараются противостоять сверхъестественной угрозе. В этих условиях Джону предстоит выяснить отношения с Мэри, а ведьмам — дать отпор пуританам любой ценой или погибнуть в этом сражении …

Сэмпл

Продолжительность: ~ 00:50:00 серия
Качество видео: WEB-DLRip
Перевод: Многоголосый закадровый, профессиональный - BaibaKo
Автор перевода: Мария Назарко и Анна Макаренко
Озвучка: Ольга Мотрич, Аnna_Smile, Андрей Корзаченко, Дмитрий Глебов, Алексей Кузнецов и Сергей Корчак

Видео: AVC/H.264, 720x400 (16:9), ~1536 Кбит/сек
Аудио #1: AAC, 2 канала, 163 Кбит/сек - русский (многоголосый закадровый, BaibaKo)
Аудио #2: AAC, 2 канала, 163 Кбит/сек - английский (оригинальный)
Полное имя : D:\Salem_s2_WEB-DLRip_x264_BaibaKo_[NNM-CLUB]\Salem.s02e01.WEB-DLRip.x264.Rus.Eng.BaibaKo.tv.mp4
Формат : MPEG-4
Профиль формата : Base Media
Идентификатор кодека : isom
Размер файла : 671 Мбайт
Продолжительность : 50 м.
Режим общего битрейта : Переменный
Общий поток : 1866 Кбит/сек
Дата кодирования : UTC 2015-04-07 12:36:04
Дата пометки : UTC 2015-04-07 12:36:04

Видео
Идентификатор : 1
Формат : AVC
Формат/Информация : Advanced Video Codec
Профиль формата :
Параметр CABAC формата : Нет
Параметр ReFrames формата : 3 кадра
Идентификатор кодека : avc1
Идентификатор кодека/Информация : Advanced Video Coding
Продолжительность : 50 м.
Продолжительность оригинала : 50 м.
Битрейт : 1536 Кбит/сек
Максимальный битрейт : 10,2 Мбит/сек
Ширина : 720 пикселей
Высота : 400 пикселей
Соотношение сторон : 16:9
Режим частоты кадров : Переменный
Частота кадров : 23,976 кадра/сек
Минимальная частота кадров : 23,974 кадра/сек
Максимальная частота кадров : 23,981 кадра/сек
Цветовое пространство : YUV
Субдискретизация насыщенности : 4:2:0
Битовая глубина : 8 бит
Тип развёртки : Прогрессивная
Бит/(Пиксели*Кадры) : 0.222
Размер потока : 552 Мбайт (82%)
Размер потока оригинала : 552 Мбайт (82%)
Библиотека кодирования : x264 core 142 r2479 dd79a61
Настройки программы : cabac=0 / ref=3 / deblock=1:0:0 / analyse=0x1:0x111 / me=hex / subme=7 / psy=1 / psy_rd=1.00:0.00 / mixed_ref=1 / me_range=16 / chroma_me=1 / trellis=1 / 8x8dct=0 / cqm=0 / deadzone=21,11 / fast_pskip=1 / chroma_qp_offset=-2 / threads=12 / lookahead_threads=2 / sliced_threads=0 / nr=0 / decimate=1 / interlaced=0 / bluray_compat=0 / constrained_intra=0 / bframes=0 / weightp=0 / keyint=240 / keyint_min=24 / scenecut=40 / intra_refresh=0 / rc_lookahead=40 / rc=2pass / mbtree=1 / bitrate=1536 / ratetol=1.0 / qcomp=0.60 / qpmin=0 / qpmax=69 / qpstep=4 / cplxblur=20.0 / qblur=0.5 / vbv_maxrate=10000 / vbv_bufsize=10000 / nal_hrd=none / filler=0 / ip_ratio=1.40 / aq=1:1.00
Дата пометки : UTC 2015-04-07 12:37:21
Основные цвета : BT.709
Характеристики трансфера : BT.709
Коэффициенты матрицы : BT.709

Аудио #1
Идентификатор : 2
Формат : AAC
Формат/Информация : Advanced Audio Codec
Профиль формата : LC
Идентификатор кодека : 40
Продолжительность : 50 м.
Вид битрейта : Переменный
Битрейт : 163 Кбит/сек
Максимальный битрейт : 253 Кбит/сек
Каналы : 2 канала
Расположение каналов : Front: L R
Частота : 48,0 КГц
Метод сжатия : С потерями
Размер потока : 58,5 Мбайт (9%)
Язык : Russian
Дата кодирования : UTC 2015-04-07 12:37:09
Дата пометки : UTC 2015-04-07 12:37:21

Аудио #2
Идентификатор : 3
Формат : AAC
Формат/Информация : Advanced Audio Codec
Профиль формата : LC
Идентификатор кодека : 40
Продолжительность : 50 м.
Вид битрейта : Переменный
Битрейт : 162 Кбит/сек
Максимальный битрейт : 250 Кбит/сек
Каналы : 2 канала
Расположение каналов : Front: L R
Частота : 48,0 КГц
Метод сжатия : С потерями
Размер потока : 58,4 Мбайт (9%)
Язык : English
Дата кодирования : UTC 2015-04-07 12:37:15
Дата пометки : UTC 2015-04-07 12:37:21
01 - К убийству призывая / Cry Havoc
02 - Кровавый поцелуй / Blood Kiss
03 - Изнутри / From Within
04 - Книга теней / Book of Shadows
05 - Виноцветное море / The Wine Dark Sea
06 - К добру ли эта встреча при луне / Ill Met by Moonlight
Внимание! Раздача ведётся путём добавления новых серий; при каждом добавлении создаётся новый торрент.
Чтобы начать докачку новой серии, пользователям необходимо сделать следующее:
1. Остановить скачивание;
2. Удалить старый торрент у себя из клиента (старые серии удалять не надо);
3. Скачать новый торрент и запустить его у себя в клиенте вместо старого, при этом указать клиенту путь в старую папку куда и должно происходить скачивание новых серий. Ваш клиент при этом должен произвести хеширование (проверку) старой папки и будет докачивать только те серии, которых у вас ещё нет. Старые серии при этом не удаляются, а продолжают раздаваться! Eсли вы уже удалили старые серии, то предотвратить повторную закачку старых серий можно, отжав галочку в соответствующих местах при запуске нового торрента.
Скриншоты:




Время раздачи:
24/7 - круглосуточно
(до первых 5-ти сидов - потом по возможности)
 
Не забывайте говорить Спасибо. Не уходите с раздачи!   
Торрент: Зарегистрирован [20 май 2015, 02:21] Для скачивания .torrent
необходима регистрация
Или скачать с помощью
MediaGet
Статус:
Проверен
 
.torrent скачан: 0 раз
Хэш: 4d84c4c8672a69bca1359930a7448f03bc98c7c3
Размер: 4.16 ГБ (4 470 790 553 байт)
Стать Автором раздачи
 
 
Раздал: 6.67 ГБ
Скачал: 302.5 МБ
Ратио: 22.576
Сообщения: 374198
Зарегистрирован: 17 апр 2014, 11:05


  • Похожие торренты
    Ответы
    Просмотры
    Последнее сообщение

Вернуться в Видео для мобильных устройств

Ресурс не предоставляет электронные версии произведений, а занимается лишь коллекционированием и каталогизацией ссылок, присылаемых и публикуемых на форуме нашими читателями. Если вы являетесь правообладателем какого-либо представленного материала и не желаете чтобы ссылка на него находилась в нашем каталоге, свяжитесь с нами и мы незамедлительно удалим её. Файлы для обмена на трекере предоставлены пользователями сайта, и администрация не несёт ответственности за их содержание. Просьба не заливать файлы, защищенные авторскими правами, а также файлы нелегального содержания!
cron