Пациенты (Элла Омельченко) [2014, Россия, Драма, комедия, WEB-DL, HD (720p)] Original

 
 Статистика раздачи 
Размер: 2.78 ГБ   |  Зарегистрирован: 19 май 2015, 02:53   |   .torrent скачан: 0 раз
Сидеров: 1  [ 0 байт/сек ]     Личеров: 0  [ 0 байт/сек ]  
  

Пациенты (Элла Омельченко) [2014, Россия, Драма, комедия, WEB-DL, HD (720p)] Original

Сообщение Satch » 19 май 2015, 02:53

Пациенты
«Ты же хочешь стать счастливым?»

6.266 / 10 / 10

Год выпуска: 2014
Страна: Россия
Жанр: Драма, комедия
Продолжительность: 01:26:56

Перевод: Не требуется
Оригинальная аудиодорожка: Есть
Режиссёр: Элла Омельченко
Сценарий: Дмитрий Лемешев
Продюсер: Элла Омельченко, Александр Плотников, Виктор Адонин
Оператор: Кирилл Герра
Художник: Элла Омельченко, Дмитрий Бондарчук, Виктор Абрамов
Монтаж: Элла Омельченко, Сергей Иванов
В ролях: Павел Баршак, Тимофей Трибунцев, Марьяна Кирсанова, Дмитрий Мухамадеев

Мировая премьера:
[

Описание: Сергей посещает психоаналитика Брюсова, который на каждом сеансе внушает ему мысль о разводе со своей супругой. «Семья — это не главное! Главное — чего хочешь ты!» По мнению Брюсова жена подавляет в нем собственное «ЭГО». Леночка же, супруга Сергея, ходит на исповедь к священнику, отцу Сергию. Батюшка, в отличие от психоаналитика, наказывает Леночке, во что бы то ни стало сохранить семью. «Семья — это главное! Всё ради семьи!» Это противостояние психоаналитика и священника длится уже полтора года. Кто же победит?
Качество исходника: WEB-DL 720p (HDClub)
Качество: WEB-DL
Тип: HD (720p)
Контейнер: M4V
Видео: H.264, 1280@960x720, 16:9, 4 015 Kbps, 25.000 fps

Аудио 1: Русский/Оригинальная дорожка , AAC / 2.0 / 167 Kbps / 48.0 KHz
Аудио 2: Русский/Оригинальная дорожка , AC-3 / 5.1 / 384 Kbps / 48.0 KHz
Sort Name: Пациенты
XID: Apple:vendor_id:2014-841307
contentID: 984020977
Copyright: © 2014 Lookfilm
Screenwriters: Дмитрий Лемешев
Producers: Элла Омельченко, Александр Плотников, Виктор Адонин
Director: Элла Омельченко
Cast: Павел Баршак, Тимофей Трибунцев, Марьяна Кирсанова, Дмитрий Мухамадеев
Studio: Lookfilm
Rating: 4
Long Description: Сергей посещает психоаналитика Брюсова, который на каждом сеансе внушает ему мысль о разводе со своей супругой. "Семья - это не главное! Главное - чего хочешь ты!" По мнению Брюсова жена подавляет в нем собственное "ЭГО". Леночка же, супруга Сергея, ходит на исповедь к священнику, отцу Сергию. Батюшка, в отличие от психоаналитика, наказывает Леночке, во что бы то ни стало сохранить семью. "Семья - это главное! Всё ради семьи!" Это противостояние психоаналитика и священника длится уже полтора года. Кто же победит?
Description: Сергей посещает психоаналитика Брюсова, который на каждом сеансе внушает ему мысль о разводе со своей супругой. "Семья - это не главное! Главное - чего хочешь ты!" По мнению Брюсова жена подавляет в нем собственное "ЭГО". Леночка же, супруга Сергея, ходит на исповедь к священнику, отцу Сергию. Батюшка, в отличие от психоаналитика, наказывает Леночке, во что бы то ни стало сохранить семью. "Семья - это главное! Всё ради семьи!" Это противостояние психоаналитика и священника длится уже полтора года. Кто же победит?
Release Date: 2014-01-01T08:00:00Z
Genre: Российское кино
Artist: Элла Омельченко
Name: Пациенты
General
Complete name                            : /Users/imac/HandBrake/Patients.720p.WEB-DL.m4v
Format                                   : MPEG-4
Codec ID                                 : M4V
File size                                : 2.78 GiB
Duration                                 : 1h 26mn
Overall bit rate mode                    : Variable
Overall bit rate                         : 4 572 Kbps
Movie name                               : Пациенты
Performer                                : Элла Омельченко
Genre                                    : Российское кино
Recorded date                            : UTC 2014-01-01 08:00:00
Encoded date                             : UTC 2015-05-05 22:47:40
Tagged date                              : UTC 2015-05-18 09:54:36
Copyright                                : © 2014 Lookfilm
Cover                                    : Yes
sonm                                     : Пациенты
desc                                     : Сергей посещает психоаналитика Брюсова, который на каждом сеансе внушает ему мысль о разводе со своей супругой. "Семья - это не главное! Главное - чего хочешь ты!" По мнению Брюсова жена подавляет в нем собственное "ЭГО". Леночка же, супруга Сергея, ходит на исповедь к священнику, отцу Сергию. Батюшка, в отличие от психоаналитика, наказывает Леночке, во что бы то ни стало сохранить семью. "Семья - это главное! Всё ради семьи!" Это противостояние психоаналитика и священника длится уже полтора года. Кто же победит?
ldes                                     : Сергей посещает психоаналитика Брюсова, который на каждом сеансе внушает ему мысль о разводе со своей супругой. "Семья - это не главное! Главное - чего хочешь ты!" По мнению Брюсова жена подавляет в нем собственное "ЭГО". Леночка же, супруга Сергея, ходит на исповедь к священнику, отцу Сергию. Батюшка, в отличие от психоаналитика, наказывает Леночке, во что бы то ни стало сохранить семью. "Семья - это главное! Всё ради семьи!" Это противостояние психоаналитика и священника длится уже полтора года. Кто же победит?
hdvd                                     : 1
stik                                     : 9
rtng                                     : 0
cnID                                     : 984020977
xid                                      : Apple:vendor_id:2014-841307
iTunEXTC                                 : ru-movie|16+|375|
iTunMOVI                                 : <?xml version=\"1.0\" encoding=\"UTF-8\"?> / <!DOCTYPE plist PUBLIC \"-/Apple/DTD PLIST 1.0/EN\" \"http://www.apple.com/DTDs/PropertyList-1.0.dtd\"> / <plist version=\"1.0\"> / <dict> /  <key>cast</key> /  <array> /   <dict> /    <key>name</key> /    <string>Павел Баршак</string> /   </dict> /   <dict> /    <key>name</key> /    <string>Тимофей Трибунцев</string> /   </dict> /   <dict> /    <key>name</key> /    <string>Марьяна Кирсанова</string> /   </dict> /   <dict> /    <key>name</key> /    <string>Дмитрий Мухамадеев</string> /   </dict> /  </array> /  <key>directors</key> /  <array> /   <dict> /    <key>name</key> /    <string>Элла Омельченко</string> /   </dict> /  </array> /  <key>producers</key> /  <array> /   <dict> /    <key>name</key> /    <string>Элла Омельченко</string> /   </dict> /   <dict> /    <key>name</key> /    <string>Александр Плотников</string> /   </dict> /   <dict> /    <key>name</key> /    <string>Виктор Адонин</string> /   </dict> /  </array> /  <key>screenwriters</key> /  <array> /   <dict> /    <key>name</key> /    <string>Дмитрий Лемешев</string> /   </dict> /  </array> /  <key>studio</key> /  <string>Lookfilm</string> / </dict> / </plist>

Video #1
ID                                       : 1
Format                                   : AVC
Format/Info                              : Advanced Video Codec
Format profile                           :
Format settings, CABAC                   : No
Format settings, ReFrames                : 2 frames
Codec ID                                 : avc1
Codec ID/Info                            : Advanced Video Coding
Duration                                 : 1h 26mn
Bit rate                                 : 4 015 Kbps
Maximum bit rate                         : 12.5 Mbps
Width                                    : 960 pixels
Height                                   : 720 pixels
Display aspect ratio                     : 16:9
Original display aspect ratio            : 16:9
Frame rate mode                          : Constant
Frame rate                               : 25.000 fps
Color space                              : YUV
Chroma subsampling                       : 4:2:0
Bit depth                                : 8 bits
Scan type                                : Progressive
Bits/(Pixel*Frame)                       : 0.232
Stream size                              : 2.44 GiB (88%)
Title                                    : Patients _2014_ _ Release for HDCLUB
Language                                 : Russian
Encoded date                             : UTC 2015-05-05 22:47:40
Tagged date                              : UTC 2015-05-05 22:49:10
Color primaries                          : BT.709-5, BT.1361, IEC 61966-2-4, SMPTE RP177
Transfer characteristics                 : BT.709-5, BT.1361
Matrix coefficients                      : BT.709-5, BT.1361, IEC 61966-2-4 709, SMPTE RP177

Video #2
ID                                       : 5
Format                                   : JPEG
Codec ID                                 : jpeg
Duration                                 : 1h 26mn
Bit rate mode                            : Variable
Bit rate                                 : 1 032 bps
Width                                    : 640 pixels
Height                                   : 360 pixels
Display aspect ratio                     : 16:9
Frame rate mode                          : Variable
Frame rate                               : 0.003 fps
Minimum frame rate                       : 0.002 fps
Maximum frame rate                       : 0.005 fps
Color space                              : YUV
Chroma subsampling                       : 4:2:0
Bit depth                                : 8 bits
Compression mode                         : Lossy
Bits/(Pixel*Frame)                       : 1.493
Stream size                              : 714 KiB (0%)
Language                                 : Russian
Encoded date                             : UTC 2015-05-18 09:54:28
Tagged date                              : UTC 2015-05-18 09:54:29

Audio #1
ID                                       : 2
Format                                   : AAC
Format/Info                              : Advanced Audio Codec
Format profile                           : LC
Codec ID                                 : 40
Duration                                 : 1h 26mn
Bit rate mode                            : Variable
Bit rate                                 : 167 Kbps
Maximum bit rate                         : 216 Kbps
Channel(s)                               : 2 channels
Channel positions                        : Front: L R
Sampling rate                            : 48.0 KHz
Compression mode                         : Lossy
Stream size                              : 104 MiB (4%)
Title                                    : AAC AC3 5.1 _ 384 kbps
Language                                 : Russian
Encoded date                             : UTC 2015-05-05 22:45:56
Tagged date                              : UTC 2015-05-05 22:49:10

Audio #2
ID                                       : 3
Format                                   : AC-3
Format/Info                              : Audio Coding 3
Mode extension                           : CM (complete main)
Format settings, Endianness              : Big
Codec ID                                 : ac-3
Duration                                 : 1h 26mn
Bit rate mode                            : Constant
Bit rate                                 : 384 Kbps
Channel(s)                               : 6 channels
Channel positions                        : Front: L C R, Side: L R, LFE
Sampling rate                            : 48.0 KHz
Bit depth                                : 16 bits
Compression mode                         : Lossy
Stream size                              : 239 MiB (8%)
Title                                    : AC3 AC3 5.1 _ 384 kbps
Language                                 : Russian
Encoded date                             : UTC 2015-05-05 22:49:01
Tagged date                              : UTC 2015-05-05 22:49:10

Text
ID                                       : 4
Format                                   : Apple text
Codec ID                                 : text
Duration                                 : 1h 26mn
Bit rate mode                            : Variable
Bit rate                                 : 0 bps
Stream size                              : 263 Bytes (0%)
Language                                 : Russian
Encoded date                             : UTC 2015-05-05 22:50:18
Tagged date                              : UTC 2015-05-05 22:50:18


Релиз подготовлен для просмотра на Apple TV, iPad, iPhone, iPod Touch.
Для просмотра данного релиза на компьютере с ОС Windows рекомендуется использовать VLC media player
 
Не забывайте говорить Спасибо. Не уходите с раздачи!   
Торрент: Зарегистрирован [19 май 2015, 02:53] Скачать торрент
Скачать торрент
[ Размер 28.5 КБ / Просмотров 125 ]
Статус:
Проверен
 
.torrent скачан: 0 раз
Хэш: f6ef6170f7fc27b53b7f4fe03226dee4ec8a9d1e
Размер: 2.78 ГБ (2 980 940 186 байт)
Стать Автором раздачи
 
Аватара пользователя
 
Раздал: 2.45 ГБ
Скачал: 15.94 МБ
Ратио: 157.696
Сообщения: 337733
Зарегистрирован: 16 янв 2012, 17:03


  • Похожие торренты
    Ответы
    Просмотры
    Последнее сообщение

Вернуться в Видео для устройств Apple

Ресурс не предоставляет электронные версии произведений, а занимается лишь коллекционированием и каталогизацией ссылок, присылаемых и публикуемых на форуме нашими читателями. Если вы являетесь правообладателем какого-либо представленного материала и не желаете чтобы ссылка на него находилась в нашем каталоге, свяжитесь с нами и мы незамедлительно удалим её. Файлы для обмена на трекере предоставлены пользователями сайта, и администрация не несёт ответственности за их содержание. Просьба не заливать файлы, защищенные авторскими правами, а также файлы нелегального содержания!
cron