[ATV3] Из машины / Ex Machina (Алекс Гарленд / Alex Garland ) [2015, Великобритания, Фантастика, драма, BDRip, HD (1080p)] DUB + Original + sub (rus, eng)

 
 Статистика раздачи 
Размер: 7.09 ГБ   |  Зарегистрирован: 18 май 2015, 04:26   |   .torrent скачан: 0 раз
Сидеров: 1  [ 0 байт/сек ]     Личеров: 1  [ 0 байт/сек ]  
  

[ATV3] Из машины / Ex Machina (Алекс Гарленд / Alex Garland ) [2015, Великобритания, Фантастика, драма, BDRip, HD (1080p)] DUB + Original + sub (rus, eng)

Сообщение Satch » 18 май 2015, 04:26

Из машины / Ex Machina
«To erase the line between man and machine is to obscure the line between men and gods»

7.493 / 10 8.10 / 10

Год выпуска: 2015
Страна: Великобритания
Жанр: Фантастика, драма
Продолжительность: 01:48:00

Перевод: Профессиональный (дублированный) (Blu-ray CEE)
Оригинальная аудиодорожка: Есть
Cубтитры: Русские, Английские
Режиссёр: Алекс Гарленд
Сценарий: Алекс Гарленд
Продюсер: Эндрю МакДональд, Аллон Рич, Эли Буш
Оператор: Роберт Харди
Композитор: Джофф Барроу, Бен Салисбери
Художник: Марк Дигби, Катрина Маккэй, Дэнис Шнегг
Монтаж: Марк Дэй
В ролях: Донал Глисон, Алисия Викандер, Оскар Айзек, Соноя Мидзуно, Кори Джонсон, Claire Selby, Симара А. Темплмен, Gana Bayarsaikhan, Тиффани Писани, Элина Алминас

Бюджет: €11 000 000
Сборы в США: $19 566 000
Сборы в мире: + $9 482 268 = $29 048 268

Мировая премьера: 21 января 2015

Описание: В центре сюжета — молодой человек, которого нанимает миллиардер, сделавший состояние на высокотехнологичных разработках. Задача работника — провести неделю в удаленном местечке, тестируя женщину-робота с искусственным интеллектом.
Качество исходника: BDRemux (HDClub)
Качество: BDRip
Тип: HD (1080p)
Контейнер: M4V
Видео: H.264, 1920x800, 2.40:1, 8 000 Kbps, 23.976 fps

Аудио 1: Русский/Профессиональный (дублированный) (Blu-ray CEE), AAC / 2.0 / 156 Kbps / 48.0 KHz
Аудио 2: Английский/Оригинальная дорожка , AAC / 2.0 / 156 Kbps / 48.0 KHz
Аудио 3: Русский/Профессиональный (дублированный) (Blu-ray CEE), AC-3 / 5.1 / 448 Kbps / 48.0 KHz
Аудио 4: Английский/Оригинальная дорожка , AC-3 / 5.1 / 640 Kbps / 48.0 KHz

Субтитры 1: Русские полные
Субтитры 2: Английские полные
Sort Name: Ex_Machina
XID: Apple:vendor_id:2015-197532
contentID: 956911603
Copyright: © 2014 Universal, Film4 and DNA Films. All Rights Reserved.
Screenwriters: Алекс Гарленд
Producers: Эндрю МакДональд, Аллон Рич, Эли Буш
Director: Алекс Гарленд
Cast: Донал Глисон, Кори Джонсон, Оскар Айзек, Алисия Викандер, Соноя Мизуно, Claire Selby, Симара А. Темплмен, Gana Bayarsaikhan, Тиффани Писани, Элина Алминас
Studio: DNA Films
Rating: 131
Long Description: В центре сюжета - молодой человек, которого нанимает миллиардер, сделавший состояние на высокотехнологичных разработках. Задача работника - провести неделю в удаленном местечке, тестируя женщину-робота с искусственным интеллектом.
Description: В центре сюжета - молодой человек, которого нанимает миллиардер, сделавший состояние на высокотехнологичных разработках. Задача работника - провести неделю в удаленном местечке, тестируя женщину-робота с искусственным интеллектом.
Release Date: 2015-01-21T08:00:00Z
Genre: Drama
Artist: Alex Garland
Name: Ex_Machina
General
Complete name                            : /Users/imac/HandBrake/Ex.Machina.1080p.m4v
Format                                   : MPEG-4
Codec ID                                 : M4V
File size                                : 7.09 GiB
Duration                                 : 1h 48mn
Overall bit rate mode                    : Variable
Overall bit rate                         : 9 401 Kbps
Movie name                               : Ex_Machina
Performer                                : Alex Garland
Genre                                    : Drama
Recorded date                            : UTC 2015-01-21 08:00:00
Encoded date                             : UTC 2015-05-17 21:29:05
Tagged date                              : UTC 2015-05-17 21:32:51
Copyright                                : © 2014 Universal, Film4 and DNA Films. All Rights Reserved.
Cover                                    : Yes
sonm                                     : Ex_Machina
desc                                     : В центре сюжета - молодой человек, которого нанимает миллиардер, сделавший состояние на высокотехнологичных разработках. Задача работника - провести неделю в удаленном местечке, тестируя женщину-робота с искусственным интеллектом.
ldes                                     : В центре сюжета - молодой человек, которого нанимает миллиардер, сделавший состояние на высокотехнологичных разработках. Задача работника - провести неделю в удаленном местечке, тестируя женщину-робота с искусственным интеллектом.
hdvd                                     : 2
stik                                     : 9
rtng                                     : 0
cnID                                     : 956911603
xid                                      : Apple:vendor_id:2015-197532
iTunEXTC                                 : uk-movie|15|350|
iTunMOVI                                 : <?xml version=\"1.0\" encoding=\"UTF-8\"?> / <!DOCTYPE plist PUBLIC \"-/Apple/DTD PLIST 1.0/EN\" \"http://www.apple.com/DTDs/PropertyList-1.0.dtd\"> / <plist version=\"1.0\"> / <dict> /  <key>cast</key> /  <array> /   <dict> /    <key>name</key> /    <string>Донал Глисон</string> /   </dict> /   <dict> /    <key>name</key> /    <string>Кори Джонсон</string> /   </dict> /   <dict> /    <key>name</key> /    <string>Оскар Айзек</string> /   </dict> /   <dict> /    <key>name</key> /    <string>Алисия Викандер</string> /   </dict> /   <dict> /    <key>name</key> /    <string>Соноя Мизуно</string> /   </dict> /   <dict> /    <key>name</key> /    <string>Claire Selby</string> /   </dict> /   <dict> /    <key>name</key> /    <string>Симара А. Темплмен</string> /   </dict> /   <dict> /    <key>name</key> /    <string>Gana Bayarsaikhan</string> /   </dict> /   <dict> /    <key>name</key> /    <string>Тиффани Писани</string> /   </dict> /   <dict> /    <key>name</key> /    <string>Элина Алминас</string> /   </dict> /  </array> /  <key>directors</key> /  <array> /   <dict> /    <key>name</key> /    <string>Алекс Гарленд</string> /   </dict> /  </array> /  <key>producers</key> /  <array> /   <dict> /    <key>name</key> /    <string>Эндрю МакДональд</string> /   </dict> /   <dict> /    <key>name</key> /    <string>Аллон Рич</string> /   </dict> /   <dict> /    <key>name</key> /    <string>Эли Буш</string> /   </dict> /  </array> /  <key>screenwriters</key> /  <array> /   <dict> /    <key>name</key> /    <string>Алекс Гарленд</string> /   </dict> /  </array> /  <key>studio</key> /  <string>DNA Films</string> / </dict> / </plist>

Video #1
ID                                       : 1
Format                                   : AVC
Format/Info                              : Advanced Video Codec
Format profile                           :
Format settings, CABAC                   : Yes
Format settings, ReFrames                : 4 frames
Codec ID                                 : avc1
Codec ID/Info                            : Advanced Video Coding
Duration                                 : 1h 48mn
Bit rate mode                            : Variable
Bit rate                                 : 8 000 Kbps
Width                                    : 1 920 pixels
Height                                   : 800 pixels
Display aspect ratio                     : 2.40:1
Frame rate mode                          : Variable
Frame rate                               : 23.976 fps
Minimum frame rate                       : 23.974 fps
Maximum frame rate                       : 23.981 fps
Color space                              : YUV
Chroma subsampling                       : 4:2:0
Bit depth                                : 8 bits
Scan type                                : Progressive
Bits/(Pixel*Frame)                       : 0.217
Stream size                              : 6.03 GiB (85%)
Writing library                          : x264 core 142 r2479 dd79a61
Encoding settings                        : cabac=1 / ref=4 / deblock=1:-2:-2 / analyse=0x3:0x133 / me=umh / subme=10 / psy=1 / psy_rd=1.00:0.15 / mixed_ref=1 / me_range=32 / chroma_me=1 / trellis=2 / 8x8dct=1 / cqm=0 / deadzone=21,11 / fast_pskip=0 / chroma_qp_offset=-3 / threads=36 / lookahead_threads=6 / sliced_threads=0 / nr=0 / decimate=0 / interlaced=0 / bluray_compat=0 / constrained_intra=0 / bframes=16 / b_pyramid=2 / b_adapt=2 / b_bias=0 / direct=3 / weightb=1 / open_gop=0 / weightp=2 / keyint=240 / keyint_min=24 / scenecut=40 / intra_refresh=0 / rc_lookahead=60 / rc=2pass / mbtree=1 / bitrate=8000 / ratetol=1.0 / qcomp=0.70 / qpmin=0 / qpmax=69 / qpstep=4 / cplxblur=20.0 / qblur=0.5 / vbv_maxrate=25000 / vbv_bufsize=25000 / nal_hrd=none / filler=0 / ip_ratio=1.40 / aq=1:1.00
Language                                 : English
Encoded date                             : UTC 2015-05-17 21:29:05
Tagged date                              : UTC 2015-05-17 21:29:26
Color primaries                          : BT.709-5, BT.1361, IEC 61966-2-4, SMPTE RP177
Transfer characteristics                 : BT.709-5, BT.1361
Matrix coefficients                      : BT.709-5, BT.1361, IEC 61966-2-4 709, SMPTE RP177

Video #2
ID                                       : 9
Format                                   : JPEG
Codec ID                                 : jpeg
Duration                                 : 1h 48mn
Bit rate mode                            : Variable
Bit rate                                 : 820 bps
Width                                    : 640 pixels
Height                                   : 266 pixels
Display aspect ratio                     : 2.40:1
Frame rate mode                          : Variable
Frame rate                               : 0.003 fps
Minimum frame rate                       : 0.002 fps
Maximum frame rate                       : 0.005 fps
Color space                              : YUV
Chroma subsampling                       : 4:2:0
Bit depth                                : 8 bits
Compression mode                         : Lossy
Bits/(Pixel*Frame)                       : 1.606
Stream size                              : 667 KiB (0%)
Language                                 : English
Encoded date                             : UTC 2015-05-17 21:30:26
Tagged date                              : UTC 2015-05-17 21:30:27

Audio #1
ID                                       : 2
Format                                   : AAC
Format/Info                              : Advanced Audio Codec
Format profile                           : LC
Codec ID                                 : 40
Duration                                 : 1h 48mn
Bit rate mode                            : Variable
Bit rate                                 : 156 Kbps
Maximum bit rate                         : 257 Kbps
Channel(s)                               : 2 channels
Channel positions                        : Front: L R
Sampling rate                            : 48.0 KHz
Compression mode                         : Lossy
Stream size                              : 121 MiB (2%)
Language                                 : Russian
Encoded date                             : UTC 2015-05-17 21:29:05
Tagged date                              : UTC 2015-05-17 21:29:27

Audio #2
ID                                       : 3
Format                                   : AAC
Format/Info                              : Advanced Audio Codec
Format profile                           : LC
Codec ID                                 : 40
Duration                                 : 1h 48mn
Bit rate mode                            : Variable
Bit rate                                 : 156 Kbps
Maximum bit rate                         : 257 Kbps
Channel(s)                               : 2 channels
Channel positions                        : Front: L R
Sampling rate                            : 48.0 KHz
Compression mode                         : Lossy
Stream size                              : 121 MiB (2%)
Language                                 : English
Encoded date                             : UTC 2015-05-17 21:29:05
Tagged date                              : UTC 2015-05-17 21:30:12

Audio #3
ID                                       : 4
Format                                   : AC-3
Format/Info                              : Audio Coding 3
Mode extension                           : CM (complete main)
Format settings, Endianness              : Big
Codec ID                                 : ac-3
Duration                                 : 1h 48mn
Bit rate mode                            : Constant
Bit rate                                 : 448 Kbps
Channel(s)                               : 6 channels
Channel positions                        : Front: L C R, Side: L R, LFE
Sampling rate                            : 48.0 KHz
Bit depth                                : 16 bits
Compression mode                         : Lossy
Stream size                              : 346 MiB (5%)
Language                                 : Russian
Encoded date                             : UTC 2015-05-17 21:29:05
Tagged date                              : UTC 2015-05-17 21:30:12

Audio #4
ID                                       : 5
Format                                   : AC-3
Format/Info                              : Audio Coding 3
Mode extension                           : CM (complete main)
Format settings, Endianness              : Big
Codec ID                                 : ac-3
Duration                                 : 1h 48mn
Bit rate mode                            : Constant
Bit rate                                 : 640 Kbps
Channel(s)                               : 6 channels
Channel positions                        : Front: L C R, Side: L R, LFE
Sampling rate                            : 48.0 KHz
Bit depth                                : 16 bits
Compression mode                         : Lossy
Stream size                              : 494 MiB (7%)
Language                                 : English
Encoded date                             : UTC 2015-05-17 21:29:05
Tagged date                              : UTC 2015-05-17 21:30:12

Text #1
ID                                       : 6
Format                                   : Timed text
Muxing mode                              : sbtl
Codec ID                                 : tx3g
Duration                                 : 1h 42mn
Bit rate mode                            : Variable
Bit rate                                 : 70 bps
Stream size                              : 53.0 KiB (0%)
Language                                 : Russian
Encoded date                             : UTC 2015-05-17 21:29:05
Tagged date                              : UTC 2015-05-17 21:30:08

Text #2
ID                                       : 7
Format                                   : Timed text
Muxing mode                              : sbtl
Codec ID                                 : tx3g
Duration                                 : 1h 40mn
Bit rate mode                            : Variable
Bit rate                                 : 49 bps
Stream size                              : 36.3 KiB (0%)
Language                                 : English
Encoded date                             : UTC 2015-05-17 21:29:05
Tagged date                              : UTC 2015-05-17 21:30:07

Text #3
ID                                       : 8
Format                                   : Apple text
Codec ID                                 : text
Duration                                 : 1h 48mn
Bit rate mode                            : Variable
Bit rate                                 : 1 bps
Stream size                              : 471 Bytes (0%)
Language                                 : English
Encoded date                             : UTC 2015-05-17 21:30:12
Tagged date                              : UTC 2015-05-17 21:30:12

Menu
00:00:00.000                             : Chapter 1
00:04:34.983                             : Chapter 2
00:11:16.676                             : Chapter 3
00:15:08.199                             : Chapter 4
00:23:38.792                             : Chapter 5
00:31:58.041                             : Chapter 6
00:36:05.205                             : Chapter 7
00:40:26.799                             : Chapter 8
00:45:56.420                             : Chapter 9
00:53:28.372                             : Chapter 10
01:00:26.122                             : Chapter 11
01:04:01.296                             : Chapter 12
01:07:19.118                             : Chapter 13
01:13:21.564                             : Chapter 14
01:16:56.153                             : Chapter 15
01:21:36.558                             : Chapter 16
01:27:36.877                             : Chapter 17
01:32:54.194                             : Chapter 18
01:38:50.216                             : Chapter 19
01:42:26.974                             : Chapter 20
x264 [info]: frame I:999   Avg QP:14.53  size:181892
x264 [info]: frame P:29989 Avg QP:16.76  size: 64934
x264 [info]: frame B:124398 Avg QP:17.88  size: 34924
x264 [info]: consecutive B-frames:  1.1%  0.8%  8.1%  7.8% 12.3% 62.2%  5.0%  0.4%  0.6%  0.4%  0.4%  0.1%  0.2%  0.1%  0.1%  0.1%  0.4%
x264 [info]: mb I  I16..4: 21.7% 66.9% 11.4%
x264 [info]: mb P  I16..4:  3.2%  9.8%  0.7%  P16..4: 45.5% 21.0% 12.9%  0.3%  0.1%    skip: 6.5%
x264 [info]: mb B  I16..4:  1.3%  1.4%  0.1%  B16..8: 37.3% 10.6%  2.6%  direct:12.3%  skip:34.5%  L0:44.1% L1:42.4% BI:13.5%
x264 [info]: 8x8 transform intra:62.1% inter:46.3%
x264 [info]: direct mvs  spatial:98.0% temporal:2.0%
x264 [info]: coded y,uvDC,uvAC intra: 87.7% 91.6% 85.2% inter: 31.6% 47.6% 34.8%
x264 [info]: i16 v,h,dc,p: 15%  8% 49% 28%
x264 [info]: i8 v,h,dc,ddl,ddr,vr,hd,vl,hu: 11%  8% 16%  9% 11% 11% 11% 11% 12%
x264 [info]: i4 v,h,dc,ddl,ddr,vr,hd,vl,hu: 11% 11% 13%  9% 13% 12% 11% 10% 11%
x264 [info]: i8c dc,h,v,p: 64% 12% 11% 13%
x264 [info]: Weighted P-Frames: Y:2.6% UV:1.2%
x264 [info]: ref P L0: 45.5%  6.6% 33.0% 13.7%  1.3%  0.0%
x264 [info]: ref B L0: 76.5% 18.9%  4.6%
x264 [info]: ref B L1: 87.8% 12.2%
x264 [info]: kb/s:7990.90


Релиз подготовлен для просмотра на Apple TV, iPad, iPhone, iPod Touch.
Для просмотра данного релиза на компьютере с ОС Windows рекомендуется использовать VLC media player
 
Не забывайте говорить Спасибо. Не уходите с раздачи!   
Торрент: Зарегистрирован [18 май 2015, 04:26] Для скачивания .torrent
необходима регистрация
Или скачать с помощью
MediaGet
Статус:
Проверен
 
.torrent скачан: 0 раз
Хэш: 4028b238242c112295a7dc1595d27ebdafaa3e1c
Размер: 7.09 ГБ (7 615 864 498 байт)
Стать Автором раздачи
 
Аватара пользователя
 
Раздал: 2.45 ГБ
Скачал: 15.94 МБ
Ратио: 157.696
Сообщения: 337733
Зарегистрирован: 16 янв 2012, 17:03


  • Похожие торренты
    Ответы
    Просмотры
    Последнее сообщение

Вернуться в Видео для устройств Apple

Ресурс не предоставляет электронные версии произведений, а занимается лишь коллекционированием и каталогизацией ссылок, присылаемых и публикуемых на форуме нашими читателями. Если вы являетесь правообладателем какого-либо представленного материала и не желаете чтобы ссылка на него находилась в нашем каталоге, свяжитесь с нами и мы незамедлительно удалим её. Файлы для обмена на трекере предоставлены пользователями сайта, и администрация не несёт ответственности за их содержание. Просьба не заливать файлы, защищенные авторскими правами, а также файлы нелегального содержания!
cron