[MULT] Щенячий патруль / PAW Patrol / Сезон: 2 / Серии: 1-5, 7 из ? (Кейт Чепмэн / Keith Chapman) [2014, мультсериал, детский, семейный, HDTVRip] [MP4, 960x] Dub

 
 Статистика раздачи 
Размер: 1.08 ГБ   |  Зарегистрирован: 16 май 2015, 16:49   |   .torrent скачан: 0 раз
Сидеров: 1  [ 0 байт/сек ]     Личеров: 2  [ 0 байт/сек ]  
  

[MULT] Щенячий патруль / PAW Patrol / Сезон: 2 / Серии: 1-5, 7 из ? (Кейт Чепмэн / Keith Chapman) [2014, мультсериал, детский, семейный, HDTVRip] [MP4, 960x] Dub

Сообщение Satch » 16 май 2015, 16:49

Щенячий патруль
PAW Patrol

Год выпуска: 2014
Страна: США (Nickelodeon Animation Studios)
Жанр: Мультсериал, детский, семейный
Продолжительность: 6 х ~00:23:00
Перевод: Профессиональный (полное дублирование) [SDI Media]
Оригинальная дорожка: Нет
Cубтитры: Нет
Режиссер: Кейт Чепмэн / Keith Chapman
Роли озвучивали: Деван Коэн, Алекс Торн, Кристиан Дистефано, Каллан Холли, Гейдж Манро, Оуэн Мэйсон, Стюарт Ралстон, Тристан Сэмюэл, Дрю Дэвис, Max Calinescu
Описание: Зик Райдер — озорной десятилетний мальчик, талантливый не по годам. Он отлично разбирается в электронике и технике и умело с ней обращается. Его жизнь насыщена и полна бесстрашных приключений. Вместе с шестью веселыми и храбрыми щенятами он создал отважную команду под названием «Щенячий патруль».
Сообща они выполняют спасательные миссии: с удовольствием помогают одинокому котенку, попавшему в беду, или освобождают состав поезда из-под оползня. Любое дело им по плечу. Каждый из щенков команды обладает особым характером и уникальными способностями. Зик и его четвероногие товарищи делают немало благих дел и являются по-настоящему смелыми спасателями.


Качество: HDTVRip (Рип с )
Формат: MP4
Видео кодек: H.264
Аудио кодек: AAC
Видео: 960х540 (16:9), ~1000 Kbps (crf=19), 23.976 fps
Аудио: Русский, 2 ch, 48 kHz, 128 kbps [Dub, SDI Media]
<ol type="1">
Pups Save the Space Alien + Pups Save a Flying Frog
Pups Save the Penguins + Pups Save a Dolphin Pup
Pups Save Jake + Pups Save the Parade
Pups Save the Diving Bell + Pups Save the Beavers
Pups Save a Ghost + Pups Save A Show
The New Pup
</ol>
x264 [info]: frame I:379 Avg QP:14.36 size: 59368
x264 [info]: frame P:10430 Avg QP:18.61 size: 8757
x264 [info]: frame B:22204 Avg QP:23.67 size: 2085

x264 [total]: encoded 33013 frames, 7.60 fps, 930.31 kb/s
General
Complete name : PAW.Patrol.S02.HDTVRip.x264.960x(semen_52-TNC)\01. Pups Save the Space Alien + Pups Save a Flying Frog.HDTVRip.x264.960x(semen_52-TNC).mp4
Format : MPEG-4
Format profile : Base Media
Codec ID : isom
File size : 175 MiB
Duration : 22mn 56s
Overall bit rate mode : Variable
Overall bit rate : 1 066 Kbps
Movie name : 01 Pups Save the Space Alien + Pups Save a Flying Frog HDTVRip x264 960x(semen_52-TNC)
ContentType : Short Film
Encoded date : UTC 2015-05-16 06:50:19
Tagged date : UTC 2015-05-16 06:50:27
Writing application : MkvToMp4 version: 0.224 (x64)
Comment : Rip by semen_52-TNC

Video
ID : 1
Format : AVC
Format/Info : Advanced Video Codec
Format profile :
Format settings, CABAC : Yes
Format settings, ReFrames : 8 frames
Codec ID : avc1
Codec ID/Info : Advanced Video Coding
Duration : 22mn 56s
Bit rate : 930 Kbps
Maximum bit rate : 4 026 Kbps
Width : 960 pixels
Height : 540 pixels
Display aspect ratio : 16:9
Frame rate mode : Constant
Frame rate : 23.976 fps
Color space : YUV
Chroma subsampling : 4:2:0
Bit depth : 8 bits
Scan type : Progressive
Bits/(Pixel*Frame) : 0.075
Stream size : 153 MiB (87%)
Writing library : x264 core 130 r2273 b3065e6
Encoding settings : cabac=1 / ref=8 / deblock=1:1:1 / analyse=0x3:0x113 / me=esa / subme=9 / psy=1 / psy_rd=0.40:0.00 / mixed_ref=1 / me_range=32 / chroma_me=1 / trellis=2 / 8x8dct=1 / cqm=0 / deadzone=21,11 / fast_pskip=0 / chroma_qp_offset=-1 / threads=12 / lookahead_threads=2 / sliced_threads=0 / nr=0 / decimate=1 / interlaced=0 / bluray_compat=0 / constrained_intra=0 / bframes=8 / b_pyramid=2 / b_adapt=2 / b_bias=0 / direct=1 / weightb=1 / open_gop=0 / weightp=2 / keyint=250 / keyint_min=25 / scenecut=40 / intra_refresh=0 / rc_lookahead=60 / rc=crf / mbtree=1 / crf=19.0 / qcomp=0.60 / qpmin=0 / qpmax=69 / qpstep=4 / ip_ratio=1.40 / aq=1:0.60
Language : English
Encoded date : UTC 2015-05-16 06:50:19
Tagged date : UTC 2015-05-16 06:50:23

Audio
ID : 2
Format : AAC
Format/Info : Advanced Audio Codec
Format profile : LC
Codec ID : 40
Duration : 22mn 56s
Bit rate mode : Variable
Bit rate : 128 Kbps
Maximum bit rate : 132 Kbps
Channel(s) : 2 channels
Channel positions : Front: L R
Sampling rate : 48.0 KHz
Compression mode : Lossy
Stream size : 21.0 MiB (12%)
Title : Dub / Dub
Language : Russian
Encoded date : UTC 2015-05-16 06:50:21
Tagged date : UTC 2015-05-16 06:50:23
Внимание! Раздача ведётся путём добавления новых серий; при каждом добавлении создётся новый торрент. Чтобы начать докачку новой серии, пользователям необходимо сделать следующее:
(1) остановить скачивание,
(2) удалить старый торрент у себя из клиента (старые серии удалять не надо),
(3) скачать новый торрент и запустить его у себя в клиенте вместо старого, при этом указать клиенту путь в старую папку куда и должно происходить скачивание новых серий.
Ваш клиент при этом должен произвести хеширование (проверку) старой папки (если не производит сам - помогите ему сделать это), и будет докачивать только те серии которых у вас ещё нет. Старые серии при этом не удаляются, а продолжают раздаваться!
Eсли вы уже удалили старые серии, то предотвратить повторную закачку старых серий можно, отжав галочку в соответсвующих местах при запуске нового торрента. По возможности, желательно не удалять старые серии как можно дольше чтобы релизёр не столько продолжал раздавать старые серии, а смог сконцентрироваться на новых
 
Не забывайте говорить Спасибо. Не уходите с раздачи!   
Торрент: Зарегистрирован [16 май 2015, 16:49] Для скачивания .torrent
необходима регистрация
Или скачать с помощью
MediaGet
Статус:
Проверен
 
.torrent скачан: 0 раз
Хэш: dff7425dbc96de933fd63d258eaae76cf527105a
Размер: 1.08 ГБ (1 160 388 358 байт)
Стать Автором раздачи
 
Аватара пользователя
 
Раздал: 2.45 ГБ
Скачал: 15.94 МБ
Ратио: 157.696
Сообщения: 337733
Зарегистрирован: 16 янв 2012, 17:03


  • Похожие торренты
    Ответы
    Просмотры
    Последнее сообщение

Вернуться в Видео для мобильных устройств

Ресурс не предоставляет электронные версии произведений, а занимается лишь коллекционированием и каталогизацией ссылок, присылаемых и публикуемых на форуме нашими читателями. Если вы являетесь правообладателем какого-либо представленного материала и не желаете чтобы ссылка на него находилась в нашем каталоге, свяжитесь с нами и мы незамедлительно удалим её. Файлы для обмена на трекере предоставлены пользователями сайта, и администрация не несёт ответственности за их содержание. Просьба не заливать файлы, защищенные авторскими правами, а также файлы нелегального содержания!
cron