VA - Весенний марафон № 168 / Видеоклипы (Самые Танцевальные Хиты) (2015) WEBRip [H.264/1080p-LQ]

 
 Статистика раздачи 
Размер: 3.1 ГБ   |  Зарегистрирован: 13 май 2015, 22:21   |   .torrent скачан: 0 раз
Сидеров: 1  [ 0 байт/сек ]     Личеров: 0  [ 0 байт/сек ]  
  

VA - Весенний марафон № 168 / Видеоклипы (Самые Танцевальные Хиты) (2015) WEBRip [H.264/1080p-LQ]

Сообщение Thistoll » 13 май 2015, 22:21

VA - Весенний марафон № 168 / (Самые Танцевальные Хиты) (2015) WEBRip

Год выпуска: 2015
Жанр: Pop, Dance, Latino, Country, House, Soul, Reggaeton
Контейнер: MP4
Кол-во клипов: 25
Продолжительность: 01:32:35

Описание:
Весенние (12.05.2015) поп. новинки зарубежной эстрады. Не пропустите, держите новые треки.

Видеокодек: AVC/H.264
Битрейт видео: 4.869 ~ 4.076 kbps avg, 0.094 - 0.079 bit.pixel
Размер кадра: 1920x1080 (16:9), 25.000 fps
Качество видео: WEBRip
Аудиокодек: AAC 2.0
Битрейт аудио: 113 - 152 Kbps avg
1. 2Cellos - They Don't Care About Us (Michael Jackson) (Official Video) (00:05:04)
2. Alex Hopkins - I Don't Need Your Love (Official Video) (00:04:12)
3. Becky G - Lovin' So Hard (Official Video) (00;04:10)
4. Deeplow - Limelight (Official Video) (00:03:00)
5. Dotter - Dive (Official Video) (00:03:29)
6. Ed Sheeran - Photograph (Official Video) (00:04:34)
7. Elena ft. Danny Mazo - Senor Loco (Official Video) (00:03:24)
8. Geo Da Silva, Jack Mazzoni & Alien Cut - Morena (Official Video) (00:03:12)
9. Horanyi Juli - Electrical (Official Video) (00:03:52)
10. Imani - Wet (Official Video) (00:03:37)
11. Ina Wroldsen - Rebels (Official Video) (00:03:32)
12. INNA ft. Yandel & Marian Hill - Diggy Down (Official Video) (00:03:26)
13. John Rivas - Love Me (Official Video) (00:03:06)
14. Katy Tiz - Whistle (While You Work It) (Official Video) (00:03:59)
15. Kim & Stony - Ta Meilleure Alliee (Official Video) (00:04:24)
16. Loreen - Paper Light Revisited (Official Video) (00:04:17)
17. RaeLynn - For A Boy (Official Video) (00:03:11)
18. Rather Be Dreaming - Margeaux Jordan (Official Video) (00:05:44)
19. Rebecca James - On My Way (Official Video) (00:03:13)
20. Rossi ft. Iamsu - All I Want! (Official Video) (00:03:16)
21. Sam Feldt ft. Kimberly Anne - Show Me Love (Official Video) (00:03:01)
22. So Slow - Leo Aberer (Official Video) (00:04:32)
23. South Royston - Thinking Of You (Official Video) (00:03:39)
24. Stereophonics - C'est La Vie (Official Video) (00:04:47)
25. YorGa feat. Brighi - Every drop (Official Video) (00:03:52)
Код:
Код: Выделить всё
Общее
Полное имя                       : E:\VA - Весенний марафон № 168 (Самые Танцевальные Хиты)\2CELLOS - They Don't Care About Us (Michael Jackson) (Official Video).mp4
Формат                           : MPEG-4
Профиль формата                  : Base Media
Идентификатор кодека             : isom
Размер файла                     : 167 Мбайт
Продолжительность                : 5 м. 4 с.
Общий поток                      : 4601 Кбит/сек
Дата кодирования                 : UTC 2015-04-28 13:32:41
Дата пометки                     : UTC 2015-04-28 13:32:41
Программа кодирования            : Lavf54.63.104

Видео
Идентификатор                    : 1
Формат                           : AVC
Формат/Информация                : Advanced Video Codec
Профиль формата                  :
Параметр CABAC формата           : Да
Параметр ReFrames формата        : 1 кадр
Идентификатор кодека             : avc1
Идентификатор кодека/Информация  : Advanced Video Coding
Продолжительность                : 5 м. 4 с.
Вид битрейта                     : Переменный
Битрейт                          : 4496 Кбит/сек
Ширина                           : 1920 пикс.
Высота                           : 1080 пикс.
Соотношение сторон               : 16:9
Режим частоты кадров             : Постоянный
Частота кадров                   : 25,000 кадр/сек
Цветовое пространство            : YUV
Подвыборка цветности             : 4:2:0
Битовая глубина                  : 8 бит
Тип развёртки                    : Прогрессивная
Бит/(Пиксели*Кадры)              : 0.087
Размер потока                    : 161 Мбайт (97%)
Библиотека кодирования           : x264 core 129
Настройки программы              : cabac=1 / ref=1 / deblock=1:0:0 / analyse=0x1:0x131 / me=dia / subme=2 / psy=1 / psy_rd=1.00:0.00 / mixed_ref=0 / me_range=16 / chroma_me=1 / trellis=0 / 8x8dct=0 / cqm=0 / deadzone=21,11 / fast_pskip=1 / chroma_qp_offset=0 / threads=2 / lookahead_threads=1 / sliced_threads=0 / nr=0 / decimate=1 / interlaced=0 / bluray_compat=0 / constrained_intra=0 / bframes=0 / weightp=2 / keyint=250 / keyint_min=25 / scenecut=40 / intra_refresh=0 / rc_lookahead=40 / rc=abr / mbtree=1 / bitrate=4496 / ratetol=1.0 / qcomp=0.60 / qpmin=10 / qpmax=51 / qpstep=4 / ip_ratio=1.41 / aq=1:1.00
Дата кодирования                 : UTC 2015-04-28 13:32:41
Дата пометки                     : UTC 2015-04-28 13:32:41

Аудио
Идентификатор                    : 2
Формат                           : AAC
Формат/Информация                : Advanced Audio Codec
Профиль формата                  : LC
Идентификатор кодека             : 40
Продолжительность                : 5 м. 4 с.
Вид битрейта                     : Переменный
Битрейт                          : 151 Кбит/сек
Максимальный битрейт             : 176,4 Кбит/сек
Каналы                           : 2 канала
Расположение каналов             : Front: L R
Частота                          : 44,1 КГц
Метод сжатия                     : С потерями
Размер потока                    : 5,49 Мбайт (3%)
Дата кодирования                 : UTC 2015-04-28 13:32:41
Дата пометки                     : UTC 2015-04-28 13:32:41
Общее
Полное имя                       : E:\VA - Весенний марафон № 168 (Самые Танцевальные Хиты)\Alex Hopkins - I Don't Need Your Love (Official Video).mp4
Формат                           : MPEG-4
Профиль формата                  : Base Media
Идентификатор кодека             : isom
Размер файла                     : 140 Мбайт
Продолжительность                : 4 м. 12 с.
Общий поток                      : 4646 Кбит/сек
Дата кодирования                 : UTC 2015-05-06 05:26:34
Дата пометки                     : UTC 2015-05-06 05:26:34
Программа кодирования            : Lavf54.63.104

Видео
Идентификатор                    : 1
Формат                           : AVC
Формат/Информация                : Advanced Video Codec
Профиль формата                  :
Параметр CABAC формата           : Да
Параметр ReFrames формата        : 1 кадр
Идентификатор кодека             : avc1
Идентификатор кодека/Информация  : Advanced Video Coding
Продолжительность                : 4 м. 12 с.
Вид битрейта                     : Переменный
Битрейт                          : 4496 Кбит/сек
Ширина                           : 1920 пикс.
Высота                           : 1080 пикс.
Соотношение сторон               : 16:9
Режим частоты кадров             : Постоянный
Частота кадров                   : 25,000 кадр/сек
Цветовое пространство            : YUV
Подвыборка цветности             : 4:2:0
Битовая глубина                  : 8 бит
Тип развёртки                    : Прогрессивная
Бит/(Пиксели*Кадры)              : 0.087
Размер потока                    : 135 Мбайт (97%)
Библиотека кодирования           : x264 core 129
Настройки программы              : cabac=1 / ref=1 / deblock=1:0:0 / analyse=0x1:0x131 / me=dia / subme=2 / psy=1 / psy_rd=1.00:0.00 / mixed_ref=0 / me_range=16 / chroma_me=1 / trellis=0 / 8x8dct=0 / cqm=0 / deadzone=21,11 / fast_pskip=1 / chroma_qp_offset=0 / threads=2 / lookahead_threads=1 / sliced_threads=0 / nr=0 / decimate=1 / interlaced=0 / bluray_compat=0 / constrained_intra=0 / bframes=0 / weightp=2 / keyint=250 / keyint_min=25 / scenecut=40 / intra_refresh=0 / rc_lookahead=40 / rc=abr / mbtree=1 / bitrate=4496 / ratetol=1.0 / qcomp=0.60 / qpmin=10 / qpmax=51 / qpstep=4 / ip_ratio=1.41 / aq=1:1.00
Дата кодирования                 : UTC 2015-05-06 05:26:34
Дата пометки                     : UTC 2015-05-06 05:26:34

Аудио
Идентификатор                    : 2
Формат                           : AAC
Формат/Информация                : Advanced Audio Codec
Профиль формата                  : LC
Идентификатор кодека             : 40
Продолжительность                : 4 м. 12 с.
Вид битрейта                     : Переменный
Битрейт                          : 149 Кбит/сек
Максимальный битрейт             : 176,4 Кбит/сек
Каналы                           : 2 канала
Расположение каналов             : Front: L R
Частота                          : 44,1 КГц
Метод сжатия                     : С потерями
Размер потока                    : 4,49 Мбайт (3%)
Дата кодирования                 : UTC 2015-05-06 05:26:34
Дата пометки                     : UTC 2015-05-06 05:26:34
Общее
Полное имя                       : E:\VA - Весенний марафон № 168 (Самые Танцевальные Хиты)\Becky G - Lovin' So Hard (Official Video).mp4
Формат                           : MPEG-4
Профиль формата                  : Base Media
Идентификатор кодека             : isom
Размер файла                     : 136 Мбайт
Продолжительность                : 4 м. 10 с.
Общий поток                      : 4575 Кбит/сек
Дата кодирования                 : UTC 2015-05-05 17:08:45
Дата пометки                     : UTC 2015-05-05 17:08:45
Программа кодирования            : Lavf54.63.104

Видео
Идентификатор                    : 1
Формат                           : AVC
Формат/Информация                : Advanced Video Codec
Профиль формата                  :
Параметр CABAC формата           : Да
Параметр ReFrames формата        : 1 кадр
Идентификатор кодека             : avc1
Идентификатор кодека/Информация  : Advanced Video Coding
Продолжительность                : 4 м. 10 с.
Вид битрейта                     : Переменный
Битрейт                          : 4496 Кбит/сек
Ширина                           : 1920 пикс.
Высота                           : 1080 пикс.
Соотношение сторон               : 16:9
Режим частоты кадров             : Постоянный
Частота кадров                   : 25,000 кадр/сек
Цветовое пространство            : YUV
Подвыборка цветности             : 4:2:0
Битовая глубина                  : 8 бит
Тип развёртки                    : Прогрессивная
Бит/(Пиксели*Кадры)              : 0.087
Размер потока                    : 132 Мбайт (97%)
Библиотека кодирования           : x264 core 129
Настройки программы              : cabac=1 / ref=1 / deblock=1:0:0 / analyse=0x1:0x131 / me=dia / subme=2 / psy=1 / psy_rd=1.00:0.00 / mixed_ref=0 / me_range=16 / chroma_me=1 / trellis=0 / 8x8dct=0 / cqm=0 / deadzone=21,11 / fast_pskip=1 / chroma_qp_offset=0 / threads=2 / lookahead_threads=1 / sliced_threads=0 / nr=0 / decimate=1 / interlaced=0 / bluray_compat=0 / constrained_intra=0 / bframes=0 / weightp=2 / keyint=250 / keyint_min=25 / scenecut=40 / intra_refresh=0 / rc_lookahead=40 / rc=abr / mbtree=1 / bitrate=4496 / ratetol=1.0 / qcomp=0.60 / qpmin=10 / qpmax=51 / qpstep=4 / ip_ratio=1.41 / aq=1:1.00
Дата кодирования                 : UTC 2015-05-05 17:08:45
Дата пометки                     : UTC 2015-05-05 17:08:45

Аудио
Идентификатор                    : 2
Формат                           : AAC
Формат/Информация                : Advanced Audio Codec
Профиль формата                  : LC
Идентификатор кодека             : 40
Продолжительность                : 4 м. 10 с.
Вид битрейта                     : Переменный
Битрейт                          : 149 Кбит/сек
Максимальный битрейт             : 176,4 Кбит/сек
Каналы                           : 2 канала
Расположение каналов             : Front: L R
Частота                          : 44,1 КГц
Метод сжатия                     : С потерями
Размер потока                    : 4,43 Мбайт (3%)
Дата кодирования                 : UTC 2015-05-05 17:08:45
Дата пометки                     : UTC 2015-05-05 17:08:45
Общее
Полное имя                       : E:\VA - Весенний марафон № 168 (Самые Танцевальные Хиты)\Deeplow - Limelight (Official Video).mp4
Формат                           : MPEG-4
Профиль формата                  : Base Media
Идентификатор кодека             : isom
Размер файла                     : 106 Мбайт
Продолжительность                : 3 м. 0 с.
Общий поток                      : 4911 Кбит/сек
Дата кодирования                 : UTC 2015-05-06 10:41:38
Дата пометки                     : UTC 2015-05-06 10:41:38
Программа кодирования            : Lavf54.63.104

Видео
Идентификатор                    : 1
Формат                           : AVC
Формат/Информация                : Advanced Video Codec
Профиль формата                  :
Параметр CABAC формата           : Да
Параметр ReFrames формата        : 1 кадр
Идентификатор кодека             : avc1
Идентификатор кодека/Информация  : Advanced Video Coding
Продолжительность                : 3 м. 0 с.
Вид битрейта                     : Переменный
Битрейт                          : 4755 Кбит/сек
Номинальный битрейт              : 4496 Кбит/сек
Ширина                           : 1920 пикс.
Высота                           : 1080 пикс.
Соотношение сторон               : 16:9
Режим частоты кадров             : Постоянный
Частота кадров                   : 25,000 кадр/сек
Цветовое пространство            : YUV
Подвыборка цветности             : 4:2:0
Битовая глубина                  : 8 бит
Тип развёртки                    : Прогрессивная
Бит/(Пиксели*Кадры)              : 0.092
Размер потока                    : 102 Мбайт (97%)
Библиотека кодирования           : x264 core 129
Настройки программы              : cabac=1 / ref=1 / deblock=1:0:0 / analyse=0x1:0x131 / me=dia / subme=2 / psy=1 / psy_rd=1.00:0.00 / mixed_ref=0 / me_range=16 / chroma_me=1 / trellis=0 / 8x8dct=0 / cqm=0 / deadzone=21,11 / fast_pskip=1 / chroma_qp_offset=0 / threads=2 / lookahead_threads=1 / sliced_threads=0 / nr=0 / decimate=1 / interlaced=0 / bluray_compat=0 / constrained_intra=0 / bframes=0 / weightp=2 / keyint=250 / keyint_min=25 / scenecut=40 / intra_refresh=0 / rc_lookahead=40 / rc=abr / mbtree=1 / bitrate=4496 / ratetol=1.0 / qcomp=0.60 / qpmin=10 / qpmax=51 / qpstep=4 / ip_ratio=1.41 / aq=1:1.00
Дата кодирования                 : UTC 2015-05-06 10:41:38
Дата пометки                     : UTC 2015-05-06 10:41:38

Аудио
Идентификатор                    : 2
Формат                           : AAC
Формат/Информация                : Advanced Audio Codec
Профиль формата                  : LC
Идентификатор кодека             : 40
Продолжительность                : 3 м. 0 с.
Вид битрейта                     : Переменный
Битрейт                          : 151 Кбит/сек
Максимальный битрейт             : 176,4 Кбит/сек
Каналы                           : 2 канала
Расположение каналов             : Front: L R
Частота                          : 44,1 КГц
Метод сжатия                     : С потерями
Размер потока                    : 3,25 Мбайт (3%)
Дата кодирования                 : UTC 2015-05-06 10:41:38
Дата пометки                     : UTC 2015-05-06 10:41:38
Общее
Полное имя                       : E:\VA - Весенний марафон № 168 (Самые Танцевальные Хиты)\Dotter - Dive (Official Video).mp4
Формат                           : MPEG-4
Профиль формата                  : Base Media
Идентификатор кодека             : isom
Размер файла                     : 112 Мбайт
Продолжительность                : 3 м. 28 с.
Общий поток                      : 4530 Кбит/сек
Дата кодирования                 : UTC 2015-04-23 12:19:01
Дата пометки                     : UTC 2015-04-23 12:19:01
Программа кодирования            : Lavf54.63.104

Видео
Идентификатор                    : 1
Формат                           : AVC
Формат/Информация                : Advanced Video Codec
Профиль формата                  :
Параметр CABAC формата           : Да
Параметр ReFrames формата        : 1 кадр
Идентификатор кодека             : avc1
Идентификатор кодека/Информация  : Advanced Video Coding
Продолжительность                : 3 м. 28 с.
Вид битрейта                     : Переменный
Битрейт                          : 4496 Кбит/сек
Ширина                           : 1920 пикс.
Высота                           : 1080 пикс.
Соотношение сторон               : 16:9
Режим частоты кадров             : Постоянный
Частота кадров                   : 25,000 кадр/сек
Цветовое пространство            : YUV
Подвыборка цветности             : 4:2:0
Битовая глубина                  : 8 бит
Тип развёртки                    : Прогрессивная
Бит/(Пиксели*Кадры)              : 0.087
Размер потока                    : 109 Мбайт (97%)
Библиотека кодирования           : x264 core 129
Настройки программы              : cabac=1 / ref=1 / deblock=1:0:0 / analyse=0x1:0x131 / me=dia / subme=2 / psy=1 / psy_rd=1.00:0.00 / mixed_ref=0 / me_range=16 / chroma_me=1 / trellis=0 / 8x8dct=0 / cqm=0 / deadzone=21,11 / fast_pskip=1 / chroma_qp_offset=0 / threads=2 / lookahead_threads=1 / sliced_threads=0 / nr=0 / decimate=1 / interlaced=0 / bluray_compat=0 / constrained_intra=0 / bframes=0 / weightp=2 / keyint=250 / keyint_min=25 / scenecut=40 / intra_refresh=0 / rc_lookahead=40 / rc=abr / mbtree=1 / bitrate=4496 / ratetol=1.0 / qcomp=0.60 / qpmin=10 / qpmax=51 / qpstep=4 / ip_ratio=1.41 / aq=1:1.00
Дата кодирования                 : UTC 2015-04-23 12:19:01
Дата пометки                     : UTC 2015-04-23 12:19:01

Аудио
Идентификатор                    : 2
Формат                           : AAC
Формат/Информация                : Advanced Audio Codec
Профиль формата                  : LC
Идентификатор кодека             : 40
Продолжительность                : 3 м. 28 с.
Вид битрейта                     : Переменный
Битрейт                          : 152 Кбит/сек
Максимальный битрейт             : 176,4 Кбит/сек
Каналы                           : 2 канала
Расположение каналов             : Front: L R
Частота                          : 44,1 КГц
Метод сжатия                     : С потерями
Размер потока                    : 3,77 Мбайт (3%)
Дата кодирования                 : UTC 2015-04-23 12:19:01
Дата пометки                     : UTC 2015-04-23 12:19:01
Общее
Полное имя                       : E:\VA - Весенний марафон № 168 (Самые Танцевальные Хиты)\Ed Sheeran - Photograph (Official Video).mp4
Формат                           : MPEG-4
Профиль формата                  : Base Media
Идентификатор кодека             : isom
Размер файла                     : 146 Мбайт
Продолжительность                : 4 м. 34 с.
Общий поток                      : 4477 Кбит/сек
Дата кодирования                 : UTC 2015-05-11 08:58:07
Дата пометки                     : UTC 2015-05-11 08:58:07
Программа кодирования            : Lavf54.63.104

Видео
Идентификатор                    : 1
Формат                           : AVC
Формат/Информация                : Advanced Video Codec
Профиль формата                  :
Параметр CABAC формата           : Да
Параметр ReFrames формата        : 1 кадр
Идентификатор кодека             : avc1
Идентификатор кодека/Информация  : Advanced Video Coding
Продолжительность                : 4 м. 34 с.
Вид битрейта                     : Переменный
Битрейт                          : 4496 Кбит/сек
Ширина                           : 1920 пикс.
Высота                           : 1080 пикс.
Соотношение сторон               : 16:9
Режим частоты кадров             : Постоянный
Частота кадров                   : 25,000 кадр/сек
Цветовое пространство            : YUV
Подвыборка цветности             : 4:2:0
Битовая глубина                  : 8 бит
Тип развёртки                    : Прогрессивная
Бит/(Пиксели*Кадры)              : 0.087
Размер потока                    : 141 Мбайт (97%)
Библиотека кодирования           : x264 core 129
Настройки программы              : cabac=1 / ref=1 / deblock=1:0:0 / analyse=0x1:0x131 / me=dia / subme=2 / psy=1 / psy_rd=1.00:0.00 / mixed_ref=0 / me_range=16 / chroma_me=1 / trellis=0 / 8x8dct=0 / cqm=0 / deadzone=21,11 / fast_pskip=1 / chroma_qp_offset=0 / threads=2 / lookahead_threads=1 / sliced_threads=0 / nr=0 / decimate=1 / interlaced=0 / bluray_compat=0 / constrained_intra=0 / bframes=0 / weightp=2 / keyint=250 / keyint_min=25 / scenecut=40 / intra_refresh=0 / rc_lookahead=40 / rc=abr / mbtree=1 / bitrate=4496 / ratetol=1.0 / qcomp=0.60 / qpmin=10 / qpmax=51 / qpstep=4 / ip_ratio=1.41 / aq=1:1.00
Дата кодирования                 : UTC 2015-05-11 08:58:07
Дата пометки                     : UTC 2015-05-11 08:58:07

Аудио
Идентификатор                    : 2
Формат                           : AAC
Формат/Информация                : Advanced Audio Codec
Профиль формата                  : LC
Идентификатор кодека             : 40
Продолжительность                : 4 м. 34 с.
Вид битрейта                     : Переменный
Битрейт                          : 144 Кбит/сек
Максимальный битрейт             : 176,4 Кбит/сек
Каналы                           : 2 канала
Расположение каналов             : Front: L R
Частота                          : 44,1 КГц
Метод сжатия                     : С потерями
Размер потока                    : 4,74 Мбайт (3%)
Дата кодирования                 : UTC 2015-05-11 08:58:07
Дата пометки                     : UTC 2015-05-11 08:58:07
Общее
Полное имя                       : E:\VA - Весенний марафон № 168 (Самые Танцевальные Хиты)\Elena ft. Danny Mazo - Senor Loco (Official Video).mp4
Формат                           : MPEG-4
Профиль формата                  : Base Media
Идентификатор кодека             : isom
Размер файла                     : 112 Мбайт
Продолжительность                : 3 м. 24 с.
Общий поток                      : 4586 Кбит/сек
Дата кодирования                 : UTC 2015-05-11 08:09:59
Дата пометки                     : UTC 2015-05-11 08:09:59
Программа кодирования            : Lavf54.63.104

Видео
Идентификатор                    : 1
Формат                           : AVC
Формат/Информация                : Advanced Video Codec
Профиль формата                  :
Параметр CABAC формата           : Да
Параметр ReFrames формата        : 1 кадр
Идентификатор кодека             : avc1
Идентификатор кодека/Информация  : Advanced Video Coding
Продолжительность                : 3 м. 24 с.
Вид битрейта                     : Переменный
Битрейт                          : 4496 Кбит/сек
Ширина                           : 1920 пикс.
Высота                           : 1080 пикс.
Соотношение сторон               : 16:9
Режим частоты кадров             : Постоянный
Частота кадров                   : 25,000 кадр/сек
Цветовое пространство            : YUV
Подвыборка цветности             : 4:2:0
Битовая глубина                  : 8 бит
Тип развёртки                    : Прогрессивная
Бит/(Пиксели*Кадры)              : 0.087
Размер потока                    : 108 Мбайт (97%)
Библиотека кодирования           : x264 core 129
Настройки программы              : cabac=1 / ref=1 / deblock=1:0:0 / analyse=0x1:0x131 / me=dia / subme=2 / psy=1 / psy_rd=1.00:0.00 / mixed_ref=0 / me_range=16 / chroma_me=1 / trellis=0 / 8x8dct=0 / cqm=0 / deadzone=21,11 / fast_pskip=1 / chroma_qp_offset=0 / threads=2 / lookahead_threads=1 / sliced_threads=0 / nr=0 / decimate=1 / interlaced=0 / bluray_compat=0 / constrained_intra=0 / bframes=0 / weightp=2 / keyint=250 / keyint_min=25 / scenecut=40 / intra_refresh=0 / rc_lookahead=40 / rc=abr / mbtree=1 / bitrate=4496 / ratetol=1.0 / qcomp=0.60 / qpmin=10 / qpmax=51 / qpstep=4 / ip_ratio=1.41 / aq=1:1.00
Дата кодирования                 : UTC 2015-05-11 08:09:59
Дата пометки                     : UTC 2015-05-11 08:09:59

Аудио
Идентификатор                    : 2
Формат                           : AAC
Формат/Информация                : Advanced Audio Codec
Профиль формата                  : LC
Идентификатор кодека             : 40
Продолжительность                : 3 м. 24 с.
Вид битрейта                     : Переменный
Битрейт                          : 152 Кбит/сек
Максимальный битрейт             : 176,4 Кбит/сек
Каналы                           : 2 канала
Расположение каналов             : Front: L R
Частота                          : 44,1 КГц
Метод сжатия                     : С потерями
Размер потока                    : 3,71 Мбайт (3%)
Дата кодирования                 : UTC 2015-05-11 08:09:59
Дата пометки                     : UTC 2015-05-11 08:09:59
Общее
Полное имя                       : E:\VA - Весенний марафон № 168 (Самые Танцевальные Хиты)\Geo Da Silva, Jack Mazzoni & Alien Cut - Morena (Official Video).mp4
Формат                           : MPEG-4
Профиль формата                  : Base Media
Идентификатор кодека             : isom
Размер файла                     : 105 Мбайт
Продолжительность                : 3 м. 12 с.
Общий поток                      : 4562 Кбит/сек
Дата кодирования                 : UTC 2015-05-08 11:46:30
Дата пометки                     : UTC 2015-05-08 11:46:30
Программа кодирования            : Lavf54.63.104

Видео
Идентификатор                    : 1
Формат                           : AVC
Формат/Информация                : Advanced Video Codec
Профиль формата                  :
Параметр CABAC формата           : Да
Параметр ReFrames формата        : 1 кадр
Идентификатор кодека             : avc1
Идентификатор кодека/Информация  : Advanced Video Coding
Продолжительность                : 3 м. 12 с.
Вид битрейта                     : Переменный
Битрейт                          : 4496 Кбит/сек
Ширина                           : 1920 пикс.
Высота                           : 1080 пикс.
Соотношение сторон               : 16:9
Режим частоты кадров             : Постоянный
Частота кадров                   : 25,000 кадр/сек
Цветовое пространство            : YUV
Подвыборка цветности             : 4:2:0
Битовая глубина                  : 8 бит
Тип развёртки                    : Прогрессивная
Бит/(Пиксели*Кадры)              : 0.087
Размер потока                    : 101 Мбайт (97%)
Библиотека кодирования           : x264 core 129
Настройки программы              : cabac=1 / ref=1 / deblock=1:0:0 / analyse=0x1:0x131 / me=dia / subme=2 / psy=1 / psy_rd=1.00:0.00 / mixed_ref=0 / me_range=16 / chroma_me=1 / trellis=0 / 8x8dct=0 / cqm=0 / deadzone=21,11 / fast_pskip=1 / chroma_qp_offset=0 / threads=2 / lookahead_threads=1 / sliced_threads=0 / nr=0 / decimate=1 / interlaced=0 / bluray_compat=0 / constrained_intra=0 / bframes=0 / weightp=2 / keyint=250 / keyint_min=25 / scenecut=40 / intra_refresh=0 / rc_lookahead=40 / rc=abr / mbtree=1 / bitrate=4496 / ratetol=1.0 / qcomp=0.60 / qpmin=10 / qpmax=51 / qpstep=4 / ip_ratio=1.41 / aq=1:1.00
Дата кодирования                 : UTC 2015-05-08 11:46:30
Дата пометки                     : UTC 2015-05-08 11:46:30

Аудио
Идентификатор                    : 2
Формат                           : AAC
Формат/Информация                : Advanced Audio Codec
Профиль формата                  : LC
Идентификатор кодека             : 40
Продолжительность                : 3 м. 12 с.
Вид битрейта                     : Переменный
Битрейт                          : 152 Кбит/сек
Максимальный битрейт             : 176,4 Кбит/сек
Каналы                           : 2 канала
Расположение каналов             : Front: L R
Частота                          : 44,1 КГц
Метод сжатия                     : С потерями
Размер потока                    : 3,49 Мбайт (3%)
Дата кодирования                 : UTC 2015-05-08 11:46:30
Дата пометки                     : UTC 2015-05-08 11:46:30
Общее
Полное имя                       : E:\VA - Весенний марафон № 168 (Самые Танцевальные Хиты)\Horanyi Juli - Electrical (Official Video).mp4
Формат                           : MPEG-4
Профиль формата                  : Base Media
Идентификатор кодека             : isom
Размер файла                     : 125 Мбайт
Продолжительность                : 3 м. 52 с.
Общий поток                      : 4518 Кбит/сек
Программа кодирования            : Lavf54.63.104

Видео
Идентификатор                    : 1
Формат                           : AVC
Формат/Информация                : Advanced Video Codec
Профиль формата                  :
Параметр CABAC формата           : Да
Параметр ReFrames формата        : 1 кадр
Идентификатор кодека             : avc1
Идентификатор кодека/Информация  : Advanced Video Coding
Продолжительность                : 3 м. 52 с.
Вид битрейта                     : Переменный
Битрейт                          : 4496 Кбит/сек
Ширина                           : 1920 пикс.
Высота                           : 1080 пикс.
Соотношение сторон               : 16:9
Режим частоты кадров             : Постоянный
Частота кадров                   : 25,000 кадр/сек
Цветовое пространство            : YUV
Подвыборка цветности             : 4:2:0
Битовая глубина                  : 8 бит
Тип развёртки                    : Прогрессивная
Бит/(Пиксели*Кадры)              : 0.087
Размер потока                    : 121 Мбайт (97%)
Библиотека кодирования           : x264 core 129
Настройки программы              : cabac=1 / ref=1 / deblock=1:0:0 / analyse=0x1:0x131 / me=dia / subme=2 / psy=1 / psy_rd=1.00:0.00 / mixed_ref=0 / me_range=16 / chroma_me=1 / trellis=0 / 8x8dct=0 / cqm=0 / deadzone=21,11 / fast_pskip=1 / chroma_qp_offset=0 / threads=2 / lookahead_threads=1 / sliced_threads=0 / nr=0 / decimate=1 / interlaced=0 / bluray_compat=0 / constrained_intra=0 / bframes=0 / weightp=2 / keyint=250 / keyint_min=25 / scenecut=40 / intra_refresh=0 / rc_lookahead=40 / rc=abr / mbtree=1 / bitrate=4496 / ratetol=1.0 / qcomp=0.60 / qpmin=10 / qpmax=51 / qpstep=4 / ip_ratio=1.41 / aq=1:1.00

Аудио
Идентификатор                    : 2
Формат                           : AAC
Формат/Информация                : Advanced Audio Codec
Профиль формата                  : LC
Идентификатор кодека             : 40
Продолжительность                : 3 м. 52 с.
Вид битрейта                     : Переменный
Битрейт                          : 144 Кбит/сек
Максимальный битрейт             : 176,4 Кбит/сек
Каналы                           : 2 канала
Расположение каналов             : Front: L R
Частота                          : 44,1 КГц
Метод сжатия                     : С потерями
Размер потока                    : 3,92 Мбайт (3%)
Общее
Полное имя                       : E:\VA - Весенний марафон № 168 (Самые Танцевальные Хиты)\Imani - Wet (Official Video).mp4
Формат                           : MPEG-4
Профиль формата                  : Base Media
Идентификатор кодека             : isom
Размер файла                     : 118 Мбайт
Продолжительность                : 3 м. 37 с.
Общий поток                      : 4566 Кбит/сек
Дата кодирования                 : UTC 2015-05-11 08:46:25
Дата пометки                     : UTC 2015-05-11 08:46:25
Программа кодирования            : Lavf54.63.104

Видео
Идентификатор                    : 1
Формат                           : AVC
Формат/Информация                : Advanced Video Codec
Профиль формата                  :
Параметр CABAC формата           : Да
Параметр ReFrames формата        : 1 кадр
Идентификатор кодека             : avc1
Идентификатор кодека/Информация  : Advanced Video Coding
Продолжительность                : 3 м. 37 с.
Вид битрейта                     : Переменный
Битрейт                          : 4496 Кбит/сек
Ширина                           : 1920 пикс.
Высота                           : 1080 пикс.
Соотношение сторон               : 16:9
Режим частоты кадров             : Постоянный
Частота кадров                   : 25,000 кадр/сек
Цветовое пространство            : YUV
Подвыборка цветности             : 4:2:0
Битовая глубина                  : 8 бит
Тип развёртки                    : Прогрессивная
Бит/(Пиксели*Кадры)              : 0.087
Размер потока                    : 114 Мбайт (97%)
Библиотека кодирования           : x264 core 129
Настройки программы              : cabac=1 / ref=1 / deblock=1:0:0 / analyse=0x1:0x131 / me=dia / subme=2 / psy=1 / psy_rd=1.00:0.00 / mixed_ref=0 / me_range=16 / chroma_me=1 / trellis=0 / 8x8dct=0 / cqm=0 / deadzone=21,11 / fast_pskip=1 / chroma_qp_offset=0 / threads=2 / lookahead_threads=1 / sliced_threads=0 / nr=0 / decimate=1 / interlaced=0 / bluray_compat=0 / constrained_intra=0 / bframes=0 / weightp=2 / keyint=250 / keyint_min=25 / scenecut=40 / intra_refresh=0 / rc_lookahead=40 / rc=abr / mbtree=1 / bitrate=4496 / ratetol=1.0 / qcomp=0.60 / qpmin=10 / qpmax=51 / qpstep=4 / ip_ratio=1.41 / aq=1:1.00
Дата кодирования                 : UTC 2015-05-11 08:46:25
Дата пометки                     : UTC 2015-05-11 08:46:25

Аудио
Идентификатор                    : 2
Формат                           : AAC
Формат/Информация                : Advanced Audio Codec
Профиль формата                  : LC
Идентификатор кодека             : 40
Продолжительность                : 3 м. 37 с.
Вид битрейта                     : Переменный
Битрейт                          : 149 Кбит/сек
Максимальный битрейт             : 176,4 Кбит/сек
Каналы                           : 2 канала
Расположение каналов             : Front: L R
Частота                          : 44,1 КГц
Метод сжатия                     : С потерями
Размер потока                    : 3,86 Мбайт (3%)
Дата кодирования                 : UTC 2015-05-11 08:46:25
Дата пометки                     : UTC 2015-05-11 08:46:25
Общее
Полное имя                       : E:\VA - Весенний марафон № 168 (Самые Танцевальные Хиты)\Ina Wroldsen - Rebels (Official Video).mp4
Формат                           : MPEG-4
Профиль формата                  : Base Media
Идентификатор кодека             : isom
Размер файла                     : 116 Мбайт
Продолжительность                : 3 м. 32 с.
Общий поток                      : 4570 Кбит/сек
Программа кодирования            : Lavf54.63.104

Видео
Идентификатор                    : 1
Формат                           : AVC
Формат/Информация                : Advanced Video Codec
Профиль формата                  :
Параметр CABAC формата           : Да
Параметр ReFrames формата        : 1 кадр
Идентификатор кодека             : avc1
Идентификатор кодека/Информация  : Advanced Video Coding
Продолжительность                : 3 м. 32 с.
Вид битрейта                     : Переменный
Битрейт                          : 4496 Кбит/сек
Ширина                           : 1920 пикс.
Высота                           : 1080 пикс.
Соотношение сторон               : 16:9
Режим частоты кадров             : Постоянный
Частота кадров                   : 25,000 кадр/сек
Цветовое пространство            : YUV
Подвыборка цветности             : 4:2:0
Битовая глубина                  : 8 бит
Тип развёртки                    : Прогрессивная
Бит/(Пиксели*Кадры)              : 0.087
Размер потока                    : 112 Мбайт (97%)
Библиотека кодирования           : x264 core 129
Настройки программы              : cabac=1 / ref=1 / deblock=1:0:0 / analyse=0x1:0x131 / me=dia / subme=2 / psy=1 / psy_rd=1.00:0.00 / mixed_ref=0 / me_range=16 / chroma_me=1 / trellis=0 / 8x8dct=0 / cqm=0 / deadzone=21,11 / fast_pskip=1 / chroma_qp_offset=0 / threads=2 / lookahead_threads=1 / sliced_threads=0 / nr=0 / decimate=1 / interlaced=0 / bluray_compat=0 / constrained_intra=0 / bframes=0 / weightp=2 / keyint=250 / keyint_min=25 / scenecut=40 / intra_refresh=0 / rc_lookahead=40 / rc=abr / mbtree=1 / bitrate=4496 / ratetol=1.0 / qcomp=0.60 / qpmin=10 / qpmax=51 / qpstep=4 / ip_ratio=1.41 / aq=1:1.00

Аудио
Идентификатор                    : 2
Формат                           : AAC
Формат/Информация                : Advanced Audio Codec
Профиль формата                  : LC
Идентификатор кодека             : 40
Продолжительность                : 3 м. 32 с.
Вид битрейта                     : Переменный
Битрейт                          : 150 Кбит/сек
Максимальный битрейт             : 176,4 Кбит/сек
Каналы                           : 2 канала
Расположение каналов             : Front: L R
Частота                          : 44,1 КГц
Метод сжатия                     : С потерями
Размер потока                    : 3,79 Мбайт (3%)
Общее
Полное имя                       : E:\VA - Весенний марафон № 168 (Самые Танцевальные Хиты)\INNA ft. Yandel & Marian Hill - Diggy Down (Official Video).mp4
Формат                           : MPEG-4
Профиль формата                  : Base Media
Идентификатор кодека             : isom
Размер файла                     : 116 Мбайт
Продолжительность                : 3 м. 26 с.
Общий поток                      : 4707 Кбит/сек
Дата кодирования                 : UTC 2015-05-07 07:26:12
Дата пометки                     : UTC 2015-05-07 07:26:12
Программа кодирования            : Lavf54.63.104

Видео
Идентификатор                    : 1
Формат                           : AVC
Формат/Информация                : Advanced Video Codec
Профиль формата                  :
Параметр CABAC формата           : Да
Параметр ReFrames формата        : 1 кадр
Идентификатор кодека             : avc1
Идентификатор кодека/Информация  : Advanced Video Coding
Продолжительность                : 3 м. 26 с.
Вид битрейта                     : Переменный
Битрейт                          : 4496 Кбит/сек
Ширина                           : 1920 пикс.
Высота                           : 1080 пикс.
Соотношение сторон               : 16:9
Режим частоты кадров             : Постоянный
Частота кадров                   : 25,000 кадр/сек
Цветовое пространство            : YUV
Подвыборка цветности             : 4:2:0
Битовая глубина                  : 8 бит
Тип развёртки                    : Прогрессивная
Бит/(Пиксели*Кадры)              : 0.087
Размер потока                    : 112 Мбайт (97%)
Библиотека кодирования           : x264 core 129
Настройки программы              : cabac=1 / ref=1 / deblock=1:0:0 / analyse=0x1:0x131 / me=dia / subme=2 / psy=1 / psy_rd=1.00:0.00 / mixed_ref=0 / me_range=16 / chroma_me=1 / trellis=0 / 8x8dct=0 / cqm=0 / deadzone=21,11 / fast_pskip=1 / chroma_qp_offset=0 / threads=2 / lookahead_threads=1 / sliced_threads=0 / nr=0 / decimate=1 / interlaced=0 / bluray_compat=0 / constrained_intra=0 / bframes=0 / weightp=2 / keyint=250 / keyint_min=25 / scenecut=40 / intra_refresh=0 / rc_lookahead=40 / rc=abr / mbtree=1 / bitrate=4496 / ratetol=1.0 / qcomp=0.60 / qpmin=10 / qpmax=51 / qpstep=4 / ip_ratio=1.41 / aq=1:1.00
Дата кодирования                 : UTC 2015-05-07 07:26:12
Дата пометки                     : UTC 2015-05-07 07:26:12

Аудио
Идентификатор                    : 2
Формат                           : AAC
Формат/Информация                : Advanced Audio Codec
Профиль формата                  : LC
Идентификатор кодека             : 40
Продолжительность                : 3 м. 26 с.
Вид битрейта                     : Переменный
Битрейт                          : 150 Кбит/сек
Максимальный битрейт             : 176,4 Кбит/сек
Каналы                           : 2 канала
Расположение каналов             : Front: L R
Частота                          : 44,1 КГц
Метод сжатия                     : С потерями
Размер потока                    : 3,68 Мбайт (3%)
Дата кодирования                 : UTC 2015-05-07 07:26:12
Дата пометки                     : UTC 2015-05-07 07:26:12
Общее
Полное имя                       : E:\VA - Весенний марафон № 168 (Самые Танцевальные Хиты)\John Rivas - Love Me (Official Video).mp4
Формат                           : MPEG-4
Профиль формата                  : Base Media
Идентификатор кодека             : isom
Размер файла                     : 100 Мбайт
Продолжительность                : 3 м. 6 с.
Общий поток                      : 4500 Кбит/сек
Дата кодирования                 : UTC 2015-05-07 06:44:28
Дата пометки                     : UTC 2015-05-07 06:44:28
Программа кодирования            : Lavf54.63.104

Видео
Идентификатор                    : 1
Формат                           : AVC
Формат/Информация                : Advanced Video Codec
Профиль формата                  :
Параметр CABAC формата           : Да
Параметр ReFrames формата        : 1 кадр
Идентификатор кодека             : avc1
Идентификатор кодека/Информация  : Advanced Video Coding
Продолжительность                : 3 м. 6 с.
Вид битрейта                     : Переменный
Битрейт                          : 4496 Кбит/сек
Ширина                           : 1920 пикс.
Высота                           : 1080 пикс.
Соотношение сторон               : 16:9
Режим частоты кадров             : Постоянный
Частота кадров                   : 25,000 кадр/сек
Цветовое пространство            : YUV
Подвыборка цветности             : 4:2:0
Битовая глубина                  : 8 бит
Тип развёртки                    : Прогрессивная
Бит/(Пиксели*Кадры)              : 0.087
Размер потока                    : 96,7 Мбайт (97%)
Библиотека кодирования           : x264 core 129
Настройки программы              : cabac=1 / ref=1 / deblock=1:0:0 / analyse=0x1:0x131 / me=dia / subme=2 / psy=1 / psy_rd=1.00:0.00 / mixed_ref=0 / me_range=16 / chroma_me=1 / trellis=0 / 8x8dct=0 / cqm=0 / deadzone=21,11 / fast_pskip=1 / chroma_qp_offset=0 / threads=2 / lookahead_threads=1 / sliced_threads=0 / nr=0 / decimate=1 / interlaced=0 / bluray_compat=0 / constrained_intra=0 / bframes=0 / weightp=2 / keyint=250 / keyint_min=25 / scenecut=40 / intra_refresh=0 / rc_lookahead=40 / rc=abr / mbtree=1 / bitrate=4496 / ratetol=1.0 / qcomp=0.60 / qpmin=10 / qpmax=51 / qpstep=4 / ip_ratio=1.41 / aq=1:1.00
Дата кодирования                 : UTC 2015-05-07 06:44:28
Дата пометки                     : UTC 2015-05-07 06:44:28

Аудио
Идентификатор                    : 2
Формат                           : AAC
Формат/Информация                : Advanced Audio Codec
Профиль формата                  : LC
Идентификатор кодека             : 40
Продолжительность                : 3 м. 6 с.
Вид битрейта                     : Переменный
Битрейт                          : 152 Кбит/сек
Максимальный битрейт             : 176,4 Кбит/сек
Каналы                           : 2 канала
Расположение каналов             : Front: L R
Частота                          : 44,1 КГц
Метод сжатия                     : С потерями
Размер потока                    : 3,39 Мбайт (3%)
Дата кодирования                 : UTC 2015-05-07 06:44:28
Дата пометки                     : UTC 2015-05-07 06:44:28
Общее
Полное имя                       : E:\VA - Весенний марафон № 168 (Самые Танцевальные Хиты)\Katy Tiz - Whistle (While You Work It) (Official Video).mp4
Формат                           : MPEG-4
Профиль формата                  : Base Media
Идентификатор кодека             : isom
Размер файла                     : 130 Мбайт
Продолжительность                : 3 м. 58 с.
Общий поток                      : 4549 Кбит/сек
Программа кодирования            : Lavf54.63.104

Видео
Идентификатор                    : 1
Формат                           : AVC
Формат/Информация                : Advanced Video Codec
Профиль формата                  :
Параметр CABAC формата           : Да
Параметр ReFrames формата        : 1 кадр
Идентификатор кодека             : avc1
Идентификатор кодека/Информация  : Advanced Video Coding
Продолжительность                : 3 м. 58 с.
Вид битрейта                     : Переменный
Битрейт                          : 4496 Кбит/сек
Ширина                           : 1920 пикс.
Высота                           : 1080 пикс.
Соотношение сторон               : 16:9
Режим частоты кадров             : Постоянный
Частота кадров                   : 25,000 кадр/сек
Цветовое пространство            : YUV
Подвыборка цветности             : 4:2:0
Битовая глубина                  : 8 бит
Тип развёртки                    : Прогрессивная
Бит/(Пиксели*Кадры)              : 0.087
Размер потока                    : 125 Мбайт (97%)
Библиотека кодирования           : x264 core 129
Настройки программы              : cabac=1 / ref=1 / deblock=1:0:0 / analyse=0x1:0x131 / me=dia / subme=2 / psy=1 / psy_rd=1.00:0.00 / mixed_ref=0 / me_range=16 / chroma_me=1 / trellis=0 / 8x8dct=0 / cqm=0 / deadzone=21,11 / fast_pskip=1 / chroma_qp_offset=0 / threads=2 / lookahead_threads=1 / sliced_threads=0 / nr=0 / decimate=1 / interlaced=0 / bluray_compat=0 / constrained_intra=0 / bframes=0 / weightp=2 / keyint=250 / keyint_min=25 / scenecut=40 / intra_refresh=0 / rc_lookahead=40 / rc=abr / mbtree=1 / bitrate=4496 / ratetol=1.0 / qcomp=0.60 / qpmin=10 / qpmax=51 / qpstep=4 / ip_ratio=1.41 / aq=1:1.00

Аудио
Идентификатор                    : 2
Формат                           : AAC
Формат/Информация                : Advanced Audio Codec
Профиль формата                  : LC
Идентификатор кодека             : 40
Продолжительность                : 3 м. 58 с.
Вид битрейта                     : Переменный
Битрейт                          : 152 Кбит/сек
Максимальный битрейт             : 176,4 Кбит/сек
Каналы                           : 2 канала
Расположение каналов             : Front: L R
Частота                          : 44,1 КГц
Метод сжатия                     : С потерями
Размер потока                    : 4,33 Мбайт (3%)
Общее
Полное имя                       : E:\VA - Весенний марафон № 168 (Самые Танцевальные Хиты)\Kim & Stony - Ta Meilleure Alliee (Official Video).mp4
Формат                           : MPEG-4
Профиль формата                  : Base Media
Идентификатор кодека             : isom
Размер файла                     : 144 Мбайт
Продолжительность                : 4 м. 24 с.
Общий поток                      : 4571 Кбит/сек
Дата кодирования                 : UTC 2015-04-04 05:22:31
Дата пометки                     : UTC 2015-04-04 05:22:31
Программа кодирования            : Lavf54.63.104

Видео
Идентификатор                    : 1
Формат                           : AVC
Формат/Информация                : Advanced Video Codec
Профиль формата                  :
Параметр CABAC формата           : Да
Параметр ReFrames формата        : 1 кадр
Идентификатор кодека             : avc1
Идентификатор кодека/Информация  : Advanced Video Coding
Продолжительность                : 4 м. 24 с.
Вид битрейта                     : Переменный
Битрейт                          : 4496 Кбит/сек
Ширина                           : 1920 пикс.
Высота                           : 1080 пикс.
Соотношение сторон               : 16:9
Режим частоты кадров             : Постоянный
Частота кадров                   : 25,000 кадр/сек
Цветовое пространство            : YUV
Подвыборка цветности             : 4:2:0
Битовая глубина                  : 8 бит
Тип развёртки                    : Прогрессивная
Бит/(Пиксели*Кадры)              : 0.087
Размер потока                    : 139 Мбайт (97%)
Библиотека кодирования           : x264 core 129
Настройки программы              : cabac=1 / ref=1 / deblock=1:0:0 / analyse=0x1:0x131 / me=dia / subme=2 / psy=1 / psy_rd=1.00:0.00 / mixed_ref=0 / me_range=16 / chroma_me=1 / trellis=0 / 8x8dct=0 / cqm=0 / deadzone=21,11 / fast_pskip=1 / chroma_qp_offset=0 / threads=2 / lookahead_threads=1 / sliced_threads=0 / nr=0 / decimate=1 / interlaced=0 / bluray_compat=0 / constrained_intra=0 / bframes=0 / weightp=2 / keyint=250 / keyint_min=25 / scenecut=40 / intra_refresh=0 / rc_lookahead=40 / rc=abr / mbtree=1 / bitrate=4496 / ratetol=1.0 / qcomp=0.60 / qpmin=10 / qpmax=51 / qpstep=4 / ip_ratio=1.41 / aq=1:1.00
Дата кодирования                 : UTC 2015-04-04 05:22:31
Дата пометки                     : UTC 2015-04-04 05:22:31

Аудио
Идентификатор                    : 2
Формат                           : AAC
Формат/Информация                : Advanced Audio Codec
Профиль формата                  : LC
Идентификатор кодека             : 40
Продолжительность                : 4 м. 24 с.
Вид битрейта                     : Переменный
Битрейт                          : 151 Кбит/сек
Максимальный битрейт             : 176,4 Кбит/сек
Каналы                           : 2 канала
Расположение каналов             : Front: L R
Частота                          : 44,1 КГц
Метод сжатия                     : С потерями
Размер потока                    : 4,77 Мбайт (3%)
Дата кодирования                 : UTC 2015-04-04 05:22:31
Дата пометки                     : UTC 2015-04-04 05:22:31
Общее
Полное имя                       : E:\VA - Весенний марафон № 168 (Самые Танцевальные Хиты)\Loreen - Paper Light Revisited (Official Video).mp4
Формат                           : MPEG-4
Профиль формата                  : Base Media
Идентификатор кодека             : isom
Размер файла                     : 136 Мбайт
Продолжительность                : 4 м. 17 с.
Общий поток                      : 4437 Кбит/сек
Дата кодирования                 : UTC 2015-05-07 15:58:37
Дата пометки                     : UTC 2015-05-07 15:58:37
Программа кодирования            : Lavf54.63.104

Видео
Идентификатор                    : 1
Формат                           : AVC
Формат/Информация                : Advanced Video Codec
Профиль формата                  :
Параметр CABAC формата           : Да
Параметр ReFrames формата        : 1 кадр
Идентификатор кодека             : avc1
Идентификатор кодека/Информация  : Advanced Video Coding
Продолжительность                : 4 м. 17 с.
Вид битрейта                     : Переменный
Битрейт                          : 4496 Кбит/сек
Ширина                           : 1920 пикс.
Высота                           : 1080 пикс.
Соотношение сторон               : 16:9
Режим частоты кадров             : Постоянный
Частота кадров                   : 25,000 кадр/сек
Цветовое пространство            : YUV
Подвыборка цветности             : 4:2:0
Битовая глубина                  : 8 бит
Тип развёртки                    : Прогрессивная
Бит/(Пиксели*Кадры)              : 0.087
Размер потока                    : 131 Мбайт (97%)
Библиотека кодирования           : x264 core 129
Настройки программы              : cabac=1 / ref=1 / deblock=1:0:0 / analyse=0x1:0x131 / me=dia / subme=2 / psy=1 / psy_rd=1.00:0.00 / mixed_ref=0 / me_range=16 / chroma_me=1 / trellis=0 / 8x8dct=0 / cqm=0 / deadzone=21,11 / fast_pskip=1 / chroma_qp_offset=0 / threads=2 / lookahead_threads=1 / sliced_threads=0 / nr=0 / decimate=1 / interlaced=0 / bluray_compat=0 / constrained_intra=0 / bframes=0 / weightp=2 / keyint=250 / keyint_min=25 / scenecut=40 / intra_refresh=0 / rc_lookahead=40 / rc=abr / mbtree=1 / bitrate=4496 / ratetol=1.0 / qcomp=0.60 / qpmin=10 / qpmax=51 / qpstep=4 / ip_ratio=1.41 / aq=1:1.00
Дата кодирования                 : UTC 2015-05-07 15:58:37
Дата пометки                     : UTC 2015-05-07 15:58:37

Аудио
Идентификатор                    : 2
Формат                           : AAC
Формат/Информация                : Advanced Audio Codec
Профиль формата                  : LC
Идентификатор кодека             : 40
Продолжительность                : 4 м. 16 с.
Вид битрейта                     : Переменный
Битрейт                          : 150 Кбит/сек
Максимальный битрейт             : 176,4 Кбит/сек
Каналы                           : 2 канала
Расположение каналов             : Front: L R
Частота                          : 44,1 КГц
Метод сжатия                     : С потерями
Размер потока                    : 4,59 Мбайт (3%)
Дата кодирования                 : UTC 2015-05-07 15:58:37
Дата пометки                     : UTC 2015-05-07 15:58:37
Общее
Полное имя                       : E:\VA - Весенний марафон № 168 (Самые Танцевальные Хиты)\RaeLynn - For A Boy (Official Video).mp4
Формат                           : MPEG-4
Профиль формата                  : Base Media
Идентификатор кодека             : isom
Размер файла                     : 97,8 Мбайт
Продолжительность                : 3 м. 11 с.
Общий поток                      : 4297 Кбит/сек
Дата кодирования                 : UTC 2015-05-07 16:21:30
Дата пометки                     : UTC 2015-05-07 16:21:30
Программа кодирования            : Lavf54.63.104

Видео
Идентификатор                    : 1
Формат                           : AVC
Формат/Информация                : Advanced Video Codec
Профиль формата                  :
Параметр CABAC формата           : Да
Параметр ReFrames формата        : 1 кадр
Идентификатор кодека             : avc1
Идентификатор кодека/Информация  : Advanced Video Coding
Продолжительность                : 3 м. 11 с.
Вид битрейта                     : Переменный
Битрейт                          : 4148 Кбит/сек
Номинальный битрейт              : 4496 Кбит/сек
Ширина                           : 1920 пикс.
Высота                           : 1080 пикс.
Соотношение сторон               : 16:9
Режим частоты кадров             : Постоянный
Частота кадров                   : 25,000 кадр/сек
Цветовое пространство            : YUV
Подвыборка цветности             : 4:2:0
Битовая глубина                  : 8 бит
Тип развёртки                    : Прогрессивная
Бит/(Пиксели*Кадры)              : 0.080
Размер потока                    : 94,4 Мбайт (97%)
Библиотека кодирования           : x264 core 129
Настройки программы              : cabac=1 / ref=1 / deblock=1:0:0 / analyse=0x1:0x131 / me=dia / subme=2 / psy=1 / psy_rd=1.00:0.00 / mixed_ref=0 / me_range=16 / chroma_me=1 / trellis=0 / 8x8dct=0 / cqm=0 / deadzone=21,11 / fast_pskip=1 / chroma_qp_offset=0 / threads=2 / lookahead_threads=1 / sliced_threads=0 / nr=0 / decimate=1 / interlaced=0 / bluray_compat=0 / constrained_intra=0 / bframes=0 / weightp=2 / keyint=250 / keyint_min=25 / scenecut=40 / intra_refresh=0 / rc_lookahead=40 / rc=abr / mbtree=1 / bitrate=4496 / ratetol=1.0 / qcomp=0.60 / qpmin=10 / qpmax=51 / qpstep=4 / ip_ratio=1.41 / aq=1:1.00
Дата кодирования                 : UTC 2015-05-07 16:21:30
Дата пометки                     : UTC 2015-05-07 16:21:30

Аудио
Идентификатор                    : 2
Формат                           : AAC
Формат/Информация                : Advanced Audio Codec
Профиль формата                  : LC
Идентификатор кодека             : 40
Продолжительность                : 3 м. 10 с.
Вид битрейта                     : Переменный
Битрейт                          : 144 Кбит/сек
Максимальный битрейт             : 176,4 Кбит/сек
Каналы                           : 2 канала
Расположение каналов             : Front: L R
Частота                          : 44,1 КГц
Метод сжатия                     : С потерями
Размер потока                    : 3,28 Мбайт (3%)
Дата кодирования                 : UTC 2015-05-07 16:21:30
Дата пометки                     : UTC 2015-05-07 16:21:30
Общее
Полное имя                       : E:\VA - Весенний марафон № 168 (Самые Танцевальные Хиты)\Rather Be Dreaming - Margeaux Jordan (Official Video).mp4
Формат                           : MPEG-4
Профиль формата                  : Base Media
Идентификатор кодека             : isom
Размер файла                     : 174 Мбайт
Продолжительность                : 5 м. 44 с.
Общий поток                      : 4232 Кбит/сек
Дата кодирования                 : UTC 2015-05-10 11:22:05
Дата пометки                     : UTC 2015-05-10 11:22:05
Программа кодирования            : Lavf54.63.104

Видео
Идентификатор                    : 1
Формат                           : AVC
Формат/Информация                : Advanced Video Codec
Профиль формата                  :
Параметр CABAC формата           : Да
Параметр ReFrames формата        : 1 кадр
Идентификатор кодека             : avc1
Идентификатор кодека/Информация  : Advanced Video Coding
Продолжительность                : 5 м. 44 с.
Вид битрейта                     : Переменный
Битрейт                          : 4076 Кбит/сек
Номинальный битрейт              : 4496 Кбит/сек
Ширина                           : 1920 пикс.
Высота                           : 1080 пикс.
Соотношение сторон               : 16:9
Режим частоты кадров             : Постоянный
Частота кадров                   : 25,000 кадр/сек
Цветовое пространство            : YUV
Подвыборка цветности             : 4:2:0
Битовая глубина                  : 8 бит
Тип развёртки                    : Прогрессивная
Бит/(Пиксели*Кадры)              : 0.079
Размер потока                    : 167 Мбайт (96%)
Библиотека кодирования           : x264 core 129
Настройки программы              : cabac=1 / ref=1 / deblock=1:0:0 / analyse=0x1:0x131 / me=dia / subme=2 / psy=1 / psy_rd=1.00:0.00 / mixed_ref=0 / me_range=16 / chroma_me=1 / trellis=0 / 8x8dct=0 / cqm=0 / deadzone=21,11 / fast_pskip=1 / chroma_qp_offset=0 / threads=2 / lookahead_threads=1 / sliced_threads=0 / nr=0 / decimate=1 / interlaced=0 / bluray_compat=0 / constrained_intra=0 / bframes=0 / weightp=2 / keyint=250 / keyint_min=25 / scenecut=40 / intra_refresh=0 / rc_lookahead=40 / rc=abr / mbtree=1 / bitrate=4496 / ratetol=1.0 / qcomp=0.60 / qpmin=10 / qpmax=51 / qpstep=4 / ip_ratio=1.41 / aq=1:1.00
Дата кодирования                 : UTC 2015-05-10 11:22:05
Дата пометки                     : UTC 2015-05-10 11:22:05

Аудио
Идентификатор                    : 2
Формат                           : AAC
Формат/Информация                : Advanced Audio Codec
Профиль формата                  : LC
Идентификатор кодека             : 40
Продолжительность                : 5 м. 44 с.
Вид битрейта                     : Переменный
Битрейт                          : 151 Кбит/сек
Максимальный битрейт             : 176,4 Кбит/сек
Каналы                           : 2 канала
Расположение каналов             : Front: L R
Частота                          : 44,1 КГц
Метод сжатия                     : С потерями
Размер потока                    : 6,20 Мбайт (4%)
Дата кодирования                 : UTC 2015-05-10 11:22:05
Дата пометки                     : UTC 2015-05-10 11:22:05
Общее
Полное имя                       : E:\VA - Весенний марафон № 168 (Самые Танцевальные Хиты)\Rebecca James - On My Way (Official Video).mp4
Формат                           : MPEG-4
Профиль формата                  : Base Media
Идентификатор кодека             : isom
Размер файла                     : 108 Мбайт
Продолжительность                : 3 м. 13 с.
Общий поток                      : 4699 Кбит/сек
Дата кодирования                 : UTC 2015-05-06 15:55:48
Дата пометки                     : UTC 2015-05-06 15:55:48
Программа кодирования            : Lavf54.63.104

Видео
Идентификатор                    : 1
Формат                           : AVC
Формат/Информация                : Advanced Video Codec
Профиль формата                  :
Параметр CABAC формата           : Да
Параметр ReFrames формата        : 1 кадр
Идентификатор кодека             : avc1
Идентификатор кодека/Информация  : Advanced Video Coding
Продолжительность                : 3 м. 13 с.
Вид битрейта                     : Переменный
Битрейт                          : 4496 Кбит/сек
Ширина                           : 1920 пикс.
Высота                           : 1080 пикс.
Соотношение сторон               : 16:9
Режим частоты кадров             : Постоянный
Частота кадров                   : 25,000 кадр/сек
Цветовое пространство            : YUV
Подвыборка цветности             : 4:2:0
Битовая глубина                  : 8 бит
Тип развёртки                    : Прогрессивная
Бит/(Пиксели*Кадры)              : 0.087
Размер потока                    : 105 Мбайт (97%)
Библиотека кодирования           : x264 core 129
Настройки программы              : cabac=1 / ref=1 / deblock=1:0:0 / analyse=0x1:0x131 / me=dia / subme=2 / psy=1 / psy_rd=1.00:0.00 / mixed_ref=0 / me_range=16 / chroma_me=1 / trellis=0 / 8x8dct=0 / cqm=0 / deadzone=21,11 / fast_pskip=1 / chroma_qp_offset=0 / threads=2 / lookahead_threads=1 / sliced_threads=0 / nr=0 / decimate=1 / interlaced=0 / bluray_compat=0 / constrained_intra=0 / bframes=0 / weightp=2 / keyint=250 / keyint_min=25 / scenecut=40 / intra_refresh=0 / rc_lookahead=40 / rc=abr / mbtree=1 / bitrate=4496 / ratetol=1.0 / qcomp=0.60 / qpmin=10 / qpmax=51 / qpstep=4 / ip_ratio=1.41 / aq=1:1.00
Дата кодирования                 : UTC 2015-05-06 15:55:48
Дата пометки                     : UTC 2015-05-06 15:55:48

Аудио
Идентификатор                    : 2
Формат                           : AAC
Формат/Информация                : Advanced Audio Codec
Профиль формата                  : LC
Идентификатор кодека             : 40
Продолжительность                : 3 м. 13 с.
Вид битрейта                     : Переменный
Битрейт                          : 149 Кбит/сек
Максимальный битрейт             : 176,4 Кбит/сек
Каналы                           : 2 канала
Расположение каналов             : Front: L R
Частота                          : 44,1 КГц
Метод сжатия                     : С потерями
Размер потока                    : 3,43 Мбайт (3%)
Дата кодирования                 : UTC 2015-05-06 15:55:48
Дата пометки                     : UTC 2015-05-06 15:55:48
Общее
Полное имя                       : E:\VA - Весенний марафон № 168 (Самые Танцевальные Хиты)\Rossi ft. Iamsu - All I Want! (Official Video).mp4
Формат                           : MPEG-4
Профиль формата                  : Base Media
Идентификатор кодека             : isom
Размер файла                     : 108 Мбайт
Продолжительность                : 3 м. 16 с.
Общий поток                      : 4625 Кбит/сек
Дата кодирования                 : UTC 2015-04-09 21:22:56
Дата пометки                     : UTC 2015-04-09 21:22:56
Программа кодирования            : Lavf54.63.104

Видео
Идентификатор                    : 1
Формат                           : AVC
Формат/Информация                : Advanced Video Codec
Профиль формата                  :
Параметр CABAC формата           : Да
Параметр ReFrames формата        : 1 кадр
Идентификатор кодека             : avc1
Идентификатор кодека/Информация  : Advanced Video Coding
Продолжительность                : 3 м. 16 с.
Вид битрейта                     : Переменный
Битрейт                          : 4496 Кбит/сек
Ширина                           : 1920 пикс.
Высота                           : 1080 пикс.
Соотношение сторон               : 16:9
Режим частоты кадров             : Постоянный
Частота кадров                   : 25,000 кадр/сек
Цветовое пространство            : YUV
Подвыборка цветности             : 4:2:0
Битовая глубина                  : 8 бит
Тип развёртки                    : Прогрессивная
Бит/(Пиксели*Кадры)              : 0.087
Размер потока                    : 105 Мбайт (97%)
Библиотека кодирования           : x264 core 129
Настройки программы              : cabac=1 / ref=1 / deblock=1:0:0 / analyse=0x1:0x131 / me=dia / subme=2 / psy=1 / psy_rd=1.00:0.00 / mixed_ref=0 / me_range=16 / chroma_me=1 / trellis=0 / 8x8dct=0 / cqm=0 / deadzone=21,11 / fast_pskip=1 / chroma_qp_offset=0 / threads=2 / lookahead_threads=1 / sliced_threads=0 / nr=0 / decimate=1 / interlaced=0 / bluray_compat=0 / constrained_intra=0 / bframes=0 / weightp=2 / keyint=250 / keyint_min=25 / scenecut=40 / intra_refresh=0 / rc_lookahead=40 / rc=abr / mbtree=1 / bitrate=4496 / ratetol=1.0 / qcomp=0.60 / qpmin=10 / qpmax=51 / qpstep=4 / ip_ratio=1.41 / aq=1:1.00
Дата кодирования                 : UTC 2015-04-09 21:22:56
Дата пометки                     : UTC 2015-04-09 21:22:56

Аудио
Идентификатор                    : 2
Формат                           : AAC
Формат/Информация                : Advanced Audio Codec
Профиль формата                  : LC
Идентификатор кодека             : 40
Продолжительность                : 3 м. 16 с.
Вид битрейта                     : Переменный
Битрейт                          : 150 Кбит/сек
Максимальный битрейт             : 176,4 Кбит/сек
Каналы                           : 2 канала
Расположение каналов             : Front: L R
Частота                          : 44,1 КГц
Метод сжатия                     : С потерями
Размер потока                    : 3,50 Мбайт (3%)
Дата кодирования                 : UTC 2015-04-09 21:22:56
Дата пометки                     : UTC 2015-04-09 21:22:56
Общее
Полное имя                       : E:\VA - Весенний марафон № 168 (Самые Танцевальные Хиты)\Sam Feldt ft. Kimberly Anne - Show Me Love (Official Video).mp4
Формат                           : MPEG-4
Профиль формата                  : Base Media
Идентификатор кодека             : isom
Размер файла                     : 97,9 Мбайт
Продолжительность                : 3 м. 1 с.
Общий поток                      : 4536 Кбит/сек
Дата кодирования                 : UTC 2015-05-08 08:02:38
Дата пометки                     : UTC 2015-05-08 08:02:38
Программа кодирования            : Lavf54.63.104

Видео
Идентификатор                    : 1
Формат                           : AVC
Формат/Информация                : Advanced Video Codec
Профиль формата                  :
Параметр CABAC формата           : Да
Параметр ReFrames формата        : 1 кадр
Идентификатор кодека             : avc1
Идентификатор кодека/Информация  : Advanced Video Coding
Продолжительность                : 3 м. 1 с.
Вид битрейта                     : Переменный
Битрейт                          : 4496 Кбит/сек
Ширина                           : 1920 пикс.
Высота                           : 1080 пикс.
Соотношение сторон               : 16:9
Режим частоты кадров             : Постоянный
Частота кадров                   : 25,000 кадр/сек
Цветовое пространство            : YUV
Подвыборка цветности             : 4:2:0
Битовая глубина                  : 8 бит
Тип развёртки                    : Прогрессивная
Бит/(Пиксели*Кадры)              : 0.087
Размер потока                    : 94,6 Мбайт (97%)
Библиотека кодирования           : x264 core 129
Настройки программы              : cabac=1 / ref=1 / deblock=1:0:0 / analyse=0x1:0x131 / me=dia / subme=2 / psy=1 / psy_rd=1.00:0.00 / mixed_ref=0 / me_range=16 / chroma_me=1 / trellis=0 / 8x8dct=0 / cqm=0 / deadzone=21,11 / fast_pskip=1 / chroma_qp_offset=0 / threads=2 / lookahead_threads=1 / sliced_threads=0 / nr=0 / decimate=1 / interlaced=0 / bluray_compat=0 / constrained_intra=0 / bframes=0 / weightp=2 / keyint=250 / keyint_min=25 / scenecut=40 / intra_refresh=0 / rc_lookahead=40 / rc=abr / mbtree=1 / bitrate=4496 / ratetol=1.0 / qcomp=0.60 / qpmin=10 / qpmax=51 / qpstep=4 / ip_ratio=1.41 / aq=1:1.00
Дата кодирования                 : UTC 2015-05-08 08:02:38
Дата пометки                     : UTC 2015-05-08 08:02:38

Аудио
Идентификатор                    : 2
Формат                           : AAC
Формат/Информация                : Advanced Audio Codec
Профиль формата                  : LC
Идентификатор кодека             : 40
Продолжительность                : 3 м. 1 с.
Вид битрейта                     : Переменный
Битрейт                          : 151 Кбит/сек
Максимальный битрейт             : 176,4 Кбит/сек
Каналы                           : 2 канала
Расположение каналов             : Front: L R
Частота                          : 44,1 КГц
Метод сжатия                     : С потерями
Размер потока                    : 3,27 Мбайт (3%)
Дата кодирования                 : UTC 2015-05-08 08:02:38
Дата пометки                     : UTC 2015-05-08 08:02:38
Общее
Полное имя                       : E:\VA - Весенний марафон № 168 (Самые Танцевальные Хиты)\So Slow - Leo Aberer (Official Video).mp4
Формат                           : MPEG-4
Профиль формата                  : Base Media
Идентификатор кодека             : isom
Размер файла                     : 149 Мбайт
Продолжительность                : 4 м. 32 с.
Общий поток                      : 4596 Кбит/сек
Дата кодирования                 : UTC 2015-05-10 06:07:18
Дата пометки                     : UTC 2015-05-10 06:07:18
Программа кодирования            : Lavf54.63.104

Видео
Идентификатор                    : 1
Формат                           : AVC
Формат/Информация                : Advanced Video Codec
Профиль формата                  :
Параметр CABAC формата           : Да
Параметр ReFrames формата        : 1 кадр
Идентификатор кодека             : avc1
Идентификатор кодека/Информация  : Advanced Video Coding
Продолжительность                : 4 м. 32 с.
Вид битрейта                     : Переменный
Битрейт                          : 4496 Кбит/сек
Ширина                           : 1920 пикс.
Высота                           : 1080 пикс.
Соотношение сторон               : 16:9
Режим частоты кадров             : Постоянный
Частота кадров                   : 25,000 кадр/сек
Цветовое пространство            : YUV
Подвыборка цветности             : 4:2:0
Битовая глубина                  : 8 бит
Тип развёртки                    : Прогрессивная
Бит/(Пиксели*Кадры)              : 0.087
Размер потока                    : 144 Мбайт (97%)
Библиотека кодирования           : x264 core 129
Настройки программы              : cabac=1 / ref=1 / deblock=1:0:0 / analyse=0x1:0x131 / me=dia / subme=2 / psy=1 / psy_rd=1.00:0.00 / mixed_ref=0 / me_range=16 / chroma_me=1 / trellis=0 / 8x8dct=0 / cqm=0 / deadzone=21,11 / fast_pskip=1 / chroma_qp_offset=0 / threads=2 / lookahead_threads=1 / sliced_threads=0 / nr=0 / decimate=1 / interlaced=0 / bluray_compat=0 / constrained_intra=0 / bframes=0 / weightp=2 / keyint=250 / keyint_min=25 / scenecut=40 / intra_refresh=0 / rc_lookahead=40 / rc=abr / mbtree=1 / bitrate=4496 / ratetol=1.0 / qcomp=0.60 / qpmin=10 / qpmax=51 / qpstep=4 / ip_ratio=1.41 / aq=1:1.00
Дата кодирования                 : UTC 2015-05-10 06:07:18
Дата пометки                     : UTC 2015-05-10 06:07:18

Аудио
Идентификатор                    : 2
Формат                           : AAC
Формат/Информация                : Advanced Audio Codec
Профиль формата                  : LC
Идентификатор кодека             : 40
Продолжительность                : 4 м. 32 с.
Вид битрейта                     : Переменный
Битрейт                          : 144 Кбит/сек
Максимальный битрейт             : 176,4 Кбит/сек
Каналы                           : 2 канала
Расположение каналов             : Front: L R
Частота                          : 44,1 КГц
Метод сжатия                     : С потерями
Размер потока                    : 4,70 Мбайт (3%)
Дата кодирования                 : UTC 2015-05-10 06:07:18
Дата пометки                     : UTC 2015-05-10 06:07:18
Общее
Полное имя                       : E:\VA - Весенний марафон № 168 (Самые Танцевальные Хиты)\South Royston - Thinking Of You (Official Video).mp4
Формат                           : MPEG-4
Профиль формата                  : Base Media
Идентификатор кодека             : isom
Размер файла                     : 124 Мбайт
Продолжительность                : 3 м. 39 с.
Общий поток                      : 4746 Кбит/сек
Дата кодирования                 : UTC 2015-05-08 12:59:30
Дата пометки                     : UTC 2015-05-08 12:59:30
Программа кодирования            : Lavf54.63.104

Видео
Идентификатор                    : 1
Формат                           : AVC
Формат/Информация                : Advanced Video Codec
Профиль формата                  :
Параметр CABAC формата           : Да
Параметр ReFrames формата        : 1 кадр
Идентификатор кодека             : avc1
Идентификатор кодека/Информация  : Advanced Video Coding
Продолжительность                : 3 м. 39 с.
Вид битрейта                     : Переменный
Битрейт                          : 4496 Кбит/сек
Ширина                           : 1920 пикс.
Высота                           : 1080 пикс.
Соотношение сторон               : 16:9
Режим частоты кадров             : Постоянный
Частота кадров                   : 25,000 кадр/сек
Цветовое пространство            : YUV
Подвыборка цветности             : 4:2:0
Битовая глубина                  : 8 бит
Тип развёртки                    : Прогрессивная
Бит/(Пиксели*Кадры)              : 0.087
Размер потока                    : 121 Мбайт (98%)
Библиотека кодирования           : x264 core 129
Настройки программы              : cabac=1 / ref=1 / deblock=1:0:0 / analyse=0x1:0x131 / me=dia / subme=2 / psy=1 / psy_rd=1.00:0.00 / mixed_ref=0 / me_range=16 / chroma_me=1 / trellis=0 / 8x8dct=0 / cqm=0 / deadzone=21,11 / fast_pskip=1 / chroma_qp_offset=0 / threads=2 / lookahead_threads=1 / sliced_threads=0 / nr=0 / decimate=1 / interlaced=0 / bluray_compat=0 / constrained_intra=0 / bframes=0 / weightp=2 / keyint=250 / keyint_min=25 / scenecut=40 / intra_refresh=0 / rc_lookahead=40 / rc=abr / mbtree=1 / bitrate=4496 / ratetol=1.0 / qcomp=0.60 / qpmin=10 / qpmax=51 / qpstep=4 / ip_ratio=1.41 / aq=1:1.00
Дата кодирования                 : UTC 2015-05-08 12:59:30
Дата пометки                     : UTC 2015-05-08 12:59:30

Аудио
Идентификатор                    : 2
Формат                           : AAC
Формат/Информация                : Advanced Audio Codec
Профиль формата                  : LC
Идентификатор кодека             : 40
Продолжительность                : 3 м. 39 с.
Вид битрейта                     : Переменный
Битрейт                          : 113 Кбит/сек
Максимальный битрейт             : 176,4 Кбит/сек
Каналы                           : 2 канала
Расположение каналов             : Front: L R
Частота                          : 44,1 КГц
Метод сжатия                     : С потерями
Размер потока                    : 2,96 Мбайт (2%)
Дата кодирования                 : UTC 2015-05-08 12:59:30
Дата пометки                     : UTC 2015-05-08 12:59:30
Общее
Полное имя                       : E:\VA - Весенний марафон № 168 (Самые Танцевальные Хиты)\Stereophonics - C'est La Vie (Official Video).mp4
Формат                           : MPEG-4
Профиль формата                  : Base Media
Идентификатор кодека             : isom
Размер файла                     : 169 Мбайт
Продолжительность                : 4 м. 47 с.
Общий поток                      : 4937 Кбит/сек
Дата кодирования                 : UTC 2015-05-06 09:27:16
Дата пометки                     : UTC 2015-05-06 09:27:16
Программа кодирования            : Lavf54.63.104

Видео
Идентификатор                    : 1
Формат                           : AVC
Формат/Информация                : Advanced Video Codec
Профиль формата                  :
Параметр CABAC формата           : Да
Параметр ReFrames формата        : 1 кадр
Идентификатор кодека             : avc1
Идентификатор кодека/Информация  : Advanced Video Coding
Продолжительность                : 4 м. 47 с.
Вид битрейта                     : Переменный
Битрейт                          : 4780 Кбит/сек
Номинальный битрейт              : 4496 Кбит/сек
Ширина                           : 1920 пикс.
Высота                           : 1080 пикс.
Соотношение сторон               : 16:9
Режим частоты кадров             : Постоянный
Частота кадров                   : 25,000 кадр/сек
Цветовое пространство            : YUV
Подвыборка цветности             : 4:2:0
Битовая глубина                  : 8 бит
Тип развёртки                    : Прогрессивная
Бит/(Пиксели*Кадры)              : 0.092
Размер потока                    : 164 Мбайт (97%)
Библиотека кодирования           : x264 core 129
Настройки программы              : cabac=1 / ref=1 / deblock=1:0:0 / analyse=0x1:0x131 / me=dia / subme=2 / psy=1 / psy_rd=1.00:0.00 / mixed_ref=0 / me_range=16 / chroma_me=1 / trellis=0 / 8x8dct=0 / cqm=0 / deadzone=21,11 / fast_pskip=1 / chroma_qp_offset=0 / threads=2 / lookahead_threads=1 / sliced_threads=0 / nr=0 / decimate=1 / interlaced=0 / bluray_compat=0 / constrained_intra=0 / bframes=0 / weightp=2 / keyint=250 / keyint_min=25 / scenecut=40 / intra_refresh=0 / rc_lookahead=40 / rc=abr / mbtree=1 / bitrate=4496 / ratetol=1.0 / qcomp=0.60 / qpmin=10 / qpmax=51 / qpstep=4 / ip_ratio=1.41 / aq=1:1.00
Дата кодирования                 : UTC 2015-05-06 09:27:16
Дата пометки                     : UTC 2015-05-06 09:27:16

Аудио
Идентификатор                    : 2
Формат                           : AAC
Формат/Информация                : Advanced Audio Codec
Профиль формата                  : LC
Идентификатор кодека             : 40
Продолжительность                : 4 м. 47 с.
Вид битрейта                     : Переменный
Битрейт                          : 152 Кбит/сек
Максимальный битрейт             : 176,4 Кбит/сек
Каналы                           : 2 канала
Расположение каналов             : Front: L R
Частота                          : 44,1 КГц
Метод сжатия                     : С потерями
Размер потока                    : 5,20 Мбайт (3%)
Дата кодирования                 : UTC 2015-05-06 09:27:16
Дата пометки                     : UTC 2015-05-06 09:27:16
Общее
Полное имя                       : E:\VA - Весенний марафон № 168 (Самые Танцевальные Хиты)\YorGa feat. Brighi - Every drop (Official Video).mp4
Формат                           : MPEG-4
Профиль формата                  : Base Media
Идентификатор кодека             : isom
Размер файла                     : 139 Мбайт
Продолжительность                : 3 м. 52 с.
Общий поток                      : 5014 Кбит/сек
Программа кодирования            : Lavf54.63.104

Видео
Идентификатор                    : 1
Формат                           : AVC
Формат/Информация                : Advanced Video Codec
Профиль формата                  :
Параметр CABAC формата           : Да
Параметр ReFrames формата        : 1 кадр
Идентификатор кодека             : avc1
Идентификатор кодека/Информация  : Advanced Video Coding
Продолжительность                : 3 м. 52 с.
Вид битрейта                     : Переменный
Битрейт                          : 4869 Кбит/сек
Номинальный битрейт              : 4496 Кбит/сек
Ширина                           : 1920 пикс.
Высота                           : 1080 пикс.
Соотношение сторон               : 16:9
Режим частоты кадров             : Постоянный
Частота кадров                   : 25,000 кадр/сек
Цветовое пространство            : YUV
Подвыборка цветности             : 4:2:0
Битовая глубина                  : 8 бит
Тип развёртки                    : Прогрессивная
Бит/(Пиксели*Кадры)              : 0.094
Размер потока                    : 135 Мбайт (97%)
Библиотека кодирования           : x264 core 129
Настройки программы              : cabac=1 / ref=1 / deblock=1:0:0 / analyse=0x1:0x131 / me=dia / subme=2 / psy=1 / psy_rd=1.00:0.00 / mixed_ref=0 / me_range=16 / chroma_me=1 / trellis=0 / 8x8dct=0 / cqm=0 / deadzone=21,11 / fast_pskip=1 / chroma_qp_offset=0 / threads=2 / lookahead_threads=1 / sliced_threads=0 / nr=0 / decimate=1 / interlaced=0 / bluray_compat=0 / constrained_intra=0 / bframes=0 / weightp=2 / keyint=250 / keyint_min=25 / scenecut=40 / intra_refresh=0 / rc_lookahead=40 / rc=abr / mbtree=1 / bitrate=4496 / ratetol=1.0 / qcomp=0.60 / qpmin=10 / qpmax=51 / qpstep=4 / ip_ratio=1.41 / aq=1:1.00

Аудио
Идентификатор                    : 2
Формат                           : AAC
Формат/Информация                : Advanced Audio Codec
Профиль формата                  : LC
Идентификатор кодека             : 40
Продолжительность                : 3 м. 52 с.
Вид битрейта                     : Переменный
Битрейт                          : 139 Кбит/сек
Максимальный битрейт             : 176,4 Кбит/сек
Каналы                           : 2 канала
Расположение каналов             : Front: L R
Частота                          : 44,1 КГц
Метод сжатия                     : С потерями
Размер потока                    : 3,86 Мбайт (3%)

Скриншоты:


Хорошего настроения

Время раздачи:
24/7 - до 5 скачавших, далее по возможности.
 
Не забывайте говорить Спасибо. Не уходите с раздачи!   
Торрент: Зарегистрирован [13 май 2015, 22:21] Скачать торрент
Скачать торрент
[ Размер 18.39 КБ / Просмотров 8 ]
Статус:
Проверен
 
.torrent скачан: 0 раз
Хэш: b79fd3736c04a919b79c89cb8e0a495dc99076e4
Размер: 3.1 ГБ (3 331 144 113 байт)
Стать Автором раздачи
 
 
Раздал: 6.67 ГБ
Скачал: 302.5 МБ
Ратио: 22.576
Сообщения: 374198
Зарегистрирован: 17 апр 2014, 11:05


  • Похожие торренты
    Ответы
    Просмотры
    Последнее сообщение

Вернуться в Музыкальные клипы (транзит)

Ресурс не предоставляет электронные версии произведений, а занимается лишь коллекционированием и каталогизацией ссылок, присылаемых и публикуемых на форуме нашими читателями. Если вы являетесь правообладателем какого-либо представленного материала и не желаете чтобы ссылка на него находилась в нашем каталоге, свяжитесь с нами и мы незамедлительно удалим её. Файлы для обмена на трекере предоставлены пользователями сайта, и администрация не несёт ответственности за их содержание. Просьба не заливать файлы, защищенные авторскими правами, а также файлы нелегального содержания!
cron