Amaranthe / Amaranthe - The Nexus (2013) HDTVRip [H.264/1080p]

 
 Статистика раздачи 
Размер: 152.69 МБ   |  Зарегистрирован: 09 май 2015, 17:43   |   .torrent скачан: 0 раз
Сидеров: 1  [ 0 байт/сек ]     Личеров: 0  [ 0 байт/сек ]  
  

Amaranthe / Amaranthe - The Nexus (2013) HDTVRip [H.264/1080p]

Сообщение Thistoll » 09 май 2015, 17:43

Amaranthe / Amaranthe - The Nexus (2013) HDTVRip

Исполнитель: Amaranthe
Год выпуска: 2013
Производство: Revolver Film Company
Жанр: Melodic Death, Modern Metal
Продолжительность: 00:04:26
Режиссер: Patric Ullaeus

Описание:
13 марта 2013 года на Spinefarm Records вышел 2 полноформатный альбом под названием "The Nexus". На одноимённый альбому трек был снят видеоклип.

Качество видео: HDTVRip [1080p]
Видеокодек: MPEG-4 AVC/H.264
Битрейт видео: ~4604 kbps
Размер кадра: 1920х1080
Аудиокодек: AC3 2.0
Битрейт аудио: 192 kbps VBR
Код:
Код: Выделить всё
General
Complete name                  : E:\Amaranthe-The Nexus\Amaranthe-TheNexus.mp4
Format                         : MPEG-4
Format profile                 : Base Media / Version 2
Codec ID                       : mp42
File size                      : 153 MiB
Duration                       : 4mn 26s
Overall bit rate mode          : Variable
Overall bit rate               : 4 798 Kbps
Encoded date                   : UTC 2013-01-22 15:19:38
Tagged date                    : UTC 2013-01-22 15:19:38
gsst                           : 0
gstd                           : 267075
gssd                           : B6D696DC6HH1363152800941562
gshh                           : r3---sn-ovgq0oxu-5goe.c.youtube.com

Video
ID                             : 1
Format                         : AVC
Format/Info                    : Advanced Video Codec
Format profile                 :
Format settings, CABAC         : Yes
Format settings, ReFrames      : 1 frame
Codec ID                       : avc1
Codec ID/Info                  : Advanced Video Coding
Duration                       : 4mn 26s
Bit rate                       : 4 604 Kbps
Maximum bit rate               : 10.6 Mbps
Width                          : 1 920 pixels
Height                         : 1 080 pixels
Display aspect ratio           : 16:9
Frame rate mode                : Constant
Frame rate                     : 25.000 fps
Color space                    : YUV
Chroma subsampling             : 4:2:0
Bit depth                      : 8 bits
Scan type                      : Progressive
Bits/(Pixel*Frame)             : 0.089
Stream size                    : 146 MiB (96%)
Tagged date                    : UTC 2013-01-22 15:19:39

Audio
ID                             : 2
Format                         : AAC
Format/Info                    : Advanced Audio Codec
Format profile                 : LC
Codec ID                       : 40
Duration                       : 4mn 26s
Bit rate mode                  : Variable
Bit rate                       : 192 Kbps
Maximum bit rate               : 202 Kbps
Channel(s)                     : 2 channels
Channel positions              : Front: L R
Sampling rate                  : 44.1 KHz
Compression mode               : Lossy
Stream size                    : 6.11 MiB (4%)
Title                          : IsoMedia File Produced by Google, 5-11-2011
Encoded date                   : UTC 2013-01-22 15:19:39
Tagged date                    : UTC 2013-01-22 15:19:39

Скриншоты:



Время раздачи: По возможности
 
Не забывайте говорить Спасибо. Не уходите с раздачи!   
Торрент: Зарегистрирован [09 май 2015, 17:43] Скачать торрент
Скачать торрент
[ Размер 12.67 КБ / Просмотров 6 ]
Статус:
Проверен
 
.torrent скачан: 0 раз
Хэш: a9e5ab1eed74a54d0cee8c4151b7de0bca069bd1
Размер: 152.69 МБ (160 102 275 байт)
Стать Автором раздачи
 
 
Раздал: 6.67 ГБ
Скачал: 302.5 МБ
Ратио: 22.576
Сообщения: 374198
Зарегистрирован: 17 апр 2014, 11:05


  • Похожие торренты
    Ответы
    Просмотры
    Последнее сообщение

Вернуться в Музыкальные клипы (транзит)

Ресурс не предоставляет электронные версии произведений, а занимается лишь коллекционированием и каталогизацией ссылок, присылаемых и публикуемых на форуме нашими читателями. Если вы являетесь правообладателем какого-либо представленного материала и не желаете чтобы ссылка на него находилась в нашем каталоге, свяжитесь с нами и мы незамедлительно удалим её. Файлы для обмена на трекере предоставлены пользователями сайта, и администрация не несёт ответственности за их содержание. Просьба не заливать файлы, защищенные авторскими правами, а также файлы нелегального содержания!
cron