Вечность / Forever (2014) WEB-DLRip [H.264] (Сезон 1, серии 1-22 из 22) AlexFilm [MP4|720x400]

 
 Статистика раздачи 
Размер: 12.29 ГБ   |  Зарегистрирован: 09 май 2015, 17:10   |   .torrent скачан: 0 раз
Сидеров: 1  [ 0 байт/сек ]     Личеров: 0  [ 0 байт/сек ]  
  

Вечность / Forever (2014) WEB-DLRip [H.264] (Сезон 1, серии 1-22 из 22) AlexFilm [MP4|720x400]

Сообщение Thistoll » 09 май 2015, 17:10

Вечность / Forever (2014) WEB-DLRip [H.264] (Сезон 1, серии 1-22 из 22) AlexFilm
«Who says you only live once?»

Производство: США
Жанр: Фантастика, Драма

Режиссер: Джейс Александр, Брэд Андерсон, Зетна Фуэнтес
Актеры: Йоан Гриффит, Алана де ла Гарса, Джоэль Мур, Донни Кешаварц, Джадд Хёрш, Лоррейн Туссен, Адриан Пасдар, Кристофер Джеймс Каллен, Маккензи Мози, Шэмика Коттон и др.

Описание:
У доктора Генри Моргана (Йоан Гриффит), нью-йоркского судмедэксперта экстра-класса, есть секрет. Он изучает мертвых людей не только для того, чтобы раскрывать самые сложные уголовные дела, — Генри пытается понять причину собственного бессмертия. Он живет на Земле уже более двухсот лет и после каждой своей гибели перерождается заново, в воде. Очередное «воскрешение» приводит героя к знакомству с детективом полиции Джо Мартинез (Алана Де Ла Гарза). В паре с Джо ему предстоит поработать на благо родного города и, быть может, приблизиться к ответу на главный вопрос в своей жизни...

Сэмпл

Продолжительность: ~ 00:44:00 серия
Качество видео: WEB-DLRip
Перевод: Многоголосый закадровый, профессиональный - AlexFilm
Автор перевода: Константин Кривоногов, Леонид Дмитриев
Озвучка: Евгения Тихонова, Михаил Суслов, Владимир Курдов, Сергей Пономарёв
Монтаж и сведение звука: Сергей Мартынов

Видео: AVC/H.264 (Main@L3.0), 720x400 (16:9), ~1536 Кбит/сек
Аудио #1: AAC, 2 канала, 160 Кбит/сек - русский (многоголосый закадровый, AlexFilm)
Аудио #2: AAC, 2 канала, 160 Кбит/сек - английский (оригинальный)
Код:
Код: Выделить всё
Полное имя                               : M:\Forever_s1_WEB-DLRip_x264_AlexFilm_[NNM-CLUB]\Forever.s01e01.WEB-DLRip.x264.Rus.Eng.AlexFilm.mp4
Формат                                   : MPEG-4
Профиль формата                          : Base Media
Идентификатор кодека                     : isom
Размер файла                             : 576 Мбайт
Продолжительность                        : 43 м.
Общий поток                              : 1864 Кбит/сек
Название фильма                          : Forever 1x01 Pilot
Правообладатель                          : NoNaMe-Club
Title/Sort                               : Forever 1x01 Pilot

Видео
Идентификатор                            : 1
Формат                                   : AVC
Формат/Информация                        : Advanced Video Codec
Профиль формата                          :
Параметр CABAC формата                   : Нет
Параметр ReFrames формата                : 3 кадра
Идентификатор кодека                     : avc1
Идентификатор кодека/Информация          : Advanced Video Coding
Продолжительность                        : 43 м.
Битрейт                                  : 1536 Кбит/сек
Ширина                                   : 720 пикселей
Высота                                   : 400 пикселей
Соотношение сторон                       : 16:9
Соотношение сторон в оригинале           : 16:9
Режим частоты кадров                     : Постоянный
Частота кадров                           : 23,976 кадра/сек
Цветовое пространство                    : YUV
Субдискретизация насыщенности            : 4:2:0
Битовая глубина                          : 8 бит
Тип развёртки                            : Прогрессивная
Бит/(Пиксели*Кадры)                      : 0.222
Размер потока                            : 475 Мбайт (82%)
Библиотека кодирования                   : x264 core 146 r2538M 121396c
Настройки программы                      : cabac=0 / ref=3 / deblock=1:0:0 / analyse=0x1:0x131 / me=hex / subme=7 / psy=1 / psy_rd=1,00:0,20 / mixed_ref=1 / me_range=16 / chroma_me=1 / trellis=1 / 8x8dct=0 / cqm=0 / deadzone=21,11 / fast_pskip=1 / chroma_qp_offset=-3 / threads=8 / lookahead_threads=1 / sliced_threads=0 / nr=0 / decimate=1 / interlaced=0 / bluray_compat=0 / constrained_intra=0 / bframes=0 / weightp=2 / keyint=230 / keyint_min=23 / scenecut=0 / intra_refresh=0 / rc_lookahead=230 / rc=2pass / mbtree=1 / bitrate=1536 / ratetol=1,0 / qcomp=0,60 / qpmin=10 / qpmax=51 / qpstep=4 / cplxblur=20,0 / qblur=0,5 / ip_ratio=1,40 / aq=1:1,00
Язык                                     : English
Основные цвета                           : BT.709
Характеристики трансфера                 : BT.709
Коэффициенты матрицы                     : BT.709

Аудио #1
Идентификатор                            : 2
Формат                                   : AAC
Формат/Информация                        : Advanced Audio Codec
Профиль формата                          : LC
Идентификатор кодека                     : 40
Продолжительность                        : 43 м.
Вид битрейта                             : Постоянный
Битрейт                                  : 160 Кбит/сек
Каналы                                   : 2 канала
Расположение каналов                     : Front: L R
Частота                                  : 48,0 КГц
Метод сжатия                             : С потерями
Размер потока                            : 49,5 Мбайт (9%)
Заголовок                                : AlexFilm
Язык                                     : Russian

Аудио #2
Идентификатор                            : 3
Формат                                   : AAC
Формат/Информация                        : Advanced Audio Codec
Профиль формата                          : LC
Идентификатор кодека                     : 40
Продолжительность                        : 43 м.
Вид битрейта                             : Постоянный
Битрейт                                  : 160 Кбит/сек
Каналы                                   : 2 канала
Расположение каналов                     : Front: L R
Частота                                  : 48,0 КГц
Метод сжатия                             : С потерями
Размер потока                            : 49,5 Мбайт (9%)
Заголовок                                : Original
Язык                                     : English
01 - Пилот / Pilot
02 - Не зная броду, не прыгай в воду / Look Before You Leap
03 - Источник молодости / Fountain of Youth
04 - Искусство убивать / The Art of Murder
05 - Перелом боксера / The Pugilist Break
06 - Самое противное в маньяках / The Frustrating Thing About Psychopaths
07 - Дети Нью-Йорка / New York Kids
08 - Радость муки / The Ecstasy of Agony
09 - «Шесть утра» / 6 A.M.
10 - Человек в костюме киллера / The Man in the Killer Suit
11 - Голый купальщик / Skinny Dipper
12 - Волки дремучего Бруклина / The Wolves of Deep Brooklyn
13 - Бриллианты навсегда / Diamonds Are Forever
14 - Гитлер в разрезе / Hitler on the Half-Shell
15 - Король с площади Колумба / The King of Columbus Circle
16 - Воспоминания об убийстве / Memories of Murder
17 - Социальная инженерия / Social Engineering
18 - У мертвецов длинные языки / Dead Men Tell Long Tales
19 - Панк-рок мёртв / Punk Is Dead
20 - Из кожи вон / Best Foot Forward
21 - Та самая ночь / The Night in Question
22 - Последняя смерть Генри Моргана / The Last Death of Henry Morgan

Скриншоты:




Время раздачи:
24/7 - круглосуточно
(до первых 5-ти сидов - потом по возможности)
 
Не забывайте говорить Спасибо. Не уходите с раздачи!   
Торрент: Зарегистрирован [09 май 2015, 17:10] Для скачивания .torrent
необходима регистрация
Или скачать с помощью
MediaGet
Статус:
Проверен
 
.torrent скачан: 0 раз
Хэш: 08623ef38fcaa6ecf629fce65063cda47970ccf2
Размер: 12.29 ГБ (13 194 379 936 байт)
Стать Автором раздачи
 
 
Раздал: 6.67 ГБ
Скачал: 302.5 МБ
Ратио: 22.576
Сообщения: 374198
Зарегистрирован: 17 апр 2014, 11:05


  • Похожие торренты
    Ответы
    Просмотры
    Последнее сообщение

Вернуться в Видео для мобильных устройств

Ресурс не предоставляет электронные версии произведений, а занимается лишь коллекционированием и каталогизацией ссылок, присылаемых и публикуемых на форуме нашими читателями. Если вы являетесь правообладателем какого-либо представленного материала и не желаете чтобы ссылка на него находилась в нашем каталоге, свяжитесь с нами и мы незамедлительно удалим её. Файлы для обмена на трекере предоставлены пользователями сайта, и администрация не несёт ответственности за их содержание. Просьба не заливать файлы, защищенные авторскими правами, а также файлы нелегального содержания!
cron