Склифосовский (2013) HDTVRip [H.264] (сезон 2, серии 1-24 из 24) [3GP|320x176]

 
 Статистика раздачи 
Размер: 3.6 ГБ   |  Зарегистрирован: 07 май 2015, 14:45   |   .torrent скачан: 0 раз
Сидеров: 1  [ 0 байт/сек ]     Личеров: 0  [ 0 байт/сек ]  
  

Склифосовский (2013) HDTVRip [H.264] (сезон 2, серии 1-24 из 24) [3GP|320x176]

Сообщение Thistoll » 07 май 2015, 14:45

Склифосовский / (сезон 2, серии 1-24 из 24) (2013)

Жанр: Драма, Мелодрама

Режиссер: Андрей Селиванов, Юлия Краснова
Актеры: Максим Аверин, Ольга Красько, Мария Кожевникова, Дмитрий Миллер, Евгений Галушко, Ольга Павловец, Екатерина Травова, Антон Эльдаров, Алёна Яковлева, Эммануил Виторган, Владимир Жеребцов, Лаура Кеосаян, Андриана Садковская, Александр Сетейкин, Руслан Ягудин, Анна Якунина, Игорь Петрусенко, Денис Давыдов, Серафима Низовская, Анна Кудасова, Юлия Маргулис, Кристина Кучеренко, Ольга Торощина, Андрей Бестужев (Погорельцев), Максим Щёголев, Дмитрий Арбенин, Игорь Мещерин, Владимир Довжик, Марина Могилевская, Андрей Москвичев, Константин Юшкевич, Дарья Егорова, Илья Ловкий, Леонид Тележинский, Виталий Герасимов, Владимир Демидов, Александр Дзюба, Всеволод Макаров, Марина Богатова, Алина Волощук, Ирина Сенотова, Виктор Полторацкий

Описание:
Продолжение истории о напряженных буднях врачей легендарного Института скорой помощи имени Склифосовского. Сразу после появления в эфире телесериал "Склифосовский" обрел народную славу и любовь. Небывалый успех картины вдохновил авторов на создание продолжения. Каждый день врачам НИИ Склифосовского приходится принимать решения, от которых зависит жизнь человека. Здесь нет плановых больных, долгих совещаний и времени на подготовку к операциям. Действовать нужно быстро, ведь каждая минута промедления может стоить пациенту жизни. Рядовые будни врачей "Склифа" - настоящий калейдоскоп жизни: работа на пределе возможностей, сложные взаимоотношения и захватывающие любовные переживания. Для героев каждый новый день - очередное поле битвы за чужую жизнь и собственное счастье. И на этом пути их ждет еще множество испытаний...

[imdb][url=http://www.imdb.com/title/tt3781262/?ref_=fn_al_tt_2[/imdb]]http://www.imdb.com/title/tt3781262/?ref_=fn_al_tt_2[/imdb][/url]

Продолжительность: Каждая серия х ~ 00:45:00
Качество видео: HDTVRip

Видеокодек: AVC/H.264
Битрейт видео: ~350 Kbps
Размер кадра: 320x176
Аудиокодек: AAC, 2.0
Битрейт аудио: 128 Kbps
Код:
Код: Выделить всё
General
Complete name                       : F:\Torrents\320_Sklif_2s\Sklif-2.(01.seriya.iz.24).3gp
Format                              : MPEG-4
Format profile                      : 3GPP Media Release 6 Basic
Codec ID                            : 3gp6
File size                           : 149 MiB
Duration                            : 43mn 30s
Overall bit rate mode               : Variable
Overall bit rate                    : 480 Kbps
Encoded date                        : UTC 2015-05-06 08:53:21
Tagged date                         : UTC 2015-05-06 08:53:21

Video
ID                                  : 1
Format                              : AVC
Format/Info                         : Advanced Video Codec
Format profile                      :
Format settings, CABAC              : No
Format settings, ReFrames           : 6 frames
Codec ID                            : avc1
Codec ID/Info                       : Advanced Video Coding
Duration                            : 43mn 30s
Bit rate                            : 350 Kbps
Maximum bit rate                    : 1 185 Kbps
Width                               : 320 pixels
Height                              : 176 pixels
Display aspect ratio                : 16:9
Frame rate mode                     : Constant
Frame rate                          : 25.000 fps
Color space                         : YUV
Chroma subsampling                  : 4:2:0
Bit depth                           : 8 bits
Scan type                           : Progressive
Bits/(Pixel*Frame)                  : 0.249
Stream size                         : 109 MiB (73%)
Writing library                     : x264 core 130 r2273 b3065e6
Encoding settings                   : cabac=0 / ref=6 / deblock=1:-2:-1 / analyse=0x1:0x131 / me=umh / subme=6 / psy=1 / psy_rd=1.00:0.00 / mixed_ref=1 / me_range=16 / chroma_me=1 / trellis=0 / 8x8dct=0 / cqm=0 / deadzone=21,11 / fast_pskip=1 / chroma_qp_offset=-2 / threads=3 / lookahead_threads=1 / sliced_threads=0 / nr=0 / decimate=1 / interlaced=0 / bluray_compat=0 / constrained_intra=0 / bframes=0 / weightp=0 / keyint=250 / keyint_min=25 / scenecut=40 / intra_refresh=0 / rc_lookahead=40 / rc=2pass / mbtree=1 / bitrate=350 / ratetol=1.0 / qcomp=0.60 / qpmin=0 / qpmax=69 / qpstep=4 / cplxblur=20.0 / qblur=0.5 / ip_ratio=1.40 / aq=1:1.00
Encoded date                        : UTC 2015-05-06 08:53:21
Tagged date                         : UTC 2015-05-06 08:53:24

Audio
ID                                  : 2
Format                              : AAC
Format/Info                         : Advanced Audio Codec
Format profile                      : LC
Codec ID                            : 40
Duration                            : 43mn 30s
Bit rate mode                       : Variable
Bit rate                            : 128 Kbps
Maximum bit rate                    : 153 Kbps
Channel(s)                          : 2 channels
Channel positions                   : Front: L R
Sampling rate                       : 48.0 KHz
Compression mode                    : Lossy
Stream size                         : 39.8 MiB (27%)
Encoded date                        : UTC 2015-05-06 08:53:23
Tagged date                         : UTC 2015-05-06 08:53:24

Скриншоты:



Время раздачи: Пн-Пт с 10:00 до 17:00
 
Не забывайте говорить Спасибо. Не уходите с раздачи!   
Торрент: Зарегистрирован [07 май 2015, 14:45] Для скачивания .torrent
необходима регистрация
Или скачать с помощью
MediaGet
Статус:
Проверен
 
.torrent скачан: 0 раз
Хэш: 68befb82e64f456ac3ed9d3d11683ba306067f16
Размер: 3.6 ГБ (3 865 596 131 байт)
Стать Автором раздачи
 
 
Раздал: 6.67 ГБ
Скачал: 302.5 МБ
Ратио: 22.576
Сообщения: 374198
Зарегистрирован: 17 апр 2014, 11:05


  • Похожие торренты
    Ответы
    Просмотры
    Последнее сообщение

Вернуться в Видео для мобильных устройств

Ресурс не предоставляет электронные версии произведений, а занимается лишь коллекционированием и каталогизацией ссылок, присылаемых и публикуемых на форуме нашими читателями. Если вы являетесь правообладателем какого-либо представленного материала и не желаете чтобы ссылка на него находилась в нашем каталоге, свяжитесь с нами и мы незамедлительно удалим её. Файлы для обмена на трекере предоставлены пользователями сайта, и администрация не несёт ответственности за их содержание. Просьба не заливать файлы, защищенные авторскими правами, а также файлы нелегального содержания!
cron