Риддик. Коллекция / Riddick. Full collection (2000-2013) HDRip [H.264] [MP4|960х400] (Director's Cut)

 
 Статистика раздачи 
Размер: 4.42 ГБ   |  Зарегистрирован: 06 май 2015, 23:59   |   .torrent скачан: 0 раз
Сидеров: 1  [ 0 байт/сек ]     Личеров: 0  [ 0 байт/сек ]  
  

Риддик. Коллекция / Riddick. Full collection (2000-2013) HDRip [H.264] [MP4|960х400] (Director's Cut)

Сообщение Thistoll » 06 май 2015, 23:59

Риддик. Трилогия / Riddick. Trilogy (2000-2013) HDRip

Производство: США
Жанр: Фантастика, Боевик, Триллер

Режиссер: Дэвид Туи
Актеры: Вин Дизель, Рада Митчелл, Коул Хаузер, Кит Дэвид, Льюис Фиц-Джералд, Клаудия Блэк, Риана Гриффит, Джон Мур, Саймон Бурк, Лес Чэнтери и другие

Описание:
Риддик-фурианец по происхождению. Он предугадывает любой шаг противника и выходит из любого боя практически невредимым.

Продолжительность: 01:51:55, 02:14:06, 02:06:51
Качество видео: HDRip
Перевод: Дублированный

Видео: AVC/H.264, ~1432 Kbps, 960х400
Аудио #1: AAC, 2 ch, ~128 Kbps, (русский) дублированный
Аудио #2: AAC, 2 ch, ~128 Kbps, (английский) оригинальный
Скриншоты:



Время раздачи: 24/7 до трёх скачавших
Хроники Риддика / The Chronicles of Riddick (2000) HDRip

[imgright]/forum/image.php?link=http://i4.imageban.ru/out/2015/05/06/490560b3182039d406e22a5fd15f6ddc.jpg[/imgright]Производство: США
Жанр: Фантастика, Боевик, Триллер

Режиссер: Дэвид Туи
Актеры: Вин Дизель, Рада Митчелл, Коул Хаузер, Кит Дэвид, Льюис Фиц-Джералд, Клаудия Блэк, Риана Гриффит, Джон Мур, Саймон Бурк, Лес Чэнтери
Описание:
В недалеком будущем космический корабль терпит бедствие, в результате чего совершает вынужденную посадку на отдаленной планете. Но в результате такой посадки погибает командир корабля, часть команды и большинство пассажиров.

Оставшиеся в живых оказываются одни на жуткой и безжизненной планете. Первое, что бросается в глаза — это то, что планета имеет три солнца, из-за чего все живое погибает в этой пустыне. Но как только планета погружается в темноту, появляются какие-то странные существа...


Продолжительность: 01:51:55
Качество видео: HDRip
Перевод: Дублированный + многоголосый 'Киномания'

Видео: AVC/H.264, ~1432 Kbps, 960х400
Аудио #1: AAC, 2 ch, ~128 Kbps, (русский) дублированный
Аудио #2: AAC, 2 ch, ~128 Kbps, (английский) оригинальный
Код:
Код: Выделить всё
General
Complete name                            : Риддик. коллекция (2000-2013)\01. Черная дыра (2000) Director's Cut.mp4
Format                                   : MPEG-4
Format profile                           : Base Media
Codec ID                                 : isom
File size                                : 1.33 GiB
Duration                                 : 1h 51mn
Overall bit rate mode                    : Variable
Overall bit rate                         : 1 697 Kbps
Movie name                               : Pitch Black [Director's Cut] (2000) [NoNaMe Club] [rip by alien.09]
ContentType                              : Short Film
Encoded date                             : UTC 2015-05-06 18:20:47
Tagged date                              : UTC 2015-05-06 18:21:48
Writing application                      : MkvToMp4 [www.mkvtomp4.ru] version: 0.224 (x64)

Video
ID                                       : 1
Format                                   : AVC
Format/Info                              : Advanced Video Codec
Format profile                           :
Format settings, CABAC                   : Yes
Format settings, ReFrames                : 3 frames
Codec ID                                 : avc1
Codec ID/Info                            : Advanced Video Coding
Duration                                 : 1h 51mn
Bit rate                                 : 1 432 Kbps
Maximum bit rate                         : 5 373 Kbps
Width                                    : 960 pixels
Height                                   : 400 pixels
Display aspect ratio                     : 2.35:1
Frame rate mode                          : Constant
Frame rate                               : 23.976 fps
Color space                              : YUV
Chroma subsampling                       : 4:2:0
Bit depth                                : 8 bits
Scan type                                : Progressive
Bits/(Pixel*Frame)                       : 0.156
Stream size                              : 1.12 GiB (84%)
Writing library                          : x264 core 116 r2019M 9cc407d
Encoding settings                        : cabac=1 / ref=3 / deblock=1:-1:-1 / analyse=0x1:0x131 / me=hex / subme=7 / psy=1 / psy_rd=1.00:0.15 / mixed_ref=1 / me_range=16 / chroma_me=1 / trellis=1 / 8x8dct=0 / cqm=0 / deadzone=21,11 / fast_pskip=1 / chroma_qp_offset=-3 / threads=12 / sliced_threads=0 / nr=0 / decimate=1 / interlaced=0 / bluray_compat=0 / constrained_intra=0 / bframes=3 / b_pyramid=0 / b_adapt=2 / b_bias=0 / direct=3 / weightb=1 / open_gop=0 / weightp=0 / keyint=230 / keyint_min=23 / scenecut=40 / intra_refresh=0 / rc_lookahead=40 / rc=2pass / mbtree=1 / bitrate=1432 / ratetol=1.0 / qcomp=0.60 / qpmin=10 / qpmax=51 / qpstep=4 / cplxblur=20.0 / qblur=0.5 / vbv_maxrate=5000 / vbv_bufsize=1835 / nal_hrd=none / ip_ratio=1.40 / aq=1:1.00
Language                                 : English
Encoded date                             : UTC 2015-05-06 18:20:47
Tagged date                              : UTC 2015-05-06 18:21:06

Audio #1
ID                                       : 2
Format                                   : AAC
Format/Info                              : Advanced Audio Codec
Format profile                           : LC
Codec ID                                 : 40
Duration                                 : 1h 51mn
Bit rate mode                            : Variable
Bit rate                                 : 128 Kbps
Maximum bit rate                         : 169 Kbps
Channel(s)                               : 2 channels
Channel positions                        : Front: L R
Sampling rate                            : 48.0 KHz
Compression mode                         : Lossy
Stream size                              : 102 MiB (8%)
Language                                 : Russian
Encoded date                             : UTC 2015-05-06 18:21:01
Tagged date                              : UTC 2015-05-06 18:21:06

Audio #2
ID                                       : 3
Format                                   : AAC
Format/Info                              : Advanced Audio Codec
Format profile                           : LC
Codec ID                                 : 40
Duration                                 : 1h 51mn
Bit rate mode                            : Variable
Bit rate                                 : 128 Kbps
Maximum bit rate                         : 181 Kbps
Channel(s)                               : 2 channels
Channel positions                        : Front: L R
Sampling rate                            : 48.0 KHz
Compression mode                         : Lossy
Stream size                              : 102 MiB (8%)
Language                                 : English
Encoded date                             : UTC 2015-05-06 18:21:04
Tagged date                              : UTC 2015-05-06 18:21:06

Скриншоты:


Хроники Риддика / The Chronicles of Riddick (2004) HDRip

[imgright]/forum/image.php?link=http://i5.imageban.ru/out/2015/05/06/cec2b211da31713fa853367e40e9768c.jpg[/imgright]Производство: США
Жанр: Фантастика, Боевик, Триллер

Режиссер: Дэвид Туи
Актеры: Вин Дизель, Колм Фиор, Тэнди Ньютон, Джуди Денч, Карл Урбан, Алекса Давалос, Лайнас Роуч, Йорик ван Вагенинген, Ник Чинланд, Кит Дэвид
Описание:
Последние пять лет Риддик провел в бегах среди забытых миров на задворках галактики, прячась от наемников, назначивших цену за его голову. Теперь беглец оказался на планете Гелион, где живет прогрессивное многонациональное общество, завоеванное лордом Маршалом, фанатиком, решившим поработить человечество армадой своих воинов, некромонгеров.

Совершив побег из подземной тюрьмы, где температура колебалась от арктических ночей до вулканических дней, Риддик встречает Кайру, последнюю оставшуюся в живых женщину из раннего периода его жизни. Его попытки освободить себя и Кайру приводят их на борт главного корабля некромонгеров, где ему предстоит столкнуться с лордом Маршалом в апокалиптической битве не на жизнь, а на смерть...


Продолжительность: 02:14:06
Качество видео: HDRip
Перевод: Дублированный + многоголосый 'CP Digital'

Видео: AVC/H.264, ~1432 Kbps, 960х400
Аудио #1: AAC, 2 ch, ~128 Kbps, (русский) дублированный
Аудио #2: AAC, 2 ch, ~128 Kbps, (английский) оригинальный
Код:
Код: Выделить всё
General
Complete name                            : Риддик. коллекция (2000-2013)\02. Хроники Риддика (2004) Director's Cut.mp4
Format                                   : MPEG-4
Format profile                           : Base Media
Codec ID                                 : isom
File size                                : 1.59 GiB
Duration                                 : 2h 14mn
Overall bit rate mode                    : Variable
Overall bit rate                         : 1 699 Kbps
Movie name                               : The Chronicles of Riddick (2004) [NoNaMe Club] [rip by alien.09]
ContentType                              : Short Film
Encoded date                             : UTC 2015-05-06 18:28:32
Tagged date                              : UTC 2015-05-06 18:30:03
Writing application                      : MkvToMp4 [www.mkvtomp4.ru] version: 0.224 (x64)

Video
ID                                       : 1
Format                                   : AVC
Format/Info                              : Advanced Video Codec
Format profile                           :
Format settings, CABAC                   : Yes
Format settings, ReFrames                : 3 frames
Codec ID                                 : avc1
Codec ID/Info                            : Advanced Video Coding
Duration                                 : 2h 14mn
Bit rate                                 : 1 432 Kbps
Maximum bit rate                         : 5 754 Kbps
Width                                    : 960 pixels
Height                                   : 400 pixels
Display aspect ratio                     : 2.40:1
Frame rate mode                          : Constant
Frame rate                               : 23.976 fps
Color space                              : YUV
Chroma subsampling                       : 4:2:0
Bit depth                                : 8 bits
Scan type                                : Progressive
Bits/(Pixel*Frame)                       : 0.156
Stream size                              : 1.34 GiB (84%)
Writing library                          : x264 core 116 r2019M 9cc407d
Encoding settings                        : cabac=1 / ref=3 / deblock=1:-1:-1 / analyse=0x1:0x131 / me=hex / subme=7 / psy=1 / psy_rd=1.00:0.15 / mixed_ref=1 / me_range=16 / chroma_me=1 / trellis=1 / 8x8dct=0 / cqm=0 / deadzone=21,11 / fast_pskip=1 / chroma_qp_offset=-3 / threads=12 / sliced_threads=0 / nr=0 / decimate=1 / interlaced=0 / bluray_compat=0 / constrained_intra=0 / bframes=3 / b_pyramid=0 / b_adapt=2 / b_bias=0 / direct=3 / weightb=1 / open_gop=0 / weightp=0 / keyint=230 / keyint_min=23 / scenecut=40 / intra_refresh=0 / rc_lookahead=40 / rc=2pass / mbtree=1 / bitrate=1432 / ratetol=1.0 / qcomp=0.60 / qpmin=10 / qpmax=51 / qpstep=4 / cplxblur=20.0 / qblur=0.5 / vbv_maxrate=5000 / vbv_bufsize=1835 / nal_hrd=none / ip_ratio=1.40 / aq=1:1.00
Language                                 : English
Encoded date                             : UTC 2015-05-06 18:28:32
Tagged date                              : UTC 2015-05-06 18:28:55

Audio #1
ID                                       : 2
Format                                   : AAC
Format/Info                              : Advanced Audio Codec
Format profile                           : LC
Codec ID                                 : 40
Duration                                 : 2h 14mn
Bit rate mode                            : Variable
Bit rate                                 : 128 Kbps
Maximum bit rate                         : 197 Kbps
Channel(s)                               : 2 channels
Channel positions                        : Front: L R
Sampling rate                            : 48.0 KHz
Compression mode                         : Lossy
Stream size                              : 123 MiB (8%)
Language                                 : Russian
Encoded date                             : UTC 2015-05-06 18:28:47
Tagged date                              : UTC 2015-05-06 18:28:55

Audio #2
ID                                       : 3
Format                                   : AAC
Format/Info                              : Advanced Audio Codec
Format profile                           : LC
Codec ID                                 : 40
Duration                                 : 2h 14mn
Bit rate mode                            : Variable
Bit rate                                 : 128 Kbps
Maximum bit rate                         : 177 Kbps
Channel(s)                               : 2 channels
Channel positions                        : Front: L R
Sampling rate                            : 48.0 KHz
Compression mode                         : Lossy
Stream size                              : 123 MiB (8%)
Language                                 : English
Encoded date                             : UTC 2015-05-06 18:28:51
Tagged date                              : UTC 2015-05-06 18:28:55


Скриншоты:


Риддик / Riddick (2013) HDRip

[imgright]/forum/image.php?link=http://i2.imageban.ru/out/2015/05/06/0f15996f640aca38e7ff4458a9ef59fa.jpg[/imgright]Производство: США
Жанр: Фантастика, Боевик, Триллер

Режиссер: Дэвид Туи
Актеры: Вин Дизель, Хорди Молья, Мэтью Нэйбл, Кэти Сакхофф, Дэйв Батиста, Букем Вудбайн, Рауль Трухильо, Конрад Пла, Дэнни Бланко, Карл Урбан
Описание:
Преданный своими и брошенный умирать на пустынной планете, Риддик сражается с хищниками за жизнь и становится сильнее и опаснее себя прежнего. Открывшие на него охоту галактические наемники оказываются пешками в грандиозном плане отмщения. С врагами, возникающими на его пути тогда, когда это нужно самому Риддику, он начинает поход во имя мести, чтобы в конечном счете вернуться на родную Фурию и спасти ее от уничтожения...


Продолжительность: 02:06:51
Качество видео: HDRip
Перевод: Дублированный (отсутствует перевод на расширенные вставки)

Видео: AVC/H.264, ~1432 Kbps, 960х400
Аудио #1: AAC, 2 ch, ~128 Kbps, (русский) дублированный
Аудио #2: AAC, 2 ch, ~128 Kbps, (английский) оригинальный
Код:
Код: Выделить всё
General
Complete name                            : Риддик. коллекция (2000-2013)\03. Риддик (2013) Director's Cut.mp4
Format                                   : MPEG-4
Format profile                           : Base Media
Codec ID                                 : isom
File size                                : 1.50 GiB
Duration                                 : 2h 6mn
Overall bit rate mode                    : Variable
Overall bit rate                         : 1 692 Kbps
Movie name                               : Риддик / Riddick [Director's Cut] (2013) [NoNaMe Club] [rip by alien.09]
ContentType                              : Short Film
Encoded date                             : UTC 2015-05-06 18:24:01
Tagged date                              : UTC 2015-05-06 18:25:46
Writing application                      : MkvToMp4 [www.mkvtomp4.ru] version: 0.224 (x64)

Video
ID                                       : 1
Format                                   : AVC
Format/Info                              : Advanced Video Codec
Format profile                           :
Format settings, CABAC                   : Yes
Format settings, ReFrames                : 3 frames
Codec ID                                 : avc1
Codec ID/Info                            : Advanced Video Coding
Duration                                 : 2h 6mn
Bit rate                                 : 1 432 Kbps
Maximum bit rate                         : 6 118 Kbps
Width                                    : 960 pixels
Height                                   : 400 pixels
Display aspect ratio                     : 2.40:1
Frame rate mode                          : Constant
Frame rate                               : 23.976 fps
Color space                              : YUV
Chroma subsampling                       : 4:2:0
Bit depth                                : 8 bits
Scan type                                : Progressive
Bits/(Pixel*Frame)                       : 0.156
Stream size                              : 1.26 GiB (84%)
Writing library                          : x264 core 116 r2019M 9cc407d
Encoding settings                        : cabac=1 / ref=3 / deblock=1:-1:-1 / analyse=0x1:0x131 / me=hex / subme=7 / psy=1 / psy_rd=1.00:0.15 / mixed_ref=1 / me_range=16 / chroma_me=1 / trellis=1 / 8x8dct=0 / cqm=0 / deadzone=21,11 / fast_pskip=1 / chroma_qp_offset=-3 / threads=12 / sliced_threads=0 / nr=0 / decimate=1 / interlaced=0 / bluray_compat=0 / constrained_intra=0 / bframes=3 / b_pyramid=0 / b_adapt=2 / b_bias=0 / direct=3 / weightb=1 / open_gop=0 / weightp=0 / keyint=230 / keyint_min=23 / scenecut=40 / intra_refresh=0 / rc_lookahead=40 / rc=2pass / mbtree=1 / bitrate=1432 / ratetol=1.0 / qcomp=0.60 / qpmin=10 / qpmax=51 / qpstep=4 / cplxblur=20.0 / qblur=0.5 / vbv_maxrate=5000 / vbv_bufsize=1835 / nal_hrd=none / ip_ratio=1.40 / aq=1:1.00
Language                                 : English
Encoded date                             : UTC 2015-05-06 18:24:01
Tagged date                              : UTC 2015-05-06 18:24:23

Audio #1
ID                                       : 2
Format                                   : AAC
Format/Info                              : Advanced Audio Codec
Format profile                           : LC
Codec ID                                 : 40
Duration                                 : 2h 6mn
Bit rate mode                            : Variable
Bit rate                                 : 128 Kbps
Maximum bit rate                         : 182 Kbps
Channel(s)                               : 2 channels
Channel positions                        : Front: L R
Sampling rate                            : 48.0 KHz
Compression mode                         : Lossy
Stream size                              : 116 MiB (8%)
Language                                 : Russian
Encoded date                             : UTC 2015-05-06 18:24:16
Tagged date                              : UTC 2015-05-06 18:24:23

Audio #2
ID                                       : 3
Format                                   : AAC
Format/Info                              : Advanced Audio Codec
Format profile                           : LC
Codec ID                                 : 40
Duration                                 : 2h 6mn
Bit rate mode                            : Variable
Bit rate                                 : 128 Kbps
Maximum bit rate                         : 188 Kbps
Channel(s)                               : 2 channels
Channel positions                        : Front: L R
Sampling rate                            : 48.0 KHz
Compression mode                         : Lossy
Stream size                              : 116 MiB (8%)
Language                                 : English
Encoded date                             : UTC 2015-05-06 18:24:19
Tagged date                              : UTC 2015-05-06 18:24:23

Скриншоты:


 
Не забывайте говорить Спасибо. Не уходите с раздачи!   
Торрент: Зарегистрирован [06 май 2015, 23:59] Для скачивания .torrent
необходима регистрация
Или скачать с помощью
MediaGet
Статус:
Проверен
 
.torrent скачан: 0 раз
Хэш: 157de19784adca3b1ff7cb4c7d666f4e3f8668e0
Размер: 4.42 ГБ (4 743 033 261 байт)
Стать Автором раздачи
 
 
Раздал: 6.67 ГБ
Скачал: 302.5 МБ
Ратио: 22.576
Сообщения: 374198
Зарегистрирован: 17 апр 2014, 11:05


  • Похожие торренты
    Ответы
    Просмотры
    Последнее сообщение

Вернуться в Видео для мобильных устройств

Ресурс не предоставляет электронные версии произведений, а занимается лишь коллекционированием и каталогизацией ссылок, присылаемых и публикуемых на форуме нашими читателями. Если вы являетесь правообладателем какого-либо представленного материала и не желаете чтобы ссылка на него находилась в нашем каталоге, свяжитесь с нами и мы незамедлительно удалим её. Файлы для обмена на трекере предоставлены пользователями сайта, и администрация не несёт ответственности за их содержание. Просьба не заливать файлы, защищенные авторскими правами, а также файлы нелегального содержания!
cron