Готэм / Gotham (2014) WEB-DLRip [H.264] (Сезон 1, серии 1-22 из 22) BaibaKo [MP4|720x400]

 
 Статистика раздачи 
Размер: 12.82 ГБ   |  Зарегистрирован: 06 май 2015, 14:15   |   .torrent скачан: 0 раз
Сидеров: 1  [ 0 байт/сек ]     Личеров: 0  [ 0 байт/сек ]  
  

Готэм / Gotham (2014) WEB-DLRip [H.264] (Сезон 1, серии 1-22 из 22) BaibaKo [MP4|720x400]

Сообщение Thistoll » 06 май 2015, 14:15

Готэм / Gotham (2014) WEB-DLRip [H.264] (Сезон 1, серии 1-22 из 22) BaibaKo
«The good. The evil. The beginning»

Производство: США
Жанр: Триллер, драма, криминал

Режиссер: Дэнни Кэннон, Т.Дж. Скотт, Дермотт Даунс
Актеры: Бен МакКензи, Донал Лог, Сара Пэкстон, Джада Пинкетт Смит, Шон Пертуи, Эрин Ричардс, Робин Тейлор, Дэвид Мазоуз, Забрина Гевара, Самрен Бикондова и др.

Описание:
«Готэм» — криминальный экшен-триллер, открывающий новую главу развития вселенной DC Comics. Сериал расскажет историю становления таких известных преступников коррумпированного мегаполиса, как Женщина-кошка, Пингвин, Загадочник, Мистер Фриз, Пугало и Джокер. Также поклонники комиксов увидят трансформацию маленького напуганного Брюса Уэйна в одного из самых популярных супергеров нашего времени — Бэтмена.

Герой войны Джеймс Гордон (Бен Маккензи) возвращается в родной Готэм и устраивается на работу в полицию, горя желанием восстановить порядок в страдающем от беззакония городе. Храбрый и честный новичок, получивший в напарники умудренного опытом детектива Харви Буллока (Донал Лог), приступает к расследованию убийства миллиардеров Томаса (Грэйсон МакКауч) и Марты Уэйн (Бреттания Фризе). На месте преступления Джеймс встречает их сына (Дэвид Мазоуз) и дает ему обещание во что бы то ни стало найти убийцу родителей. Гордон еще не знает, что эта встреча сыграет ключевую роль в судьбе юного Брюса Уэйна…

Сэмпл

Продолжительность: ~ 00:49:00 серия
Качество видео: WEB-DLRip
Перевод: Многоголосый закадровый, профессиональный - BaibaKo
Автор перевода: Янина Галицкая
Озвучка: Ольга Мотрич, Светлана Доманова, Сергей Корчак, Дмитрий Козак и Алексей Кузнецов

Видео: AVC/H.264, 720x400 (16:9), ~1536 Кбит/сек
Аудио #1: AAC, 2 канала, 192 Кбит/сек - русский (многоголосый закадровый, BaibaKo)
Аудио #2: AAC, 2 канала, 192 Кбит/сек - английский (оригинальный)
Код:
Код: Выделить всё
Полное имя                               : F:\Gotham_s1_WEB-DLRip_x264_BaibaKo_[NNM-CLUB]\Gotham.s01e01.WEB-DLRip.x264.Rus.Eng.BaibaKo.tv.mp4
Формат                                   : MPEG-4
Профиль формата                          : Base Media
Идентификатор кодека                     : isom
Размер файла                             : 677 Мбайт
Продолжительность                        : 49 м.
Режим общего битрейта                    : Переменный
Общий поток                              : 1920 Кбит/сек
Дата кодирования                         : UTC 2014-09-23 18:48:40
Дата пометки                             : UTC 2014-09-23 18:48:40

Видео
Идентификатор                            : 1
Формат                                   : AVC
Формат/Информация                        : Advanced Video Codec
Профиль формата                          :
Параметр CABAC формата                   : Нет
Параметр ReFrames формата                : 3 кадра
Идентификатор кодека                     : avc1
Идентификатор кодека/Информация          : Advanced Video Coding
Продолжительность                        : 49 м.
Битрейт                                  : 1536 Кбит/сек
Максимальный битрейт                     : 6751 Кбит/сек
Ширина                                   : 720 пикселей
Высота                                   : 400 пикселей
Соотношение сторон                       : 16:9
Режим частоты кадров                     : Переменный
Частота кадров                           : 23,976 кадра/сек
Минимальная частота кадров               : 23,974 кадра/сек
Максимальная частота кадров              : 23,981 кадра/сек
Цветовое пространство                    : YUV
Субдискретизация насыщенности            : 4:2:0
Битовая глубина                          : 8 бит
Тип развёртки                            : Прогрессивная
Бит/(Пиксели*Кадры)                      : 0.222
Размер потока                            : 542 Мбайт (80%)
Библиотека кодирования                   : x264 core 130 r2273 b3065e6
Настройки программы                      : cabac=0 / ref=3 / deblock=1:0:0 / analyse=0x1:0x111 / me=hex / subme=7 / psy=1 / psy_rd=1.00:0.00 / mixed_ref=1 / me_range=16 / chroma_me=1 / trellis=1 / 8x8dct=0 / cqm=0 / deadzone=21,11 / fast_pskip=1 / chroma_qp_offset=-2 / threads=12 / lookahead_threads=2 / sliced_threads=0 / nr=0 / decimate=1 / interlaced=0 / bluray_compat=0 / constrained_intra=0 / bframes=0 / weightp=0 / keyint=240 / keyint_min=24 / scenecut=40 / intra_refresh=0 / rc_lookahead=40 / rc=2pass / mbtree=1 / bitrate=1536 / ratetol=1.0 / qcomp=0.60 / qpmin=0 / qpmax=69 / qpstep=4 / cplxblur=20.0 / qblur=0.5 / ip_ratio=1.40 / aq=1:1.00
Дата кодирования                         : UTC 2014-09-23 10:54:51
Дата пометки                             : UTC 2014-09-23 18:49:19
Основные цвета                           : BT.709
Характеристики трансфера                 : BT.709
Коэффициенты матрицы                     : BT.709

Аудио #1
Идентификатор                            : 2
Формат                                   : AAC
Формат/Информация                        : Advanced Audio Codec
Профиль формата                          : LC
Идентификатор кодека                     : 67
Продолжительность                        : 49 м.
Вид битрейта                             : Переменный
Битрейт                                  : 192 Кбит/сек
Максимальный битрейт                     : 196 Кбит/сек
Каналы                                   : 2 канала
Расположение каналов                     : Front: L R
Частота                                  : 48,0 КГц
Метод сжатия                             : С потерями
Размер потока                            : 66,8 Мбайт (10%)
Язык                                     : Russian
Дата кодирования                         : UTC 2014-09-23 18:49:11
Дата пометки                             : UTC 2014-09-23 18:49:19

Аудио #2
Идентификатор                            : 3
Формат                                   : AAC
Формат/Информация                        : Advanced Audio Codec
Профиль формата                          : LC
Идентификатор кодека                     : 67
Продолжительность                        : 49 м.
Вид битрейта                             : Переменный
Битрейт                                  : 192 Кбит/сек
Максимальный битрейт                     : 196 Кбит/сек
Каналы                                   : 2 канала
Расположение каналов                     : Front: L R
Частота                                  : 48,0 КГц
Метод сжатия                             : С потерями
Размер потока                            : 66,8 Мбайт (10%)
Язык                                     : English
Дата кодирования                         : UTC 2014-09-23 18:49:15
Дата пометки                             : UTC 2014-09-23 18:49:19
01 - Пилот / Pilot
02 - Селина Кайл / Selina Kyle
03 - Шароубийца / The Balloonman
04 - Аркхэм / Arkham
05 - Вайпер / Viper
06 - Дух козла отпущения / Spirit of the Goat
07 - Зонтик Пингвина / Penguin's Umbrella
08 - Маска / The Mask
09 - Харви Дент / Harvey Dent
10 - Ловкрафт / Lovecraft
11 - Парад психов / Rogues' Gallery
12 - Сорока на хвосте принесла / What the Little Bird Told Him
13 - Добро пожаловать назад, Джим Гордон! / Welcome Back, Jim Gordon
14 - Ужасный доктор Крэйн / The Fearsome Dr. Crane
15 - Пугало / The Scarecrow
16 - Слепой предсказатель судьбы / The Blind Fortune Teller
17 - Красный колпак Гуд / Red Hood
18 - У каждого есть свой Кобблпот / Everyone Has a Cobblepot
19 - Хищники / Beasts of Prey
20 - Под нож / Under the Knife
21 - Молот или наковальня
22 - Все счастливые семьи похожи

Скриншоты:




Время раздачи:
24/7 - круглосуточно
(до первых 5-ти сидов - потом по возможности)
 
Не забывайте говорить Спасибо. Не уходите с раздачи!   
Торрент: Зарегистрирован [06 май 2015, 14:15] Для скачивания .torrent
необходима регистрация
Или скачать с помощью
MediaGet
Статус:
Проверен
 
.torrent скачан: 0 раз
Хэш: 2b69fc515f32283363d40346e89d719d3a415da7
Размер: 12.82 ГБ (13 767 729 897 байт)
Стать Автором раздачи
 
 
Раздал: 6.67 ГБ
Скачал: 302.5 МБ
Ратио: 22.576
Сообщения: 374198
Зарегистрирован: 17 апр 2014, 11:05


  • Похожие торренты
    Ответы
    Просмотры
    Последнее сообщение

Вернуться в Видео для мобильных устройств

Ресурс не предоставляет электронные версии произведений, а занимается лишь коллекционированием и каталогизацией ссылок, присылаемых и публикуемых на форуме нашими читателями. Если вы являетесь правообладателем какого-либо представленного материала и не желаете чтобы ссылка на него находилась в нашем каталоге, свяжитесь с нами и мы незамедлительно удалим её. Файлы для обмена на трекере предоставлены пользователями сайта, и администрация не несёт ответственности за их содержание. Просьба не заливать файлы, защищенные авторскими правами, а также файлы нелегального содержания!
cron