[VIDEO] Заложница 3 / Taken 3 (Оливье Мегатон / Olivier Megaton) [2014, боевик, триллер, HDRip] [MP4, 480x] [Extended Cut] Dub

 
 Статистика раздачи 
Размер: 521.12 МБ   |  Зарегистрирован: 05 май 2015, 23:46   |   .torrent скачан: 0 раз
Сидеров: 1  [ 0 байт/сек ]     Личеров: 0  [ 0 байт/сек ]  
  

[VIDEO] Заложница 3 / Taken 3 (Оливье Мегатон / Olivier Megaton) [2014, боевик, триллер, HDRip] [MP4, 480x] [Extended Cut] Dub

Сообщение Satch » 05 май 2015, 23:46

Заложница 3 / Taken 3 [Extended Cut]«Это конец»

Год выпуска: 2014
Страна: Франция
Жанр: боевик, триллер
Продолжительность: 01:55:18
Перевод: Русский, Профессиональный (полное дублирование)
Cубтитры: нет
Режиссер: Оливье Мегатон / Olivier Megaton
Сценаристы: Люк Бессон / Luc Besson, Роберт Марк Кэмен / Robert Mark Kamen
Оператор: Эрик Кресс / Eric Kress
Композитор: Натэниел Мекали / Nathaniel Mechaly
В ролях: Лиам Нисон / Liam Neeson (Bryan Mills), Мэгги Грэйс / Maggie Grace (Kim Mills), Форест Уитакер / Forest Whitaker (Franck Dotzler), Сэм Спруэлл / Sam Spruell (Oleg Malankov), Фамке Янссен / Famke Janssen (Lenore St. John), Дюгрей Скотт / Dougray Scott (Stuart St. John), Дон Харви / Don Harvey (Garcia), Дилан Бруно / Dylan Bruno (Smith), Лиленд Орсер / Leland Orser (Sam (Gilroy)) и другие .
Бюджет: $48 000 000Сборы в США: $89 238 283Сборы в мире: + $236 515 000 = $325 753 283Сборы в России: $3 181 372Зрители: 765.1 тыс.Премьера (мир): 16 декабря 2014Премьера (РФ): 15 января 2015, «Двадцатый Век Фокс СНГ»премьера (Укр.): 22 января 2015, «Ukrainian Film Distribution»Релиз на DVD: 23 апреля 2015, «Двадцатый Век Фокс СНГ»Релиз на Blu-Ray: 23 апреля 2015, «Двадцатый Век Фокс СНГ»
Описание: Жизнь бывшего правительственного агента Брайана Миллса рушится, когда его обвиняют в убийстве, которого он не совершал. Преследуемый опытным инспектором полиции, Миллс пытается отследить настоящего убийцу…
Релиз группы
Качество: HDRip /
Формат: MP4
Видео кодек: H.264
Аудио кодек: AAC
Видео: 480x200 AR:2.40 500 kbps, 23.976 fps
Аудио: [Russian] 2ch 48 kHz 128 kbps - [Dub]

Все сцены драк Лиам Нисон исполнил самостоятельно.
В фильме «Заложница» (2007) Брайан Миллс говорит похитителям по телефону, что именно он будет делать, и с чем они столкнулись, на что они отвечают: «Удачи». А в фильме «Заложница 3» (2014) наоборот – Франк Доцлер говорит Брайану, что именно он будет делать, и с чем столкнулся Брайан, на что Брайан отвечает: «Удачи».
В фильме на 33-й минуте в полицейском профайле Ким указан рост 6`4» (193 см), на самом деле рост актрисы Мэгги Грэйс составляет всего 5`9» (175 см).


В конце фильма, где Стюарт и Ким едут в машине на аэродром, Стюарт гладко выбрит. Через 2 минуты на аэродроме у него уже щетина.
Когда Меланков разговаривает по телефону в своем доме, он держит телефон перевернутым.
В сцене, когда Брайан заходит в лифт небоскрёба, он берёт дефибриллятор и вырубает им двух охранников, направив на каждого отдельный электрод. Дефибриллятор не сработает на человеке если на нём лишь один электрод, а не два.
Когда Миллс пытает Стюарта Сент-Джона, он обвиняет Миллса в том, что тот спал с его женой. В оригинальной версии слышно, что он в этом моменте произносит слово «screwing», но по его губам видно, что на самом деле он говорит «fucking».
В сцене, когда Брайан пытает Стюарта, погружая его под воду, следы от воды на футболке Стюарта меняются при смене кадра.
В начале фильма, когда Брайана преследует полиция, ему удается уйти от погони, спустившись под грузовик, а затем в канализацию. При этом он полностью погружается под воду. Однако, когда он вылезает из канализации, его рубашка мокрая только до воротника.
Когда Миллс угоняет полицейскую машину, она получает повреждения спереди и сзади. Но позже можно заметить, что эти повреждения исчезают.
Пилоты реактивного самолета запрашивают взлет с полосы 2. В следующем же кадре показывают вылет с полосы 5L.
Брайан звонит Ким после того, как ему удается сбежать от полиции, и когда он вешает трубку, слышен гудок на линии Ким. У Ким iPhone, который не издает такого гудка при завершении звонка.
Porsche врезается в переднее шасси самолета, однако в последующих сценах на машине не видно никаких повреждений.
В фильме на 33:19 минуте указана модель машины Ленор AUDI A8 Spyder — на самом деле модель машины — AUDI R8 Spyder.
Когда Брайан встречается с дочерью в туалете, нам показывают кадр сверху. Мы видим стандартную узкую кабинку, 14 плиток кафеля в ширину. Нет никаких окон. В следующих кадрах, когда показывают разговор отца и дочери, кабинка становится очень широкой, и в стене появляется окно.
В сцене, когда Стюарт садится в машину, он садится в Mercedes-Benz S500 W221, в следующем же кадре видно, что он едет на Mercedes-Benz S500, но кузов уже W222.
В финальной сцене у разбившегося самолёта (1:34:12), когда Дюгрей Скотт, держа за волосы, вытаскивает дочь главного героя, видно как он держит дуло пистолета у её головы — то над головой, то на уровне её уха, в следующем же кадре, когда дочь вырывается ударив его локтём, мы видим, что дуло пистолета находится чуть впереди дочери и ниже подбородка.

GeneralComplete name : E:\Torrents\TAKEN 3.Extended.2014.HDRip.x264.480p.rip by Frost O.S.mp4Format : MPEG-4Format profile : Base Media / Version 2Codec ID : mp42File size : 521 MiBDuration : 1h 55mnOverall bit rate mode : VariableOverall bit rate : 632 KbpsEncoded date : UTC 2015-04-23 15:48:06Tagged date : UTC 2015-04-23 15:48:06

VideoID : 201Format : MPEG-4 VisualFormat profile : Advanced Simple@L5Format settings, BVOP : YesFormat settings, QPel : NoFormat settings, GMC : No warppointsFormat settings, Matrix : CustomCodec ID : 20Duration : 1h 55mnBit rate mode : VariableBit rate : 500 KbpsMaximum bit rate : 2 139 KbpsWidth : 480 pixelsHeight : 200 pixelsDisplay aspect ratio : 2.40:1Frame rate mode : ConstantFrame rate : 23.976 fpsColor space : YUVChroma subsampling : 4:2:0Bit depth : 8 bitsScan type : ProgressiveCompression mode : LossyBits/(Pixel*Frame) : 0.217Stream size : 413 MiB (79%)Writing library : XviD 73Encoded date : UTC 2015-04-23 15:48:06Tagged date : UTC 2015-04-23 15:49:05

AudioID : 101Format : AACFormat/Info : Advanced Audio CodecFormat profile : LCCodec ID : 40Duration : 1h 55mnBit rate mode : VariableBit rate : 128 KbpsMaximum bit rate : 184 KbpsChannel(s) : 2 channelsChannel positions : Front: L RSampling rate : 48.0 KHzCompression mode : LossyStream size : 105 MiB (20%)Encoded date : UTC 2015-04-23 15:49:00Tagged date : UTC 2015-04-23 15:49:05



 
Не забывайте говорить Спасибо. Не уходите с раздачи!   
Торрент: Зарегистрирован [05 май 2015, 23:46] Для скачивания .torrent
необходима регистрация
Или скачать с помощью
MediaGet
Статус:
Проверен
 
.torrent скачан: 0 раз
Хэш: d5352d3f25798b239d86b39a03e6abb697eba084
Размер: 521.12 МБ (546 433 142 байт)
Стать Автором раздачи
 
Аватара пользователя
 
Раздал: 2.45 ГБ
Скачал: 15.94 МБ
Ратио: 157.696
Сообщения: 337733
Зарегистрирован: 16 янв 2012, 17:03


  • Похожие торренты
    Ответы
    Просмотры
    Последнее сообщение

Вернуться в Видео для мобильных устройств

Ресурс не предоставляет электронные версии произведений, а занимается лишь коллекционированием и каталогизацией ссылок, присылаемых и публикуемых на форуме нашими читателями. Если вы являетесь правообладателем какого-либо представленного материала и не желаете чтобы ссылка на него находилась в нашем каталоге, свяжитесь с нами и мы незамедлительно удалим её. Файлы для обмена на трекере предоставлены пользователями сайта, и администрация не несёт ответственности за их содержание. Просьба не заливать файлы, защищенные авторскими правами, а также файлы нелегального содержания!
cron