Vivaldi - Senza Basso (Grigori Maltizov & Baltic Baroque) (2014) [FLAC|Lossless]<Classical, Chamber Music, Baroque Period>

 
 Статистика раздачи 
Размер: 249.72 МБ   |  Зарегистрирован: 04 май 2015, 14:42   |   .torrent скачан: 2 раз
Сидеров: 1  [ 0 байт/сек ]     Личеров: 0  [ 0 байт/сек ]  
  

Vivaldi - Senza Basso (Grigori Maltizov & Baltic Baroque) (2014) [FLAC|Lossless]<Classical, Chamber Music, Baroque Period>

Сообщение Satch » 04 май 2015, 14:42

Vivaldi - Senza Basso (Grigori Maltizov & Baltic Baroque) (2014)

Год: February 17, 2014
Жанр: Classical, Chamber Music, Baroque Period
Лейбл: ERP
Номер по каталогу: 6713
Продолжительность: 00:46:14
Кодек: FLAC
Битрейт: Lossless
Тип рипа: image+.cue

Треклист:
Suonata a 2 Violini da suonarsi anco senza il Basso, RV 77
01. Allegro (05:09)
02. Andante (04:13)
03. Allegro (03:26)
Prima Suonata da Camera a 2 Violini anco senza Basso se piace, RV 70
04. Allegro (04:43)
05. Larghetto (03:33)
06. Allegro molto (03:34)
Seconda Suonata a 2 Violini da Camera da suonarsi anco senza Basso, RV 71
07. Allegro (03:53)
08. Larghetto (04:02)
09. Allegro (03:49)
Terza Suonata a 2 da Camera da suonarsi anco senza Basso, RV 68
10. Allegro (04:19)
11. Andante (02:22)
12. Allegro (03:14)
Код:
Код: Выделить всё
Exact Audio Copy V1.0 beta 4 from 7. December 2014

EAC extraction logfile from 26. April 2015, 14:25

Baltic Baroque / 'Vivaldi senza basso' - Baltic Baroque

Used drive  : PLDS    DVD-RW DA8A5SH   Adapter: 1  ID: 0

Read mode               : Secure
Utilize accurate stream : Yes
Defeat audio cache      : Yes
Make use of C2 pointers : No

Read offset correction                      : 6
Overread into Lead-In and Lead-Out          : No
Fill up missing offset samples with silence : Yes
Delete leading and trailing silent blocks   : No
Null samples used in CRC calculations       : Yes
Used interface                              : Native Win32 interface for Win NT & 2000

Used output format              : User Defined Encoder
Selected bitrate                : 1024 kBit/s
Quality                         : High
Add ID3 tag                     : No
Command line compressor         : J:\EAC\Exact Audio Copy\Flac\flac.exe
Additional command line options : -8 -V -T "ARTIST=%artist%" -T "TITLE=%title%" -T "ALBUM=%albumtitle%" -T "DATE=%year%" -T "TRACKNUMBER=%tracknr%" -T "GENRE=%genre%" -T "PERFORMER=%albuminterpret%" -T "COMPOSER=%composer%" %haslyrics%--tag-from-file=LYRICS="%lyricsfile%"%haslyrics% -T "ALBUMARTIST=%albumartist%" -T "DISCNUMBER=%cdnumber%" -T "TOTALDISCS=%totalcds%" -T "TOTALTRACKS=%numtracks%" -T "COMMENT=%comment%" %source% -o %dest%

TOC of the extracted CD

     Track |   Start  |  Length  | Start sector | End sector
    ---------------------------------------------------------
        1  |  0:00.00 |  5:08.55 |         0    |    23154
        2  |  5:08.55 |  4:13.02 |     23155    |    42131
        3  |  9:21.57 |  3:25.52 |     42132    |    57558
        4  | 12:47.34 |  4:43.09 |     57559    |    78792
        5  | 17:30.43 |  3:32.56 |     78793    |    94748
        6  | 21:03.24 |  3:33.35 |     94749    |   110758
        7  | 24:36.59 |  3:52.71 |    110759    |   128229
        8  | 28:29.55 |  4:01.72 |    128230    |   146376
        9  | 32:31.52 |  3:48.31 |    146377    |   163507
       10  | 36:20.08 |  4:18.39 |    163508    |   182896
       11  | 40:38.47 |  2:21.32 |    182897    |   193503
       12  | 43:00.04 |  3:14.18 |    193504    |   208071

Range status and errors

Selected range

     Filename K:\Ripped\[7504] 'Vivaldi senza basso' – Baltic Baroque\'Vivaldi senza basso' - Baltic Baroque.wav

     Peak level 97.6 %
     Extraction speed 1.6 X
     Range quality 99.9 %
     Test CRC 7DA77C92
     Copy CRC 7DA77C92
     Copy OK

No errors occurred

AccurateRip summary

Track  1  accurately ripped (confidence 2)  [EF8B147A]  (AR v2)
Track  2  accurately ripped (confidence 2)  [28E846BC]  (AR v2)
Track  3  accurately ripped (confidence 2)  [DD00CD29]  (AR v2)
Track  4  accurately ripped (confidence 2)  [BD4F5CAF]  (AR v2)
Track  5  accurately ripped (confidence 2)  [6879C313]  (AR v2)
Track  6  accurately ripped (confidence 2)  [A03C1087]  (AR v2)
Track  7  accurately ripped (confidence 2)  [9660CE8A]  (AR v2)
Track  8  accurately ripped (confidence 2)  [54BE2243]  (AR v2)
Track  9  accurately ripped (confidence 2)  [DAEF8B8E]  (AR v2)
Track 10  accurately ripped (confidence 2)  [2DDDA643]  (AR v2)
Track 11  accurately ripped (confidence 2)  [9961171A]  (AR v2)
Track 12  accurately ripped (confidence 2)  [6C23C816]  (AR v2)

All tracks accurately ripped

End of status report

==== Log checksum DF073AEE01C5B4770B71B344E4AA9FE0C6F1E209221E4FE12155F3990E9B2A0B ====
Код:
Код: Выделить всё
-----------------------

DON'T MODIFY THIS FILE

-----------------------

PERFORMER: auCDtect Task Manager, ver. 1.5.1RC6 build 1.5.1.7
Copyright (c) 2008-2010 y-soft. All rights reserved
http:/y-soft.org

ANALYZER: auCDtect: CD records authenticity detector, version 0.8.2
Copyright (c) 2004 Oleg Berngardt. All rights reserved.
Copyright (c) 2004 Alexander Djourik. All rights reserved.

FILE: 'Vivaldi senza basso' - Baltic Baroque.flac
  Size: 255056320 Hash: F1B83BAFE0BBC5866830C5C44B84EC9B Accuracy: -m0
  Conclusion: CDDA 92%
  Signature: FF3761AD3AA0C10237E20B160170789A8760D393
Код:
Код: Выделить всё
REM GENRE Baroque
REM DATE 2014
REM DISCID 980AD60C
REM COMMENT "ExactAudioCopy v1.0b4"
CATALOG 4742229004310
PERFORMER "Baltic Baroque"
TITLE "'Vivaldi senza basso' - Baltic Baroque"
FILE "'Vivaldi senza basso' - Baltic Baroque.flac" WAVE
  TRACK 01 AUDIO
    TITLE "Suonata a 2 Violini da suonarsi anco senza il Basso, RV 77 - 1. Allegro"
    PERFORMER "Baltic Baroque"
    ISRC EEHA11467101
    INDEX 01 00:00:00
  TRACK 02 AUDIO
    TITLE "Suonata a 2 Violini da suonarsi anco senza il Basso, RV 77 - 2. Andante"
    PERFORMER "Baltic Baroque"
    ISRC EEHA11467102
    INDEX 01 05:08:55
  TRACK 03 AUDIO
    TITLE "Suonata a 2 Violini da suonarsi anco senza il Basso, RV 77 - 3. Allegro"
    PERFORMER "Baltic Baroque"
    ISRC EEHA11467103
    INDEX 01 09:21:57
  TRACK 04 AUDIO
    TITLE "Prima Suonata da Camera a 2 Violini anco senza Basso se piace, RV 70 - 1. All..."
    PERFORMER "Baltic Baroque"
    ISRC EEHA11467104
    INDEX 01 12:47:34
  TRACK 05 AUDIO
    TITLE "Prima Suonata da Camera a 2 Violini anco senza Basso se piace, RV 70 - 2. Lar..."
    PERFORMER "Baltic Baroque"
    ISRC EEHA11467105
    INDEX 01 17:30:43
  TRACK 06 AUDIO
    TITLE "Prima Suonata da Camera a 2 Violini anco senza Basso se piace, RV 70 - 3. All..."
    PERFORMER "Baltic Baroque"
    ISRC EEHA11467106
    INDEX 01 21:03:24
  TRACK 07 AUDIO
    TITLE "Seconda Suonata da Camera a 2 Violini da Camera da suonarsi anco senza Basso,..."
    PERFORMER "Baltic Baroque"
    ISRC EEHA11467107
    INDEX 01 24:36:59
  TRACK 08 AUDIO
    TITLE "Seconda Suonata da Camera a 2 Violini da Camera da suonarsi anco senza Basso,..."
    PERFORMER "Baltic Baroque"
    ISRC EEHA11467108
    INDEX 01 28:29:55
  TRACK 09 AUDIO
    TITLE "Seconda Suonata da Camera a 2 Violini da Camera da suonarsi anco senza Basso,..."
    PERFORMER "Baltic Baroque"
    ISRC EEHA11467109
    INDEX 01 32:31:52
  TRACK 10 AUDIO
    TITLE "Terza Suonata da Camera a 2 Violini da Camera da suonarsi anco senza Basso, R..."
    PERFORMER "Baltic Baroque"
    ISRC EEHA11467110
    INDEX 01 36:20:08
  TRACK 11 AUDIO
    TITLE "Terza Suonata da Camera a 2 Violini da Camera da suonarsi anco senza Basso, R..."
    PERFORMER "Baltic Baroque"
    ISRC EEHA11467111
    INDEX 01 40:38:47
  TRACK 12 AUDIO
    TITLE "Terza Suonata da Camera a 2 Violini da Camera da suonarsi anco senza Basso, R..."
    PERFORMER "Baltic Baroque"
    ISRC EEHA11467112
    INDEX 01 43:00:04
Время раздачи: 19:00-24:00 msk

Код: Выделить всё
[b]Поглощение/вытеснение [/b]
[b]Только с согласия релизера[/b]
[b][u][i]D0G[/b][/i][/u]

 
Не забывайте говорить Спасибо. Не уходите с раздачи!   
Торрент: Зарегистрирован [04 май 2015, 14:42] Скачать торрент
Скачать торрент
[ Размер 21.07 КБ / Просмотров 132 ]
Статус:
Проверен
 
.torrent скачан: 2 раз
Хэш: 4c337980f252270af1f665ea112c7fb0d024daec
Размер: 249.72 МБ (261 849 439 байт)
Стать Автором раздачи
 
Аватара пользователя
 
Раздал: 2.45 ГБ
Скачал: 15.94 МБ
Ратио: 157.696
Сообщения: 337733
Зарегистрирован: 16 янв 2012, 17:03


  • Похожие торренты
    Ответы
    Просмотры
    Последнее сообщение

Вернуться в Камерная (транзит)

Ресурс не предоставляет электронные версии произведений, а занимается лишь коллекционированием и каталогизацией ссылок, присылаемых и публикуемых на форуме нашими читателями. Если вы являетесь правообладателем какого-либо представленного материала и не желаете чтобы ссылка на него находилась в нашем каталоге, свяжитесь с нами и мы незамедлительно удалим её. Файлы для обмена на трекере предоставлены пользователями сайта, и администрация не несёт ответственности за их содержание. Просьба не заливать файлы, защищенные авторскими правами, а также файлы нелегального содержания!
cron