От Прометея к Чужому: Эволюция / Prometheus to Alien: The Evolution (1979-2012) HDRip [H.264] [MP4|640х352, 640х272]

 
 Статистика раздачи 
Размер: 3.72 ГБ   |  Зарегистрирован: 02 май 2015, 07:39   |   .torrent скачан: 0 раз
Сидеров: 1  [ 0 байт/сек ]     Личеров: 0  [ 0 байт/сек ]  
  

От Прометея к Чужому: Эволюция / Prometheus to Alien: The Evolution (1979-2012) HDRip [H.264] [MP4|640х352, 640х272]

Сообщение Thistoll » 02 май 2015, 07:39

От Прометея к Чужому: Эволюция / Prometheus to Alien: The Evolution (1979, 1986, 1992, 1997, 2012) HDRip

Производство: Великобритания, США
Жанр: Ужасы, Фантастика, Боевик

Режиссер: Ридли Скотт, Джеймс Кэмерон, Дэвид Финчер, Жан-Пьер Жёне
Актеры: Сигурни Уивер, Том Скеррит, Иэн Холм, Джон Хёрт, Гарри Дин Стэнтон, Вероника Картрайт, Яфет Котто, Боладжи Бадеджо, Хелен Хортон, Эдди Пауэлл и другие

Описание:
Отправься в величайшее путешествие вместе с пенталогией "От Прометея к Чужому Эволюция". История начинается с Прометея, где Шарлиз Терон, Майкл Фассбиндер и Нуми Рапас в поисках происхождения человечества сталкиваются с таинственными «Космическими жокеями», способными уничтожить все население Земли.

Затем Сигурни Уивер будет сражаться против самых ужасных созданий в истории кинематографа во всех четырех захватывающих частях Чужих – Чужом, Чужих, Чужом 3 и Чужом: Воскрешение. Эта невероятная научно-фантастическая коллекция, позволяет заглянуть в самые темные уголки вселенной... познать самые глубины воображения!

Продолжительность: 02:03:46; 01:55:50; 02:34:27; 02:24:53; 01:56:09
Качество видео: HDRip
Перевод: Дублированный

Видео: AVC/H.264, 640х352, 640х272, ~679 Kbps
Аудио: AAC, 2 channels, ~128 Kbps (русский)
Скриншоты:



Время раздачи: 24/7 до трёх скачавших
Прометей / Prometheus (2012) HDRip

#77Производство: Великобритания, США
Жанр: Ужасы, Фантастика, Триллер

Режиссер: Ридли Скотт
Актеры: Нуми Рапас, Майкл Фассбендер, Шарлиз Терон, Идрис Эльба, Гай Пирс, Логан Маршалл-Грин, Шон Харрис, Рейф Сполл, Иман Эллиотт, Бенедикт Вонг
Описание:
В поисках сакрального знания группа ученых отправляется в самые темные и неизведанные чертоги вселенной. Именно там, в отдаленных мирах, находясь на пределе своих умственных и физических возможностей, им предстоит вступить в безжалостную схватку за будущее всего человечества...


Продолжительность: 02:03:46
Качество видео: HDRip
Перевод: Дублированный

Видео: AVC/H.264, ~679 Kbps, 640х272
Аудиокодек: AAC, 2 ch, ~128 Kbps, (русский)
Код:
Код: Выделить всё
General
Complete name                            : От Прометея к Чужому. Эволюция (1979-2012)\01. Прометей (2012).mp4
Format                                   : MPEG-4
Format profile                           : Base Media
Codec ID                                 : isom
File size                                : 720 MiB
Duration                                 : 2h 3mn
Overall bit rate mode                    : Variable
Overall bit rate                         : 813 Kbps
Movie name                               : Prometheus (2012) [NoNaMe Club] [rip by alien.09]
ContentType                              : Short Film
Encoded date                             : UTC 2015-04-30 22:57:26
Tagged date                              : UTC 2015-04-30 22:57:57

Video
ID                                       : 1
Format                                   : AVC
Format/Info                              : Advanced Video Codec
Format profile                           :
Format settings, CABAC                   : Yes
Format settings, ReFrames                : 3 frames
Codec ID                                 : avc1
Codec ID/Info                            : Advanced Video Coding
Duration                                 : 2h 3mn
Bit rate                                 : 679 Kbps
Maximum bit rate                         : 5 655 Kbps
Width                                    : 640 pixels
Height                                   : 272 pixels
Display aspect ratio                     : 2.40:1
Frame rate mode                          : Constant
Frame rate                               : 23.976 fps
Color space                              : YUV
Chroma subsampling                       : 4:2:0
Bit depth                                : 8 bits
Scan type                                : Progressive
Bits/(Pixel*Frame)                       : 0.163
Stream size                              : 600 MiB (83%)
Writing library                          : x264 core 128 r2216M 198a7ea
Encoding settings                        : cabac=1 / ref=3 / deblock=1:0:0 / analyse=0x1:0x131 / me=hex / subme=7 / psy=1 / psy_rd=1.00:0.20 / mixed_ref=1 / me_range=16 / chroma_me=1 / trellis=1 / 8x8dct=0 / cqm=0 / deadzone=21,11 / fast_pskip=1 / chroma_qp_offset=-3 / threads=4 / lookahead_threads=1 / sliced_threads=0 / nr=0 / decimate=1 / interlaced=0 / bluray_compat=0 / constrained_intra=0 / bframes=3 / b_pyramid=0 / b_adapt=2 / b_bias=0 / direct=3 / weightb=1 / open_gop=0 / weightp=0 / keyint=230 / keyint_min=23 / scenecut=40 / intra_refresh=0 / rc_lookahead=40 / rc=2pass / mbtree=1 / bitrate=679 / ratetol=1.0 / qcomp=0.60 / qpmin=10 / qpmax=51 / qpstep=4 / cplxblur=20.0 / qblur=0.5 / vbv_maxrate=5000 / vbv_bufsize=1835 / nal_hrd=none / ip_ratio=1.40 / aq=1:1.00
Language                                 : English
Encoded date                             : UTC 2015-04-30 22:57:26
Tagged date                              : UTC 2015-04-30 22:57:35

Audio
ID                                       : 2
Format                                   : AAC
Format/Info                              : Advanced Audio Codec
Format profile                           : LC
Codec ID                                 : 40
Duration                                 : 2h 3mn
Bit rate mode                            : Variable
Bit rate                                 : 128 Kbps
Maximum bit rate                         : 206 Kbps
Channel(s)                               : 2 channels
Channel positions                        : Front: L R
Sampling rate                            : 48.0 KHz
Compression mode                         : Lossy
Stream size                              : 113 MiB (16%)
Language                                 : Russian
Encoded date                             : UTC 2015-04-30 22:57:32
Tagged date                              : UTC 2015-04-30 22:57:35

Скриншоты:


Чужой / Alien (1979) HDRip

#77Производство: США, Великобритания
Жанр: Ужасы, Фантастика, Триллер

Режиссер: Ридли Скотт
Актеры: Сигурни Уивер, Том Скеррит, Иэн Холм, Джон Хёрт, Гарри Дин Стэнтон, Вероника Картрайт, Яфет Котто, Боладжи Бадеджо, Хелен Хортон, Эдди Пауэлл
Описание:
В далеком будущем возвращающийся на Землю грузовой космический корабль перехватывает исходящий с неизвестной планеты неопознанный сигнал. Экипаж принимает решение совершить посадку и разобраться, в чем дело. Оказавшись на планете, астронавты повсюду обнаруживают неопознанные предметы, по виду напоминающие гигантские коконы...


Продолжительность: 01:55:50
Качество видео: HDRip
Перевод: Дублированный

Видео: AVC/H.264, ~679 Kbps, 640х272
Аудиокодек: AAC, 2 ch, ~128 Kbps, (русский)
Код:
Код: Выделить всё
General
Complete name                            : От Прометея к Чужому. Эволюция (1979-2012)\02. Чужой (1979).mp4
Format                                   : MPEG-4
Format profile                           : Base Media
Codec ID                                 : isom
File size                                : 674 MiB
Duration                                 : 1h 55mn
Overall bit rate mode                    : Variable
Overall bit rate                         : 813 Kbps
Movie name                               : Alien (1979) Director's Cut  [NoNaMe Club] [rip by alien.09]
ContentType                              : Short Film
Encoded date                             : UTC 2015-04-30 22:59:38
Tagged date                              : UTC 2015-04-30 23:00:10

Video
ID                                       : 1
Format                                   : AVC
Format/Info                              : Advanced Video Codec
Format profile                           :
Format settings, CABAC                   : Yes
Format settings, ReFrames                : 3 frames
Codec ID                                 : avc1
Codec ID/Info                            : Advanced Video Coding
Duration                                 : 1h 55mn
Bit rate                                 : 679 Kbps
Maximum bit rate                         : 5 288 Kbps
Width                                    : 640 pixels
Height                                   : 272 pixels
Display aspect ratio                     : 2.35:1
Frame rate mode                          : Constant
Frame rate                               : 23.976 fps
Color space                              : YUV
Chroma subsampling                       : 4:2:0
Bit depth                                : 8 bits
Scan type                                : Progressive
Bits/(Pixel*Frame)                       : 0.163
Stream size                              : 562 MiB (83%)
Writing library                          : x264 core 128 r2216M 198a7ea
Encoding settings                        : cabac=1 / ref=3 / deblock=1:0:0 / analyse=0x1:0x131 / me=hex / subme=7 / psy=1 / psy_rd=1.00:0.20 / mixed_ref=1 / me_range=16 / chroma_me=1 / trellis=1 / 8x8dct=0 / cqm=0 / deadzone=21,11 / fast_pskip=1 / chroma_qp_offset=-3 / threads=4 / lookahead_threads=1 / sliced_threads=0 / nr=0 / decimate=1 / interlaced=0 / bluray_compat=0 / constrained_intra=0 / bframes=3 / b_pyramid=0 / b_adapt=2 / b_bias=0 / direct=3 / weightb=1 / open_gop=0 / weightp=0 / keyint=230 / keyint_min=23 / scenecut=40 / intra_refresh=0 / rc_lookahead=40 / rc=2pass / mbtree=1 / bitrate=679 / ratetol=1.0 / qcomp=0.60 / qpmin=10 / qpmax=51 / qpstep=4 / cplxblur=20.0 / qblur=0.5 / vbv_maxrate=5000 / vbv_bufsize=1835 / nal_hrd=none / ip_ratio=1.40 / aq=1:1.00
Language                                 : English
Encoded date                             : UTC 2015-04-30 22:59:38
Tagged date                              : UTC 2015-04-30 22:59:47

Audio
ID                                       : 2
Format                                   : AAC
Format/Info                              : Advanced Audio Codec
Format profile                           : LC
Codec ID                                 : 40
Duration                                 : 1h 55mn
Bit rate mode                            : Variable
Bit rate                                 : 128 Kbps
Maximum bit rate                         : 179 Kbps
Channel(s)                               : 2 channels
Channel positions                        : Front: L R
Sampling rate                            : 48.0 KHz
Compression mode                         : Lossy
Stream size                              : 106 MiB (16%)
Language                                 : Russian
Encoded date                             : UTC 2015-04-30 22:59:44
Tagged date                              : UTC 2015-04-30 22:59:47

Скриншоты:


Чужие / Aliens (1986) HDRip

#77Производство: Великобритания, США
Жанр: Ужасы, Фантастика, Триллер

Режиссер: Джеймс Кэмерон
Актеры: Сигурни Уивер, Майкл Бин, Кэрри Хенн, Пол Райзер, Лэнс Хенриксен, Билл Пэкстон, Дженетт Голдстин, Уильям Хоуп, Эл Мэтьюз, Марк Ролстон
Описание:
Чужой — совершенный организм. Идеальная машина для убийства, чье физическое превосходство сочетается с его феноменальной жаждой уничтожения. Офицер Элен Рипли и команда космического корабля Ностромо один раз уже встретилась с такой тварью. В живых осталась только Элен.

Капсула с Элен найдена спасателями после многих лет блуждания в космосе. Ей сообщают, что планета L.V. 426 колонизирована, и ей придется вернуться туда, где начался ее кошмар, ибо связь с колонистами прервалась. И вот в составе группы космического десанта Рипли отправляется на проклятую планету. Но теперь их там поджидает не один Чужой, а тысячи. Кто сможет выжить в этой войне: чудовища, способные только убивать, или люди, способные мыслить?


Продолжительность: 02:34:27
Качество видео: HDRip
Перевод: Дублированный

Видео: AVC/H.264, ~679 Kbps, 640х352
Аудиокодек: AAC, 2 ch, ~128 Kbps, (русский)
Код:
Код: Выделить всё
General
Complete name                            : От Прометея к Чужому. Эволюция (1979-2012)\03. Чужие (1986).mp4
Format                                   : MPEG-4
Format profile                           : Base Media
Codec ID                                 : isom
File size                                : 898 MiB
Duration                                 : 2h 34mn
Overall bit rate mode                    : Variable
Overall bit rate                         : 813 Kbps
Movie name                               : Aliens (1986) Special Edition  [NoNaMe Club] [rip by alien.09]
ContentType                              : Short Film
Encoded date                             : UTC 2015-04-30 23:01:57
Tagged date                              : UTC 2015-04-30 23:02:34

Video
ID                                       : 1
Format                                   : AVC
Format/Info                              : Advanced Video Codec
Format profile                           :
Format settings, CABAC                   : Yes
Format settings, ReFrames                : 3 frames
Codec ID                                 : avc1
Codec ID/Info                            : Advanced Video Coding
Duration                                 : 2h 34mn
Bit rate                                 : 679 Kbps
Maximum bit rate                         : 5 651 Kbps
Width                                    : 640 pixels
Height                                   : 352 pixels
Display aspect ratio                     : 1.85:1
Frame rate mode                          : Constant
Frame rate                               : 23.976 fps
Color space                              : YUV
Chroma subsampling                       : 4:2:0
Bit depth                                : 8 bits
Scan type                                : Progressive
Bits/(Pixel*Frame)                       : 0.126
Stream size                              : 748 MiB (83%)
Writing library                          : x264 core 128 r2216M 198a7ea
Encoding settings                        : cabac=1 / ref=3 / deblock=1:0:0 / analyse=0x1:0x131 / me=hex / subme=7 / psy=1 / psy_rd=1.00:0.20 / mixed_ref=1 / me_range=16 / chroma_me=1 / trellis=1 / 8x8dct=0 / cqm=0 / deadzone=21,11 / fast_pskip=1 / chroma_qp_offset=-3 / threads=4 / lookahead_threads=1 / sliced_threads=0 / nr=0 / decimate=1 / interlaced=0 / bluray_compat=0 / constrained_intra=0 / bframes=3 / b_pyramid=0 / b_adapt=2 / b_bias=0 / direct=3 / weightb=1 / open_gop=0 / weightp=0 / keyint=230 / keyint_min=23 / scenecut=40 / intra_refresh=0 / rc_lookahead=40 / rc=2pass / mbtree=1 / bitrate=679 / ratetol=1.0 / qcomp=0.60 / qpmin=10 / qpmax=51 / qpstep=4 / cplxblur=20.0 / qblur=0.5 / vbv_maxrate=5000 / vbv_bufsize=1835 / nal_hrd=none / ip_ratio=1.40 / aq=1:1.00
Language                                 : English
Encoded date                             : UTC 2015-04-30 23:01:57
Tagged date                              : UTC 2015-04-30 23:02:09

Audio
ID                                       : 2
Format                                   : AAC
Format/Info                              : Advanced Audio Codec
Format profile                           : LC
Codec ID                                 : 40
Duration                                 : 2h 34mn
Bit rate mode                            : Variable
Bit rate                                 : 128 Kbps
Maximum bit rate                         : 189 Kbps
Channel(s)                               : 2 channels
Channel positions                        : Front: L R
Sampling rate                            : 48.0 KHz
Compression mode                         : Lossy
Stream size                              : 141 MiB (16%)
Language                                 : Russian
Encoded date                             : UTC 2015-04-30 23:02:05
Tagged date                              : UTC 2015-04-30 23:02:09

Скриншоты:


Чужой 3 / Alien 3 (1992) HDRip

#77Производство: США
Жанр: Ужасы, Фантастика, Триллер

Режиссер: Дэвид Финчер
Актеры: Сигурни Уивер, Чарльз С. Даттон, Чарльз Дэнс, Пол МакГэнн, Брайан Гловер, Ральф Браун, Дэниэл Уэбб, Кристофер Джон Филдс, Холт МакКэллани, Лэнс Хенриксен
Описание:
После бегства с планеты «Чужих» космический корабль Рипли терпит катастрофу вблизи так называемой планеты — тюрьмы, места, где отсиживают свой срок убийцы, насильники и прочие отбросы общества. Вместе с Рипли на эту планету попадает зародыш чужого, который и был причиной гибели корабля. Довольно быстро он превращается в гигантскую, зубастую тварь и начинает свое темное дело.

Его жертвами становятся десятки безоружных заключенных. Кровь брызжет фонтаном, куски человеческого мяса разлетаются во все стороны. И кажется, что остановить эту машину смерти не сможет никто, никто кроме отважной, но увы не бессмертной девушки по имени Рипли.


Продолжительность: 02:24:53
Качество видео: HDRip
Перевод: Дублированный

Видео: AVC/H.264, ~679 Kbps, 640х272
Аудиокодек: AAC, 2 ch, ~128 Kbps, (русский)
Код:
Код: Выделить всё
General
Complete name                            : От Прометея к Чужому. Эволюция (1979-2012)\04. Чужой 3 (1992).mp4
Format                                   : MPEG-4
Format profile                           : Base Media
Codec ID                                 : isom
File size                                : 844 MiB
Duration                                 : 2h 24mn
Overall bit rate mode                    : Variable
Overall bit rate                         : 814 Kbps
Movie name                               : Alien III (1992) Special 'Assembly Cut' Edition  [NoNaMe Club] [rip by alien.09]
ContentType                              : Short Film
Encoded date                             : UTC 2015-04-30 23:04:13
Tagged date                              : UTC 2015-04-30 23:05:10

Video
ID                                       : 1
Format                                   : AVC
Format/Info                              : Advanced Video Codec
Format profile                           :
Format settings, CABAC                   : Yes
Format settings, ReFrames                : 3 frames
Codec ID                                 : avc1
Codec ID/Info                            : Advanced Video Coding
Duration                                 : 2h 24mn
Bit rate                                 : 679 Kbps
Maximum bit rate                         : 4 736 Kbps
Width                                    : 640 pixels
Height                                   : 272 pixels
Display aspect ratio                     : 2.35:1
Frame rate mode                          : Constant
Frame rate                               : 23.976 fps
Color space                              : YUV
Chroma subsampling                       : 4:2:0
Bit depth                                : 8 bits
Scan type                                : Progressive
Bits/(Pixel*Frame)                       : 0.163
Stream size                              : 704 MiB (83%)
Writing library                          : x264 core 128 r2216M 198a7ea
Encoding settings                        : cabac=1 / ref=3 / deblock=1:0:0 / analyse=0x1:0x131 / me=hex / subme=7 / psy=1 / psy_rd=1.00:0.20 / mixed_ref=1 / me_range=16 / chroma_me=1 / trellis=1 / 8x8dct=0 / cqm=0 / deadzone=21,11 / fast_pskip=1 / chroma_qp_offset=-3 / threads=4 / lookahead_threads=1 / sliced_threads=0 / nr=0 / decimate=1 / interlaced=0 / bluray_compat=0 / constrained_intra=0 / bframes=3 / b_pyramid=0 / b_adapt=2 / b_bias=0 / direct=3 / weightb=1 / open_gop=0 / weightp=0 / keyint=230 / keyint_min=23 / scenecut=40 / intra_refresh=0 / rc_lookahead=40 / rc=2pass / mbtree=1 / bitrate=679 / ratetol=1.0 / qcomp=0.60 / qpmin=10 / qpmax=51 / qpstep=4 / cplxblur=20.0 / qblur=0.5 / vbv_maxrate=5000 / vbv_bufsize=1835 / nal_hrd=none / ip_ratio=1.40 / aq=1:1.00
Language                                 : English
Encoded date                             : UTC 2015-04-30 23:04:13
Tagged date                              : UTC 2015-04-30 23:04:24

Audio
ID                                       : 2
Format                                   : AAC
Format/Info                              : Advanced Audio Codec
Format profile                           : LC
Codec ID                                 : 40
Duration                                 : 2h 24mn
Bit rate mode                            : Variable
Bit rate                                 : 128 Kbps
Maximum bit rate                         : 218 Kbps
Channel(s)                               : 2 channels
Channel positions                        : Front: L R
Sampling rate                            : 48.0 KHz
Compression mode                         : Lossy
Stream size                              : 133 MiB (16%)
Language                                 : Russian
Encoded date                             : UTC 2015-04-30 23:04:20
Tagged date                              : UTC 2015-04-30 23:04:24

Скриншоты:


Чужой 4: Воскрешение / Alien: Resurrection (1997) HDRip

#77Производство: США
Жанр: Ужасы, Фантастика, Триллер

Режиссер: Жан-Пьер Жёне
Актеры: Сигурни Уивер, Вайнона Райдер, Доминик Пинон, Рон Перлман, Гари Дурдан, Майкл Уинкотт, Ким Флауэрс, Дэн Хедайя, Дж.Э. Фримен, Брэд Дуриф
Описание:
Спустя двести лет после событий, произошедших на планете-тюрьме, группа ученых, опекаемых военным командованием, клонирует Эллен Рипли, чтобы с ее помощью заполучить детеныша инопланетного монстра. Вскоре он уже сам начинает плодиться, производя на свет новую породу — помесь кровожадного пришельца и… человека.


Продолжительность: 01:56:09
Качество видео: HDRip
Перевод: Дублированный

Видео: AVC/H.264, ~679 Kbps, 640х272
Аудиокодек: AAC, 2 ch, ~128 Kbps, (русский)
Код:
Код: Выделить всё
General
Complete name                            : От Прометея к Чужому. Эволюция (1979-2012)\05. Чужой 4 Воскрешение (1997).mp4
Format                                   : MPEG-4
Format profile                           : Base Media
Codec ID                                 : isom
File size                                : 676 MiB
Duration                                 : 1h 56mn
Overall bit rate mode                    : Variable
Overall bit rate                         : 814 Kbps
Movie name                               : Alien: Resurrection (1997) Special Edition  [NoNaMe Club] [rip by alien.09]
ContentType                              : Short Film
Encoded date                             : UTC 2015-04-30 23:06:42
Tagged date                              : UTC 2015-04-30 23:07:28

Video
ID                                       : 1
Format                                   : AVC
Format/Info                              : Advanced Video Codec
Format profile                           :
Format settings, CABAC                   : Yes
Format settings, ReFrames                : 3 frames
Codec ID                                 : avc1
Codec ID/Info                            : Advanced Video Coding
Duration                                 : 1h 56mn
Bit rate                                 : 679 Kbps
Maximum bit rate                         : 4 798 Kbps
Width                                    : 640 pixels
Height                                   : 272 pixels
Display aspect ratio                     : 2.35:1
Frame rate mode                          : Constant
Frame rate                               : 23.976 fps
Color space                              : YUV
Chroma subsampling                       : 4:2:0
Bit depth                                : 8 bits
Scan type                                : Progressive
Bits/(Pixel*Frame)                       : 0.163
Stream size                              : 564 MiB (83%)
Writing library                          : x264 core 128 r2216M 198a7ea
Encoding settings                        : cabac=1 / ref=3 / deblock=1:0:0 / analyse=0x1:0x131 / me=hex / subme=7 / psy=1 / psy_rd=1.00:0.20 / mixed_ref=1 / me_range=16 / chroma_me=1 / trellis=1 / 8x8dct=0 / cqm=0 / deadzone=21,11 / fast_pskip=1 / chroma_qp_offset=-3 / threads=4 / lookahead_threads=1 / sliced_threads=0 / nr=0 / decimate=1 / interlaced=0 / bluray_compat=0 / constrained_intra=0 / bframes=3 / b_pyramid=0 / b_adapt=2 / b_bias=0 / direct=3 / weightb=1 / open_gop=0 / weightp=0 / keyint=230 / keyint_min=23 / scenecut=40 / intra_refresh=0 / rc_lookahead=40 / rc=2pass / mbtree=1 / bitrate=679 / ratetol=1.0 / qcomp=0.60 / qpmin=10 / qpmax=51 / qpstep=4 / cplxblur=20.0 / qblur=0.5 / vbv_maxrate=5000 / vbv_bufsize=1835 / nal_hrd=none / ip_ratio=1.40 / aq=1:1.00
Language                                 : English
Encoded date                             : UTC 2015-04-30 23:06:42
Tagged date                              : UTC 2015-04-30 23:06:51

Audio
ID                                       : 2
Format                                   : AAC
Format/Info                              : Advanced Audio Codec
Format profile                           : LC
Codec ID                                 : 40
Duration                                 : 1h 56mn
Bit rate mode                            : Variable
Bit rate                                 : 128 Kbps
Maximum bit rate                         : 201 Kbps
Channel(s)                               : 2 channels
Channel positions                        : Front: L R
Sampling rate                            : 48.0 KHz
Compression mode                         : Lossy
Stream size                              : 106 MiB (16%)
Language                                 : Russian
Encoded date                             : UTC 2015-04-30 23:06:48
Tagged date                              : UTC 2015-04-30 23:06:51

Скриншоты:


 
Не забывайте говорить Спасибо. Не уходите с раздачи!   
Торрент: Зарегистрирован [02 май 2015, 07:39] Для скачивания .torrent
необходима регистрация
Или скачать с помощью
MediaGet
Статус:
Проверен
 
.torrent скачан: 0 раз
Хэш: 4e6d406b8daa59d827b6be11b0a7192d42dc20a9
Размер: 3.72 ГБ (3 996 730 780 байт)
Стать Автором раздачи
 
 
Раздал: 6.67 ГБ
Скачал: 302.5 МБ
Ратио: 22.576
Сообщения: 374198
Зарегистрирован: 17 апр 2014, 11:05


  • Похожие торренты
    Ответы
    Просмотры
    Последнее сообщение

Вернуться в Видео для мобильных устройств

Ресурс не предоставляет электронные версии произведений, а занимается лишь коллекционированием и каталогизацией ссылок, присылаемых и публикуемых на форуме нашими читателями. Если вы являетесь правообладателем какого-либо представленного материала и не желаете чтобы ссылка на него находилась в нашем каталоге, свяжитесь с нами и мы незамедлительно удалим её. Файлы для обмена на трекере предоставлены пользователями сайта, и администрация не несёт ответственности за их содержание. Просьба не заливать файлы, защищенные авторскими правами, а также файлы нелегального содержания!
cron