ВИА Гра - Это было прекрасно (2015) HDTVRip [H.264/1080p]

 
 Статистика раздачи 
Размер: 286.28 МБ   |  Зарегистрирован: 30 апр 2015, 22:46   |   .torrent скачан: 3 раз
Сидеров: 1  [ 0 байт/сек ]     Личеров: 0  [ 0 байт/сек ]  
  

ВИА Гра - Это было прекрасно (2015) HDTVRip [H.264/1080p]

Сообщение Thistoll » 30 апр 2015, 22:46

ВИА Гра - Это было прекрасно (2015) HDTVRip [H.264/1080p]

Исполнитель: ВИА Гра
Год выпуска: 2015
Жанр: Pop
Продолжительность: 00:04:49

Описание: группа «ВИА Гра» Анастасия Кожевникова, Эрика Герцег и Миша Романова. представила клип к новой композиции «Это было прекрасно», автором которой является Константин Меладзе. Режиссером видео стал известный украинский клипмейкер Сергей Солодкий. Мастер уже не впервые работает с группой. Так, ранее Солодкий снимал ролик к песням «Виа Гры» «У меня появился другой», «День без тебя» и Сумасшедший.
Видео к песне «Это было прекрасно» великолепно сочетается с лирической композицией, наполненной болью и безысходностью. В клипе девушке демонстрируют тяготы неразделенной любви. Каждая из них по очереди показана в постели с красивым молодым человеком. Для каждой он является смыслом жизни. А девушки для партнера остаются лишь сексуальным развлечением. После проведенного вместе времени мужчина уходит, наградив возлюбленную циничным и холодным взглядом. Она же, преклоняясь перед любимым, падает у его ног.

Качество видео: HDTVRip [1080p]
Видеокодек: MPEG-4 AVC/H.264
Битрейт видео: ~ 7988 Кбит/с
Размер кадра: 1920x1080 (16:9), 25,000 кадров/с
Аудиокодек: AAC, 2 ch, stereo
Битрейт аудио: 317 Кбит/с
Код:
Код: Выделить всё
Общее
Полное имя                               : ВИА Гра - Это было прекрасно.mp4
Формат                                   : MPEG-4
Профиль формата                          : Base Media / Version 2
Идентификатор кодека                     : mp42
Размер файла                             : 286 Мбайт
Продолжительность                        : 4 м. 49 с.
Режим общего битрейта                    : Переменный
Общий поток                              : 8310 Кбит/сек
Дата кодирования                         : UTC 2015-04-29 09:34:46
Дата пометки                             : UTC 2015-04-29 09:34:50
©TIM                                     : 00:00:00:00
©TSC                                     : 25
©TSZ                                     : 1

Видео
Идентификатор                            : 1
Формат                                   : AVC
Формат/Информация                        : Advanced Video Codec
Профиль формата                          :
Параметр CABAC формата                   : Да
Параметр ReFrames формата                : 3 кадра
Идентификатор кодека                     : avc1
Идентификатор кодека/Информация          : Advanced Video Coding
Продолжительность                        : 4 м. 49 с.
Битрейт                                  : 7988 Кбит/сек
Ширина                                   : 1920 пикселей
Высота                                   : 1080 пикселей
Соотношение сторон                       : 16:9
Режим частоты кадров                     : Постоянный
Частота кадров                           : 25,000 кадров/сек
Стандарт вещания                         : PAL
Цветовое пространство                    : YUV
Субдискретизация насыщенности            : 4:2:0
Битовая глубина                          : 8 бит
Тип развёртки                            : Прогрессивная
Бит/(Пиксели*Кадры)                      : 0.154
Размер потока                            : 275 Мбайт (96%)
Язык                                     : English
Дата кодирования                         : UTC 2015-04-29 09:34:46
Дата пометки                             : UTC 2015-04-29 09:34:46
Основные цвета                           : BT.709
Характеристики трансфера                 : BT.709
Коэффициенты матрицы                     : BT.709
colour_range                             : Limited

Аудио
Идентификатор                            : 2
Формат                                   : AAC
Формат/Информация                        : Advanced Audio Codec
Профиль формата                          : LC
Идентификатор кодека                     : 40
Продолжительность                        : 4 м. 49 с.
Продолжительность оригинала              : 4 м. 49 с.
Вид битрейта                             : Переменный
Битрейт                                  : 317 Кбит/сек
Максимальный битрейт                     : 406 Кбит/сек
Каналы                                   : 2 канала
Расположение каналов                     : Front: L R
Частота                                  : 48,0 КГц
Метод сжатия                             : С потерями
Размер потока                            : 10,9 Мбайт (4%)
Размер потока оригинала                  : 10,9 Мбайт (4%)
Язык                                     : English
Дата кодирования                         : UTC 2015-04-29 09:34:46
Дата пометки                             : UTC 2015-04-29 09:34:46

Скриншоты:

 
Не забывайте говорить Спасибо. Не уходите с раздачи!   
Торрент: Зарегистрирован [30 апр 2015, 22:46] Скачать торрент
Скачать торрент
[ Размер 11.93 КБ / Просмотров 25 ]
Статус:
Проверен
 
.torrent скачан: 3 раз
Хэш: c41479c39ab48aa6a07118d4d3c656627816c014
Размер: 286.28 МБ (300 183 794 байт)
Стать Автором раздачи
 
 
Раздал: 6.67 ГБ
Скачал: 302.5 МБ
Ратио: 22.576
Сообщения: 374198
Зарегистрирован: 17 апр 2014, 11:05


  • Похожие торренты
    Ответы
    Просмотры
    Последнее сообщение

Вернуться в Музыкальные клипы (транзит)

Ресурс не предоставляет электронные версии произведений, а занимается лишь коллекционированием и каталогизацией ссылок, присылаемых и публикуемых на форуме нашими читателями. Если вы являетесь правообладателем какого-либо представленного материала и не желаете чтобы ссылка на него находилась в нашем каталоге, свяжитесь с нами и мы незамедлительно удалим её. Файлы для обмена на трекере предоставлены пользователями сайта, и администрация не несёт ответственности за их содержание. Просьба не заливать файлы, защищенные авторскими правами, а также файлы нелегального содержания!
cron