Фантомас: Полная коллекция / Fantomas: Full collection (1964-1967) HDRip [H.264] [MP4|640х272]

 
 Статистика раздачи 
Размер: 1.73 ГБ   |  Зарегистрирован: 30 апр 2015, 21:57   |   .torrent скачан: 0 раз
Сидеров: 1  [ 0 байт/сек ]     Личеров: 0  [ 0 байт/сек ]  
  

Фантомас: Полная коллекция / Fantomas: Full collection (1964-1967) HDRip [H.264] [MP4|640х272]

Сообщение Thistoll » 30 апр 2015, 21:57

Фантомас: Полная коллекция / Fantomas: Full collection (1964-1967) HDRip

Производство: Франция, Италия
Жанр: Комедия, Криминал, Приключения

Режиссер: Андре Юнебель
Актеры: Луи Де Фюнес, Жан Маре, Милен Демонже, Жак Динам, Мари-Элен Арно, Кристиан Тома, Альберт Даньян, Оливье Де Фюнес, Жан-Роже Коссимон, Робер Дальбан и другие.

Описание:
Коллекция из трёх фильмов о невероятных приключениях комиссара Жюва, преследующего неуловимого преступника - Фантомаса...

Продолжительность: 01:44:15; 01:38:49; 01:40:58
Качество видео: HDRip
Перевод: Дублированный (советский дубляж)

Видео: AVC/H.264, 640x272, ~679 Kbps
Аудио: AAC, 2 channels, ~128 Kbps
Фантомас / Fantomas (1964) HDRip

#77Произвoдство: Франция, Италия
Жaнр: Комедия, Криминал, Приключения

Режиcсер: Андре Юнебель
Актeры: Луи Де Фюнес, Жан Маре, Милен Демонже, Жак Динам, Мари-Элен Арно, Кристиан Тома, Альберт Даньян, Оливье Де Фюнес, Жан-Роже Коссимон, Робер Дальбан

Описaние:
Первый фильм трилогии о невероятных приключениях комиссара Жюва, преследующего неуловимого преступника Фантомаса. Париж потрясен сенсационными и дерзкими преступлениями, совершенными таинственным злодеем по имени Фантомас. На его поимку брошены все силы полиции, но Фантомас практически неуловим — он все время меняет облик, ловко ускользая из рук правосудия. Напасть на его след удается только комиссару Жюву с помощью Элен, подруги похищенного журналиста Фандора...



Продoлжительность: 01:44:15
Качествo видео: HDRip
Перевoд: Дублированный (советский дубляж)

Видео: AVC/H.264, ~679 Kbps, 640х272
Аудио: AAC, 2 ch, ~128 Kbps
Код:
Код: Выделить всё
General
Complete name                            : Фантомас. Коллекция (1964-1967)\01. Фантомас (1964).mp4
Format                                   : MPEG-4
Format profile                           : Base Media
Codec ID                                 : isom
File size                                : 607 MiB
Duration                                 : 1h 44mn
Overall bit rate mode                    : Variable
Overall bit rate                         : 814 Kbps
Movie name                               : Fantômas (1964) [NoNaMe Club] [rip by alien.09]
ContentType                              : Short Film
Encoded date                             : UTC 2015-04-27 20:29:10
Tagged date                              : UTC 2015-04-27 20:29:37

Video
ID                                       : 1
Format                                   : AVC
Format/Info                              : Advanced Video Codec
Format profile                           :
Format settings, CABAC                   : Yes
Format settings, ReFrames                : 3 frames
Codec ID                                 : avc1
Codec ID/Info                            : Advanced Video Coding
Duration                                 : 1h 44mn
Bit rate                                 : 679 Kbps
Maximum bit rate                         : 3 515 Kbps
Width                                    : 640 pixels
Height                                   : 272 pixels
Display aspect ratio                     : 2.35:1
Frame rate mode                          : Constant
Frame rate                               : 24.000 fps
Color space                              : YUV
Chroma subsampling                       : 4:2:0
Bit depth                                : 8 bits
Scan type                                : Progressive
Bits/(Pixel*Frame)                       : 0.163
Stream size                              : 506 MiB (83%)
Writing library                          : x264 core 128 r2216M 198a7ea
Encoding settings                        : cabac=1 / ref=3 / deblock=1:0:0 / analyse=0x1:0x131 / me=hex / subme=7 / psy=1 / psy_rd=1.00:0.20 / mixed_ref=1 / me_range=16 / chroma_me=1 / trellis=1 / 8x8dct=0 / cqm=0 / deadzone=21,11 / fast_pskip=1 / chroma_qp_offset=-3 / threads=4 / lookahead_threads=1 / sliced_threads=0 / nr=0 / decimate=1 / interlaced=0 / bluray_compat=0 / constrained_intra=0 / bframes=3 / b_pyramid=0 / b_adapt=2 / b_bias=0 / direct=3 / weightb=1 / open_gop=0 / weightp=0 / keyint=240 / keyint_min=24 / scenecut=40 / intra_refresh=0 / rc_lookahead=40 / rc=2pass / mbtree=1 / bitrate=679 / ratetol=1.0 / qcomp=0.60 / qpmin=10 / qpmax=51 / qpstep=4 / cplxblur=20.0 / qblur=0.5 / vbv_maxrate=5000 / vbv_bufsize=1835 / nal_hrd=none / ip_ratio=1.40 / aq=1:1.00
Language                                 : French
Encoded date                             : UTC 2015-04-27 20:29:10
Tagged date                              : UTC 2015-04-27 20:29:18

Audio
ID                                       : 2
Format                                   : AAC
Format/Info                              : Advanced Audio Codec
Format profile                           : LC
Codec ID                                 : 40
Duration                                 : 1h 44mn
Bit rate mode                            : Variable
Bit rate                                 : 128 Kbps
Maximum bit rate                         : 180 Kbps
Channel(s)                               : 2 channels
Channel positions                        : Front: L R
Sampling rate                            : 48.0 KHz
Compression mode                         : Lossy
Stream size                              : 95.4 MiB (16%)
Language                                 : Russian
Encoded date                             : UTC 2015-04-27 20:29:16
Tagged date                              : UTC 2015-04-27 20:29:18

Скриншоты:


Фантомас разбушевался / Fantomas se dechaine (1964) HDRip

#77Произвoдство: Франция, Италия
Жaнр: Комедия, Криминал, Приключения

Режиcсер: Андре Юнебель
Актeры:Луи Де Фюнес, Жан Маре, Милен Демонже, Жак Динам, Мари-Элен Арно, Кристиан Тома, Альберт Даньян, Оливье Де Фюнес, Жан-Роже Коссимон, Робер Дальбан

Описaние:
Спустя год после того, как комиссар Жюв и репортер Фандор упустили Фантомаса, суперпреступник вновь дал о себе знать, похитив известного ученого. Следующей жертвой должен стать его помощник, профессор Лефевр. Фандор, выдавая себя за профессора, едет в Рим и… попадает прямо в руки Фантомаса. Спеша на выручку, Жюв и Элен сами попадают в ловушку. Теперь приходится думать, как спасаться самим и сбежать из логова Фантомаса...



Продoлжительность: 01:38:49
Качествo видео: HDRip
Перeвод: Дублированный (советский дубляж)

Видео: AVC/H.264, ~679 Kbps, 640х272
Аудио: AAC, 2 ch, ~128 Kbps
Код:
Код: Выделить всё
General
Complete name                            : Фантомас. Коллекция (1964-1967)\02. Фантомас разбушевался (1965).mp4
Format                                   : MPEG-4
Format profile                           : Base Media
Codec ID                                 : isom
File size                                : 575 MiB
Duration                                 : 1h 38mn
Overall bit rate mode                    : Variable
Overall bit rate                         : 814 Kbps
Movie name                               : Fantomas se dechaine (1965) [NoNaMe Club] [rip by alien.09]
ContentType                              : Short Film
Encoded date                             : UTC 2015-04-27 20:33:42
Tagged date                              : UTC 2015-04-27 20:34:05

Video
ID                                       : 1
Format                                   : AVC
Format/Info                              : Advanced Video Codec
Format profile                           :
Format settings, CABAC                   : Yes
Format settings, ReFrames                : 3 frames
Codec ID                                 : avc1
Codec ID/Info                            : Advanced Video Coding
Duration                                 : 1h 38mn
Bit rate                                 : 679 Kbps
Maximum bit rate                         : 3 664 Kbps
Width                                    : 640 pixels
Height                                   : 272 pixels
Display aspect ratio                     : 2.35:1
Frame rate mode                          : Constant
Frame rate                               : 24.000 fps
Color space                              : YUV
Chroma subsampling                       : 4:2:0
Bit depth                                : 8 bits
Scan type                                : Progressive
Bits/(Pixel*Frame)                       : 0.163
Stream size                              : 480 MiB (83%)
Writing library                          : x264 core 128 r2216M 198a7ea
Encoding settings                        : cabac=1 / ref=3 / deblock=1:0:0 / analyse=0x1:0x131 / me=hex / subme=7 / psy=1 / psy_rd=1.00:0.20 / mixed_ref=1 / me_range=16 / chroma_me=1 / trellis=1 / 8x8dct=0 / cqm=0 / deadzone=21,11 / fast_pskip=1 / chroma_qp_offset=-3 / threads=4 / lookahead_threads=1 / sliced_threads=0 / nr=0 / decimate=1 / interlaced=0 / bluray_compat=0 / constrained_intra=0 / bframes=3 / b_pyramid=0 / b_adapt=2 / b_bias=0 / direct=3 / weightb=1 / open_gop=0 / weightp=0 / keyint=240 / keyint_min=24 / scenecut=40 / intra_refresh=0 / rc_lookahead=40 / rc=2pass / mbtree=1 / bitrate=679 / ratetol=1.0 / qcomp=0.60 / qpmin=10 / qpmax=51 / qpstep=4 / cplxblur=20.0 / qblur=0.5 / vbv_maxrate=5000 / vbv_bufsize=1835 / nal_hrd=none / ip_ratio=1.40 / aq=1:1.00
Language                                 : French
Encoded date                             : UTC 2015-04-27 20:33:42
Tagged date                              : UTC 2015-04-27 20:33:50

Audio
ID                                       : 2
Format                                   : AAC
Format/Info                              : Advanced Audio Codec
Format profile                           : LC
Codec ID                                 : 40
Duration                                 : 1h 38mn
Bit rate mode                            : Variable
Bit rate                                 : 128 Kbps
Maximum bit rate                         : 186 Kbps
Channel(s)                               : 2 channels
Channel positions                        : Front: L R
Sampling rate                            : 48.0 KHz
Compression mode                         : Lossy
Stream size                              : 90.5 MiB (16%)
Language                                 : Russian
Encoded date                             : UTC 2015-04-27 20:33:48
Tagged date                              : UTC 2015-04-27 20:33:50

Скриншоты:


Фантомас / Fantomas (1964) HDRip

#77Произвoдство: Франция, Италия
Жaнр: Комедия, Криминал, Приключения

Режиcсер: Андре Юнебель
Актeры:Луи Де Фюнес, Жан Маре, Милен Демонже, Жак Динам, Мари-Элен Арно, Кристиан Тома, Альберт Даньян, Оливье Де Фюнес, Жан-Роже Коссимон, Робер Дальбан

Описaние:
На этот раз злодей с тысячью лицами решает обложить данью богатейших людей мира, а взамен гарантирует им жизнь. Комиссар Жюв со своими верными друзьями, Фандором и Элен, прибывает в шотландский замок для того, чтобы встать на защиту его владельца и снова попытаться поймать Фантомаса.



Продoлжительность: 01:40:58
Качествo видео: HDRip
Перевoд: Дублированный (советский дубляж)

Видео: AVC/H.264, ~679 Kbps, 640х272
Аудио: AAC, 2 ch, ~128 Kbps
Код:
Код: Выделить всё
General
Complete name                            : Фантомас. Коллекция (1964-1967)\03. Фантомас против Скотланд Ярда (1967).mp4
Format                                   : MPEG-4
Format profile                           : Base Media
Codec ID                                 : isom
File size                                : 588 MiB
Duration                                 : 1h 40mn
Overall bit rate mode                    : Variable
Overall bit rate                         : 814 Kbps
Movie name                               : Fantômas contre Scotland Yard (1967) [NoNaMe Club] [rip by alien.09]
ContentType                              : Short Film
Encoded date                             : UTC 2015-04-27 20:30:58
Tagged date                              : UTC 2015-04-27 20:31:20

Video
ID                                       : 1
Format                                   : AVC
Format/Info                              : Advanced Video Codec
Format profile                           :
Format settings, CABAC                   : Yes
Format settings, ReFrames                : 3 frames
Codec ID                                 : avc1
Codec ID/Info                            : Advanced Video Coding
Duration                                 : 1h 40mn
Bit rate                                 : 679 Kbps
Maximum bit rate                         : 4 273 Kbps
Width                                    : 640 pixels
Height                                   : 272 pixels
Display aspect ratio                     : 2.35:1
Frame rate mode                          : Constant
Frame rate                               : 24.000 fps
Color space                              : YUV
Chroma subsampling                       : 4:2:0
Bit depth                                : 8 bits
Scan type                                : Progressive
Bits/(Pixel*Frame)                       : 0.163
Stream size                              : 490 MiB (83%)
Writing library                          : x264 core 128 r2216M 198a7ea
Encoding settings                        : cabac=1 / ref=3 / deblock=1:0:0 / analyse=0x1:0x131 / me=hex / subme=7 / psy=1 / psy_rd=1.00:0.20 / mixed_ref=1 / me_range=16 / chroma_me=1 / trellis=1 / 8x8dct=0 / cqm=0 / deadzone=21,11 / fast_pskip=1 / chroma_qp_offset=-3 / threads=4 / lookahead_threads=1 / sliced_threads=0 / nr=0 / decimate=1 / interlaced=0 / bluray_compat=0 / constrained_intra=0 / bframes=3 / b_pyramid=0 / b_adapt=2 / b_bias=0 / direct=3 / weightb=1 / open_gop=0 / weightp=0 / keyint=240 / keyint_min=24 / scenecut=40 / intra_refresh=0 / rc_lookahead=40 / rc=2pass / mbtree=1 / bitrate=679 / ratetol=1.0 / qcomp=0.60 / qpmin=10 / qpmax=51 / qpstep=4 / cplxblur=20.0 / qblur=0.5 / vbv_maxrate=5000 / vbv_bufsize=1835 / nal_hrd=none / ip_ratio=1.40 / aq=1:1.00
Language                                 : French
Encoded date                             : UTC 2015-04-27 20:30:58
Tagged date                              : UTC 2015-04-27 20:31:06

Audio
ID                                       : 2
Format                                   : AAC
Format/Info                              : Advanced Audio Codec
Format profile                           : LC
Codec ID                                 : 40
Duration                                 : 1h 40mn
Bit rate mode                            : Variable
Bit rate                                 : 128 Kbps
Maximum bit rate                         : 182 Kbps
Channel(s)                               : 2 channels
Channel positions                        : Front: L R
Sampling rate                            : 48.0 KHz
Compression mode                         : Lossy
Stream size                              : 92.4 MiB (16%)
Language                                 : Russian
Encoded date                             : UTC 2015-04-27 20:31:03
Tagged date                              : UTC 2015-04-27 20:31:06

Скриншоты:



Скриншоты:



Время раздачи: 24/7 до трёх скачавших
 
Не забывайте говорить Спасибо. Не уходите с раздачи!   
Торрент: Зарегистрирован [30 апр 2015, 21:57] Для скачивания .torrent
необходима регистрация
Или скачать с помощью
MediaGet
Статус:
Проверен
 
.torrent скачан: 0 раз
Хэш: 3c3828fab47400864ac7f3c11de20c2548440a39
Размер: 1.73 ГБ (1 856 600 385 байт)
Стать Автором раздачи
 
 
Раздал: 6.67 ГБ
Скачал: 302.5 МБ
Ратио: 22.576
Сообщения: 374198
Зарегистрирован: 17 апр 2014, 11:05


  • Похожие торренты
    Ответы
    Просмотры
    Последнее сообщение

Вернуться в Видео для мобильных устройств

Ресурс не предоставляет электронные версии произведений, а занимается лишь коллекционированием и каталогизацией ссылок, присылаемых и публикуемых на форуме нашими читателями. Если вы являетесь правообладателем какого-либо представленного материала и не желаете чтобы ссылка на него находилась в нашем каталоге, свяжитесь с нами и мы незамедлительно удалим её. Файлы для обмена на трекере предоставлены пользователями сайта, и администрация не несёт ответственности за их содержание. Просьба не заливать файлы, защищенные авторскими правами, а также файлы нелегального содержания!
cron