Отец солдата (1964) HDTVRip [H.264] [MP4|1060x720]

 
 Статистика раздачи 
Размер: 971.32 МБ   |  Зарегистрирован: 29 апр 2015, 00:44   |   .torrent скачан: 0 раз
Сидеров: 1  [ 0 байт/сек ]     Личеров: 1  [ 0 байт/сек ]  
  

Отец солдата (1964) HDTVRip [H.264] [MP4|1060x720]

Сообщение Thistoll » 29 апр 2015, 00:44

Отец солдата (1964) HDTVRip

Производство: СССР
Жанр: Военный, Драма

Режиссер: Резо Чхеидзе
Актеры: Серго Закариадзе, Владимир Привальцев, Александр Назаров, Александр Лебедев, Юрий Дроздов, Владимир Колокольцев, Виктор Уральский, Кетеван Бочоришвили, Владимир Пицек, Пётр Любешкин, Николай Бармин, Инна Выходцева, Елена Максимова, Роман Вильдан, Раднэр Муратов, Бондо Гогинава, Виктор Мизин, Валентин Куклик, Гижури Кобахидзе, Ираклий Кокрашвили, Иван Косых, Виктор Косых, Татьяна Сапожникова, Вячеслав Жариков, Юрий Бондаренко

Описание:
Противоестественность войны для человека — труженика, созидателя — показана на примере судьбы старого крестьянина-виноградаря из Грузии. Георгий Махарашвили едет повидаться с сыном, который ранен и находится в госпитале. Но пока отец добирается до места назначения, сын снова отправляется на фронт. Однако Георгий уже не может вернуться в родную деревню. Он вместе с советской армией проходит весь ее путь — путь до Берлина, до Победы над фашизмом.


Продолжительность: 01:26:36
Качество видео: HDTVRip

Видео: AVC/H.264, ~1432 Kbps, 1 060х720
Аудио: AAC, 2 ch, ~128 Kbps
Код:
Код: Выделить всё
General
Complete name                            : C:\Users\Кыс\Desktop\Отец солдата (1964).mp4
Format                                   : MPEG-4
Format profile                           : Base Media
Codec ID                                 : isom
File size                                : 971 MiB
Duration                                 : 1h 26mn
Overall bit rate mode                    : Variable
Overall bit rate                         : 1 568 Kbps
Movie name                               : Отец солдата (1964) [NoNaMe Club] [rip by alien.09]
ContentType                              : Short Film
Encoded date                             : UTC 2015-04-28 17:35:43
Tagged date                              : UTC 2015-04-28 17:36:26

Video
ID                                       : 1
Format                                   : AVC
Format/Info                              : Advanced Video Codec
Format profile                           :
Format settings, CABAC                   : Yes
Format settings, ReFrames                : 3 frames
Codec ID                                 : avc1
Codec ID/Info                            : Advanced Video Coding
Duration                                 : 1h 26mn
Bit rate                                 : 1 432 Kbps
Maximum bit rate                         : 5 435 Kbps
Width                                    : 1 060 pixels
Height                                   : 720 pixels
Display aspect ratio                     : 3:2
Frame rate mode                          : Constant
Frame rate                               : 25.000 fps
Color space                              : YUV
Chroma subsampling                       : 4:2:0
Bit depth                                : 8 bits
Scan type                                : Progressive
Bits/(Pixel*Frame)                       : 0.075
Stream size                              : 887 MiB (91%)
Writing library                          : x264 core 116 r2019M 9cc407d
Encoding settings                        : cabac=1 / ref=3 / deblock=1:-1:-1 / analyse=0x1:0x131 / me=hex / subme=7 / psy=1 / psy_rd=1.00:0.15 / mixed_ref=1 / me_range=16 / chroma_me=1 / trellis=1 / 8x8dct=0 / cqm=0 / deadzone=21,11 / fast_pskip=1 / chroma_qp_offset=-3 / threads=12 / sliced_threads=0 / nr=0 / decimate=1 / interlaced=0 / bluray_compat=0 / constrained_intra=0 / bframes=3 / b_pyramid=0 / b_adapt=2 / b_bias=0 / direct=3 / weightb=1 / open_gop=0 / weightp=0 / keyint=250 / keyint_min=25 / scenecut=40 / intra_refresh=0 / rc_lookahead=40 / rc=2pass / mbtree=1 / bitrate=1432 / ratetol=1.0 / qcomp=0.60 / qpmin=10 / qpmax=51 / qpstep=4 / cplxblur=20.0 / qblur=0.5 / vbv_maxrate=5000 / vbv_bufsize=1835 / nal_hrd=none / ip_ratio=1.40 / aq=1:1.00
Language                                 : Russian
Encoded date                             : UTC 2015-04-28 17:35:43
Tagged date                              : UTC 2015-04-28 17:35:59

Audio
ID                                       : 2
Format                                   : AAC
Format/Info                              : Advanced Audio Codec
Format profile                           : LC
Codec ID                                 : 40
Duration                                 : 1h 26mn
Bit rate mode                            : Variable
Bit rate                                 : 128 Kbps
Maximum bit rate                         : 191 Kbps
Channel(s)                               : 2 channels
Channel positions                        : Front: L R
Sampling rate                            : 48.0 KHz
Compression mode                         : Lossy
Stream size                              : 79.3 MiB (8%)
Language                                 : Russian
Encoded date                             : UTC 2015-04-28 17:35:57
Tagged date                              : UTC 2015-04-28 17:35:59

Скриншоты:



Время раздачи: 24/7 до трёх скачавших
 
Не забывайте говорить Спасибо. Не уходите с раздачи!   
Торрент: Зарегистрирован [29 апр 2015, 00:44] Для скачивания .torrent
необходима регистрация
Или скачать с помощью
MediaGet
Статус:
Проверен
 
.torrent скачан: 0 раз
Хэш: 818f08b705a63da70bd87aa8220ffa1d42c74195
Размер: 971.32 МБ (1 018 504 902 байт)
Стать Автором раздачи
 
 
Раздал: 6.67 ГБ
Скачал: 302.5 МБ
Ратио: 22.576
Сообщения: 374198
Зарегистрирован: 17 апр 2014, 11:05


  • Похожие торренты
    Ответы
    Просмотры
    Последнее сообщение

Вернуться в Видео для мобильных устройств

Ресурс не предоставляет электронные версии произведений, а занимается лишь коллекционированием и каталогизацией ссылок, присылаемых и публикуемых на форуме нашими читателями. Если вы являетесь правообладателем какого-либо представленного материала и не желаете чтобы ссылка на него находилась в нашем каталоге, свяжитесь с нами и мы незамедлительно удалим её. Файлы для обмена на трекере предоставлены пользователями сайта, и администрация не несёт ответственности за их содержание. Просьба не заливать файлы, защищенные авторскими правами, а также файлы нелегального содержания!
cron