Ольга Романовская - Красивые слова (2015) HDTVRip [H.264/1080p]

 
 Статистика раздачи 
Размер: 230.13 МБ   |  Зарегистрирован: 29 апр 2015, 00:36   |   .torrent скачан: 0 раз
Сидеров: 1  [ 0 байт/сек ]     Личеров: 0  [ 0 байт/сек ]  
  

Ольга Романовская - Красивые слова (2015) HDTVRip [H.264/1080p]

Сообщение Thistoll » 29 апр 2015, 00:36

Ольга Романовская - Красивые слова (2015) HDTVRip [H.264/1080p]

Исполнитель: Ольга Романовская
Год выпуска: 2015
Жанр: Pop
Продолжительность: 00:03:50

Описание: Экс-участница группы «ВИА Гра», а ныне сольная исполнительница и дизайнер модной одежды Ольга Романовская, представила клип к песне «Красивые слова». Руководил съемками видеоролика известный клипмейкер и продюсер Евгений Тимохин. Евгений работает со многими известными личностями украинского и российского шоу-бизнеса. Среди его клиентов Алена Гребенюк, Анна Седокова, Николай Басков, коллектив KAZAKY, Дима Билан и многие другие. видео повергло многих зрителей в шок. На организованной сцене съемочного павильона расположилась группа музыкантов и бэк-вокалистов. Все мужчины одеты в экстравагантные наряды. В центре, у микрофона, исполняет песню полуобнаженная Романовская. Камера оператора акцентирует внимание зрителей на полуразведенных бедрах длинноногой певицы. В конце клипа все участники, включая Ольгу, оказываются абсолютно голыми. Мужчины прикрывают свои достоинства руками или музыкальными инструментами, а вот Романовская, похоже, абсолютно не смущается своей наготы. Хотя, желающих лицезреть абсолютную порнографию ждет разочарование: интимные места артистки прикрывает цензурная табличка.

Качество видео: HDTVRip [1080p]
Видеокодек: MPEG-4 AVC/H.264
Битрейт видео: ~ 8072 Кбит/с
Размер кадра: 1920x1080 (16:9), 25,000 кадров/с
Аудиокодек: AAC, 2 ch, stereo
Битрейт аудио: 317 Кбит/с
Код:
Код: Выделить всё
Общее
Полное имя                               : Ольга Романовская - Красивые слова.mp4
Формат                                   : MPEG-4
Профиль формата                          : Base Media / Version 2
Идентификатор кодека                     : mp42
Размер файла                             : 230 Мбайт
Продолжительность                        : 3 м. 50 с.
Режим общего битрейта                    : Переменный
Общий поток                              : 8394 Кбит/сек
Дата кодирования                         : UTC 2015-04-22 12:57:05
Дата пометки                             : UTC 2015-04-22 12:57:08
©TIM                                     : 00:00:00:00
©TSC                                     : 25
©TSZ                                     : 1

Видео
Идентификатор                            : 1
Формат                                   : AVC
Формат/Информация                        : Advanced Video Codec
Профиль формата                          :
Параметр CABAC формата                   : Да
Параметр ReFrames формата                : 3 кадра
Идентификатор кодека                     : avc1
Идентификатор кодека/Информация          : Advanced Video Coding
Продолжительность                        : 3 м. 50 с.
Битрейт                                  : 8072 Кбит/сек
Ширина                                   : 1920 пикселей
Высота                                   : 1080 пикселей
Соотношение сторон                       : 16:9
Режим частоты кадров                     : Постоянный
Частота кадров                           : 25,000 кадров/сек
Стандарт вещания                         : PAL
Цветовое пространство                    : YUV
Субдискретизация насыщенности            : 4:2:0
Битовая глубина                          : 8 бит
Тип развёртки                            : Прогрессивная
Бит/(Пиксели*Кадры)                      : 0.156
Размер потока                            : 221 Мбайт (96%)
Язык                                     : English
Дата кодирования                         : UTC 2015-04-22 12:57:05
Дата пометки                             : UTC 2015-04-22 12:57:05
Основные цвета                           : BT.709
Характеристики трансфера                 : BT.709
Коэффициенты матрицы                     : BT.709
colour_range                             : Limited

Аудио
Идентификатор                            : 2
Формат                                   : AAC
Формат/Информация                        : Advanced Audio Codec
Профиль формата                          : LC
Идентификатор кодека                     : 40
Продолжительность                        : 3 м. 50 с.
Продолжительность оригинала              : 3 м. 50 с.
Вид битрейта                             : Переменный
Битрейт                                  : 317 Кбит/сек
Максимальный битрейт                     : 408 Кбит/сек
Каналы                                   : 2 канала
Расположение каналов                     : Front: L R
Частота                                  : 48,0 КГц
Метод сжатия                             : С потерями
Размер потока                            : 8,70 Мбайт (4%)
Размер потока оригинала                  : 8,70 Мбайт (4%)
Язык                                     : English
Дата кодирования                         : UTC 2015-04-22 12:57:05
Дата пометки                             : UTC 2015-04-22 12:57:05

Скриншоты:

 
Не забывайте говорить Спасибо. Не уходите с раздачи!   
Торрент: Зарегистрирован [29 апр 2015, 00:36] Скачать торрент
Скачать торрент
[ Размер 18.76 КБ / Просмотров 17 ]
Статус:
Проверен
 
.torrent скачан: 0 раз
Хэш: b5c64c7db1023ea013d3b1b0933340d8a14fe9f1
Размер: 230.13 МБ (241 313 776 байт)
Стать Автором раздачи
 
 
Раздал: 6.67 ГБ
Скачал: 302.5 МБ
Ратио: 22.576
Сообщения: 374198
Зарегистрирован: 17 апр 2014, 11:05


  • Похожие торренты
    Ответы
    Просмотры
    Последнее сообщение

Вернуться в Музыкальные клипы (транзит)

Ресурс не предоставляет электронные версии произведений, а занимается лишь коллекционированием и каталогизацией ссылок, присылаемых и публикуемых на форуме нашими читателями. Если вы являетесь правообладателем какого-либо представленного материала и не желаете чтобы ссылка на него находилась в нашем каталоге, свяжитесь с нами и мы незамедлительно удалим её. Файлы для обмена на трекере предоставлены пользователями сайта, и администрация не несёт ответственности за их содержание. Просьба не заливать файлы, защищенные авторскими правами, а также файлы нелегального содержания!
cron