Врожденный порок / Inherent Vice (2014) BDRip [H.264] [MP4|854x460]

 
 Статистика раздачи 
Размер: 2.07 ГБ   |  Зарегистрирован: 27 апр 2015, 22:53   |   .torrent скачан: 0 раз
Сидеров: 1  [ 0 байт/сек ]     Личеров: 1  [ 0 байт/сек ]  
  

Врожденный порок / Inherent Vice (2014) BDRip [H.264] [MP4|854x460]

Сообщение Thistoll » 27 апр 2015, 22:53

Врожденный порок (Inherent Vice) (2014) BDRip

Производство: США, Ghoulardi Film Company, IAC Films, Warner Bros.
Жанр: Драма, Криминал, Детектив

Описание:
Эта история переполнена таинственностью. События происходят в знаменитом Лос - Анджелесе в конце шестидесятых годов. Главный герой является талантливым частным детективом, его зовут Ларри Спортелло. Сыщик занимается сложнейшими делами, распутывает тяжелейшие загадки, с легкостью находит жестоких убийц, маньяков и опаснейших грабителей. Однако, он ведет пагубный образ жизни. У него есть одно, но очень вредное пристрастие, которое вот - вот сгубит Ларри - большая тяга к марихуане. В это же время Спортелло разыскивает свою бывшую даму сердца. Однако, вскоре экс-возлюбленная весьма неожиданно пропадает со своим теперешним молодым человеком...

Режиссер: Пол Томас Андерсон
Продюсер: Пол Томас Андерсон, Дэниэл Лупи, Джоэнн Селлар
Актеры: Хоакин Феникс, Джош Бролин, Оуэн Уилсон, Кэтрин Уотерстон, Риз Уизерспун, Бенисио Дель Торо, Джена Мэлоун, Майя Рудольф, Мартин Шорт, Джоэнна Ньюсом

Продолжительность: 02:28:43
Перевод: Многоголосый закадровый, профессиональный (Лицензия)

Дата мировой премьеры: 4 октября 2014
Дата российской премьеры: 23 апреля 2015
Дата выхода DVD/Blu-ray релиза: 15 мая 2015
Формат: MP4
Качество видео: BDRip
Видеокодек: AVC/H.264
Битрейт видео: ~1800 kb/s
Размер кадра: 854x460
Аудиокодек: AAC
Битрейт аудио: ~192 kb/s 2.0 VBR LC
Код:
Код: Выделить всё
General
Complete name               : F:\Врожденный порок.2014.BDRip.NNM-Club.mp4
Format                      : MPEG-4
Format profile              : Base Media
Codec ID                    : isom
File size                   : 2.07 GiB
Duration                    : 2h 28mn
Overall bit rate mode       : Variable
Overall bit rate            : 1 995 Kbps
Encoded date                : UTC 2015-04-27 15:03:41
Tagged date                 : UTC 2015-04-27 15:03:41

Video
ID                          : 1
Format                      : AVC
Format/Info                 : Advanced Video Codec
Format profile              :
Format settings, CABAC      : Yes
Format settings, ReFrames   : 8 frames
Codec ID                    : avc1
Codec ID/Info               : Advanced Video Coding
Duration                    : 2h 28mn
Bit rate                    : 1 800 Kbps
Maximum bit rate            : 5 231 Kbps
Width                       : 854 pixels
Height                      : 460 pixels
Display aspect ratio        : 1.85:1
Frame rate mode             : Constant
Frame rate                  : 23.976 fps
Color space                 : YUV
Chroma subsampling          : 4:2:0
Bit depth                   : 8 bits
Scan type                   : Progressive
Bits/(Pixel*Frame)          : 0.191
Stream size                 : 1.87 GiB (90%)
Writing library             : x264 core 146 r2538 121396c
Encoding settings           : cabac=1 / ref=8 / deblock=1:-2:-2 / analyse=0x3:0x133 / me=umh / subme=11 / psy=1 / psy_rd=1.05:0.15 / mixed_ref=1 / me_range=48 / chroma_me=1 / trellis=2 / 8x8dct=1 / cqm=0 / deadzone=21,11 / fast_pskip=0 / chroma_qp_offset=-3 / threads=3 / lookahead_threads=1 / sliced_threads=0 / nr=0 / decimate=1 / interlaced=0 / bluray_compat=0 / constrained_intra=0 / bframes=8 / b_pyramid=2 / b_adapt=2 / b_bias=0 / direct=3 / weightb=1 / open_gop=0 / weightp=2 / keyint=240 / keyint_min=23 / scenecut=40 / intra_refresh=0 / rc_lookahead=48 / rc=2pass / mbtree=0 / bitrate=1800 / ratetol=1.0 / qcomp=0.70 / qpmin=10 / qpmax=51 / qpstep=4 / cplxblur=20.0 / qblur=0.5 / vbv_maxrate=25000 / vbv_bufsize=32500 / nal_hrd=none / filler=0 / ip_ratio=1.40 / pb_ratio=1.30 / aq=1:1.00
Encoded date                : UTC 2015-04-27 15:03:41
Tagged date                 : UTC 2015-04-27 15:05:18

Audio
ID                          : 2
Format                      : AAC
Format/Info                 : Advanced Audio Codec
Format profile              : LC
Codec ID                    : 40
Duration                    : 2h 28mn
Source duration             : 2h 28mn
Bit rate mode               : Variable
Bit rate                    : 192 Kbps
Maximum bit rate            : 237 Kbps
Channel(s)                  : 2 channels
Channel positions           : Front: L R
Sampling rate               : 48.0 KHz
Compression mode            : Lossy
Stream size                 : 204 MiB (10%)
Source stream size          : 204 MiB (10%)
Title                       : MVO
Language                    : Russian
Encoded date                : UTC 2015-04-27 15:04:55
Tagged date                 : UTC 2015-04-27 15:05:18
Код:
Код: Выделить всё
x264 [info]: profile High, level 4.1
x264 [info]: frame I:1249  Avg QP:16.82  size: 58875
x264 [info]: frame P:38371 Avg QP:19.05  size: 20113
x264 [info]: frame B:174329 Avg QP:20.83  size:  6668
x264 [info]: consecutive B-frames:  0.8%  0.6%  2.0% 13.2% 17.1% 38.3% 12.2% 10.9%  4.8%
x264 [info]: mb I  I16..4: 17.6% 61.6% 20.8%
x264 [info]: mb P  I16..4:  0.3%  8.1%  1.0%  P16..4: 30.5% 37.7% 14.2%  2.2%  0.2%    skip: 5.7%
x264 [info]: mb B  I16..4:  0.0%  0.7%  0.1%  B16..8: 38.0% 18.8%  3.5%  direct: 4.7%  skip:34.0%  L0:45.1% L1:44.4% BI:10.5%
x264 [info]: 8x8 transform intra:81.7% inter:54.5%
x264 [info]: direct mvs  spatial:99.5% temporal:0.5%
x264 [info]: coded y,uvDC,uvAC intra: 92.9% 84.1% 64.1% inter: 25.6% 14.9% 2.5%
x264 [info]: i16 v,h,dc,p: 22% 10% 26% 42%
x264 [info]: i8 v,h,dc,ddl,ddr,vr,hd,vl,hu:  9% 10% 13%  9% 12% 12% 11% 11% 12%
x264 [info]: i4 v,h,dc,ddl,ddr,vr,hd,vl,hu: 13% 12%  6%  8% 13% 13% 12% 11% 11%
x264 [info]: i8c dc,h,v,p: 41% 24% 19% 16%
x264 [info]: Weighted P-Frames: Y:5.7% UV:2.7%
x264 [info]: ref P L0: 42.3%  9.8% 17.7%  9.1%  7.2%  5.9%  4.9%  2.9%  0.2%  0.0%
x264 [info]: ref B L0: 63.6% 15.8%  9.0%  5.2%  3.8%  1.9%  0.7%
x264 [info]: ref B L1: 90.1%  9.9%
x264 [info]: kb/s:1799.99

Скриншоты



Время раздачи: Круглосуточно, до первых 10-и скачавших
Приятного просмотра!
 
Не забывайте говорить Спасибо. Не уходите с раздачи!   
Торрент: Зарегистрирован [27 апр 2015, 22:53] Для скачивания .torrent
необходима регистрация
Или скачать с помощью
MediaGet
Статус:
Проверен
 
.torrent скачан: 0 раз
Хэш: 12b38d416ea5232e3714bb78af0d1e4691648f8e
Размер: 2.07 ГБ (2 225 880 775 байт)
Стать Автором раздачи
 
 
Раздал: 6.67 ГБ
Скачал: 302.5 МБ
Ратио: 22.576
Сообщения: 374198
Зарегистрирован: 17 апр 2014, 11:05


  • Похожие торренты
    Ответы
    Просмотры
    Последнее сообщение

Вернуться в Видео для мобильных устройств

Ресурс не предоставляет электронные версии произведений, а занимается лишь коллекционированием и каталогизацией ссылок, присылаемых и публикуемых на форуме нашими читателями. Если вы являетесь правообладателем какого-либо представленного материала и не желаете чтобы ссылка на него находилась в нашем каталоге, свяжитесь с нами и мы незамедлительно удалим её. Файлы для обмена на трекере предоставлены пользователями сайта, и администрация не несёт ответственности за их содержание. Просьба не заливать файлы, защищенные авторскими правами, а также файлы нелегального содержания!
cron