[VIDEO] Битва за Севастополь (Сергей Мокрицкий) [2015, военный, боевик, мелодрама, драма, DVDRip] [MP4, 640x]

 
 Статистика раздачи 
Размер: 705.3 МБ   |  Зарегистрирован: 27 апр 2015, 22:47   |   .torrent скачан: 0 раз
Сидеров: 1  [ 0 байт/сек ]     Личеров: 2  [ 0 байт/сек ]  
  

[VIDEO] Битва за Севастополь (Сергей Мокрицкий) [2015, военный, боевик, мелодрама, драма, DVDRip] [MP4, 640x]

Сообщение Satch » 27 апр 2015, 22:47

Битва за Севастополь

Год выпуска: 2015
Страна: Россия, Украина (Новые люди)
Жанр: Военный, боевик, мелодрама, драм
Продолжительность: 01:57:54
Перевод: Не требуется
Cубтитры: нет
Режиссер: Сергей Мокрицкий
В ролях: Юлия Пересильд, Евгений Цыганов, Олег Васильков, Никита Тарасов, Джоан Блэкэм, Полина Пахомова, Владимир Лилицкий, Анатолий Кот, Нателла Абелева-Таганова, Валерий Гришко
Описание: Любовь под нескончаемым огнем противника, дружба с Элеонорой Рузвельт, выступление на конференции, повлиявшее на исход Второй мировой войны, желание жить и страх потерять любимого человека — справится ли со всем этим хрупкая женщина?
Это реальная история Людмилы Павличенко — легендарной женщины-снайпера. Солдаты шли в бой с ее именем на устах, а враги устроили на нее охоту. На поле битвы она видела смерть и страдания, но самым серьезным испытанием для нее стала любовь, которую у нее могла забрать война…

Качество: DVDRip (Рип с DVD9)
Формат: MP4
Видео: AVC, 640x264 (2.40:1), 700 kbps, 25.000 fps
Аудио: Русский, AAC, 2 ch, 48 kHz, 128 kbps [Original, R5]
В самом конце фильма нам показывают Людмилу Павличенко со своим сыном и Элеонорой Рузвельт. При этом показали дату 1957. В фильме мальчику на вид было 15 лет. Настоящему сыну Людмилы в 1957 было 25 лет.
В фильме довольно подробно показана жизнь Павличенко 1937-1942, в которой Людмила не замужем. На самом деле Павличенко вышла замуж в 1932 году, тогда же у неё родился сын.
На стрельбище, когда руководитель стрельб раздаёт патроны, видно, что патроны учебные, с наколотым капсюлем.
x264 [info]: frame I:1252 Avg QP:16.05 size: 27061
x264 [info]: frame P:43801 Avg QP:19.76 size: 7871
x264 [info]: frame B:131813 Avg QP:24.02 size: 1826

x264 [total]: encoded 176866 frames, 24.01 fps, 700.36 kb/s
General
Complete name : [VIDEO] Bitva.za.Sevastopol.2015.DVDRip.x264.640x(semen_52-TNC).mp4
Format : MPEG-4
Format profile : Base Media
Codec ID : isom
File size : 705 MiB
Duration : 1h 57mn
Overall bit rate mode : Variable
Overall bit rate : 836 Kbps
Movie name : Bitva za Sevastopol 2015 DVDRip x264 640x (semen_52-TNC)
ContentType : Short Film
Encoded date : UTC 2015-04-26 16:39:50
Tagged date : UTC 2015-04-26 16:40:43
Writing application : MkvToMp4 version: 0.224 (x64)
Comment : Rip by semen_52-TNC

Video
ID : 1
Format : AVC
Format/Info : Advanced Video Codec
Format profile :
Format settings, CABAC : Yes
Format settings, ReFrames : 8 frames
Codec ID : avc1
Codec ID/Info : Advanced Video Coding
Duration : 1h 57mn
Bit rate : 700 Kbps
Maximum bit rate : 5 860 Kbps
Width : 640 pixels
Height : 264 pixels
Display aspect ratio : 2.40:1
Frame rate mode : Constant
Frame rate : 25.000 fps
Color space : YUV
Chroma subsampling : 4:2:0
Bit depth : 8 bits
Scan type : Progressive
Bits/(Pixel*Frame) : 0.166
Stream size : 591 MiB (84%)
Writing library : x264 core 130 r2273 b3065e6
Encoding settings : cabac=1 / ref=8 / deblock=1:-3:-3 / analyse=0x3:0x133 / me=esa / subme=9 / psy=1 / psy_rd=1.00:0.15 / mixed_ref=1 / me_range=32 / chroma_me=1 / trellis=2 / 8x8dct=1 / cqm=0 / deadzone=21,11 / fast_pskip=0 / chroma_qp_offset=-3 / threads=12 / lookahead_threads=2 / sliced_threads=0 / nr=0 / decimate=1 / interlaced=0 / bluray_compat=0 / constrained_intra=0 / bframes=8 / b_pyramid=2 / b_adapt=2 / b_bias=0 / direct=1 / weightb=1 / open_gop=0 / weightp=2 / keyint=250 / keyint_min=25 / scenecut=40 / intra_refresh=0 / rc_lookahead=60 / rc=crf / mbtree=1 / crf=19.5 / qcomp=0.60 / qpmin=0 / qpmax=69 / qpstep=4 / ip_ratio=1.40 / aq=1:1.00
Language : English
Encoded date : UTC 2015-04-26 16:39:50
Tagged date : UTC 2015-04-26 16:40:10
Color primaries : BT.709
Transfer characteristics : BT.709
Matrix coefficients : BT.709
Color range : Limited

Audio
ID : 2
Format : AAC
Format/Info : Advanced Audio Codec
Format profile : LC
Codec ID : 40
Duration : 1h 57mn
Bit rate mode : Variable
Bit rate : 128 Kbps
Maximum bit rate : 135 Kbps
Channel(s) : 2 channels
Channel positions : Front: L R
Sampling rate : 48.0 KHz
Compression mode : Lossy
Stream size : 108 MiB (15%)
Title : Original / Original
Language : Russian
Encoded date : UTC 2015-04-26 16:40:03
Tagged date : UTC 2015-04-26 16:40:10
 
Не забывайте говорить Спасибо. Не уходите с раздачи!   
Торрент: Зарегистрирован [27 апр 2015, 22:47] Для скачивания .torrent
необходима регистрация
Или скачать с помощью
MediaGet
Статус:
Проверен
 
.torrent скачан: 0 раз
Хэш: eb53b397d026a4e22bc8d59a1eee187d0b7d09da
Размер: 705.3 МБ (739 556 928 байт)
Стать Автором раздачи
 
Аватара пользователя
 
Раздал: 2.45 ГБ
Скачал: 15.94 МБ
Ратио: 157.696
Сообщения: 337733
Зарегистрирован: 16 янв 2012, 17:03


  • Похожие торренты
    Ответы
    Просмотры
    Последнее сообщение

Вернуться в Видео для мобильных устройств

Ресурс не предоставляет электронные версии произведений, а занимается лишь коллекционированием и каталогизацией ссылок, присылаемых и публикуемых на форуме нашими читателями. Если вы являетесь правообладателем какого-либо представленного материала и не желаете чтобы ссылка на него находилась в нашем каталоге, свяжитесь с нами и мы незамедлительно удалим её. Файлы для обмена на трекере предоставлены пользователями сайта, и администрация не несёт ответственности за их содержание. Просьба не заливать файлы, защищенные авторскими правами, а также файлы нелегального содержания!
cron