В бой идут одни "старики" (1973) HDRip [H.264] [MP4|992x720]

 
 Статистика раздачи 
Размер: 1 ГБ   |  Зарегистрирован: 27 апр 2015, 22:47   |   .torrent скачан: 1 раз
Сидеров: 1  [ 0 байт/сек ]     Личеров: 1  [ 0 байт/сек ]  
  

В бой идут одни "старики" (1973) HDRip [H.264] [MP4|992x720]

Сообщение Thistoll » 27 апр 2015, 22:47

В бой идут одни "старики" (1973) HDRip

Производство: СССР
Жанр: Военный, Драма

Режиссер: Леонид Быков
Актеры: Леонид Быков (капитан Алексей Титаренко), Сергей Подгорный (лейтенант Виктор Щедронов, 'Смуглянка'), Сергей Иванов (лейтенант Александров, 'Кузнечик'), Рустам Сагдуллаев (лейтенант Сагдуллаев, Ромео), Евгения Симонова (Маша Попова), Ольга Матешко (капитан Зоя), Владимир Талашко (старший лейтенант Сергей Скворцов), Алексей Смирнов (механик Макарыч), Виктор Мирошниченко (комполка, майор Иван Ермаков), Григорий Гладий (механик Александрова), Юрий Саранцев (командир авиадивизии Василий Васильевич), Алим Федоринский (Алябьев)

Описание:
Эта эскадрилья стала «поющей» - так капитан Титаренко подбирал себе новичков. Его «старикам» было не больше двадцати, но «желторотиков», пополнение из летных училищ ускоренного выпуска, в бой все равно, по возможности, не пускали.
Им еще многое предстояло испытать - и жар боев, и радость первой победы над врагом, и величие братства, скрепленного кровью, и первую любовь, и горечь утраты… И настанет день, когда по команде «в бой идут одни старики» бывшие желторотики бросятся к своим самолетам...


Продолжительность: 01:31:52
Качество видео: HDRip

Видео: AVC/H.264, ~1 432 Kbps, 992х720
Аудио: AAC, 2 ch, ~128 Kbps
Код:
Код: Выделить всё
General
Complete name                            : В бой идут одни старики (1974).mp4
Format                                   : MPEG-4
Format profile                           : Base Media
Codec ID                                 : isom
File size                                : 1.00 GiB
Duration                                 : 1h 31mn
Overall bit rate mode                    : Variable
Overall bit rate                         : 1 566 Kbps
Movie name                               : В бой идут одни "старики" (1973) [NoNaMe Club] [rip by alien.09]
ContentType                              : Short Film
Encoded date                             : UTC 2015-04-27 13:12:30
Tagged date                              : UTC 2015-04-27 13:13:19

Video
ID                                       : 1
Format                                   : AVC
Format/Info                              : Advanced Video Codec
Format profile                           :
Format settings, CABAC                   : Yes
Format settings, ReFrames                : 3 frames
Codec ID                                 : avc1
Codec ID/Info                            : Advanced Video Coding
Duration                                 : 1h 31mn
Bit rate                                 : 1 432 Kbps
Maximum bit rate                         : 4 956 Kbps
Width                                    : 992 pixels
Height                                   : 720 pixels
Display aspect ratio                     : 1.383
Frame rate mode                          : Constant
Frame rate                               : 24.000 fps
Color space                              : YUV
Chroma subsampling                       : 4:2:0
Bit depth                                : 8 bits
Scan type                                : Progressive
Bits/(Pixel*Frame)                       : 0.084
Stream size                              : 941 MiB (91%)
Writing library                          : x264 core 116 r2019M 9cc407d
Encoding settings                        : cabac=1 / ref=3 / deblock=1:-1:-1 / analyse=0x1:0x131 / me=hex / subme=7 / psy=1 / psy_rd=1.00:0.15 / mixed_ref=1 / me_range=16 / chroma_me=1 / trellis=1 / 8x8dct=0 / cqm=0 / deadzone=21,11 / fast_pskip=1 / chroma_qp_offset=-3 / threads=12 / sliced_threads=0 / nr=0 / decimate=1 / interlaced=0 / bluray_compat=0 / constrained_intra=0 / bframes=3 / b_pyramid=0 / b_adapt=2 / b_bias=0 / direct=3 / weightb=1 / open_gop=0 / weightp=0 / keyint=240 / keyint_min=24 / scenecut=40 / intra_refresh=0 / rc_lookahead=40 / rc=2pass / mbtree=1 / bitrate=1432 / ratetol=1.0 / qcomp=0.60 / qpmin=10 / qpmax=51 / qpstep=4 / cplxblur=20.0 / qblur=0.5 / vbv_maxrate=5000 / vbv_bufsize=1835 / nal_hrd=none / ip_ratio=1.40 / aq=1:1.00
Language                                 : Russian
Encoded date                             : UTC 2015-04-27 13:12:30
Tagged date                              : UTC 2015-04-27 13:12:49

Audio
ID                                       : 2
Format                                   : AAC
Format/Info                              : Advanced Audio Codec
Format profile                           : LC
Codec ID                                 : 40
Duration                                 : 1h 31mn
Bit rate mode                            : Variable
Bit rate                                 : 126 Kbps
Maximum bit rate                         : 221 Kbps
Channel(s)                               : 2 channels
Channel positions                        : Front: L R
Sampling rate                            : 48.0 KHz
Compression mode                         : Lossy
Stream size                              : 83.0 MiB (8%)
Language                                 : Russian
Encoded date                             : UTC 2015-04-27 13:12:46
Tagged date                              : UTC 2015-04-27 13:12:49

Скриншоты:



Время раздачи: 24/7 до трёх скачавших
 
Не забывайте говорить Спасибо. Не уходите с раздачи!   
Торрент: Зарегистрирован [27 апр 2015, 22:47] Для скачивания .torrent
необходима регистрация
Или скачать с помощью
MediaGet
Статус:
Проверен
 
.torrent скачан: 1 раз
Хэш: a736e7e8cb3f8ba323fd0ac9463d6f8d14ce5d69
Размер: 1 ГБ (1 078 851 139 байт)
Стать Автором раздачи
 
 
Раздал: 6.67 ГБ
Скачал: 302.5 МБ
Ратио: 22.576
Сообщения: 374198
Зарегистрирован: 17 апр 2014, 11:05


  • Похожие торренты
    Ответы
    Просмотры
    Последнее сообщение

Вернуться в Видео для мобильных устройств

Ресурс не предоставляет электронные версии произведений, а занимается лишь коллекционированием и каталогизацией ссылок, присылаемых и публикуемых на форуме нашими читателями. Если вы являетесь правообладателем какого-либо представленного материала и не желаете чтобы ссылка на него находилась в нашем каталоге, свяжитесь с нами и мы незамедлительно удалим её. Файлы для обмена на трекере предоставлены пользователями сайта, и администрация не несёт ответственности за их содержание. Просьба не заливать файлы, защищенные авторскими правами, а также файлы нелегального содержания!
cron