VA - Весенний марафон № 166 / Видеоклипы (Презент Зарубежных Новинок) (2015) WEBRip [H.264/1080p-LQ]

 
 Статистика раздачи 
Размер: 2.98 ГБ   |  Зарегистрирован: 26 апр 2015, 22:19   |   .torrent скачан: 0 раз
Сидеров: 1  [ 0 байт/сек ]     Личеров: 0  [ 0 байт/сек ]  
  

VA - Весенний марафон № 166 / Видеоклипы (Презент Зарубежных Новинок) (2015) WEBRip [H.264/1080p-LQ]

Сообщение Satch » 26 апр 2015, 22:19

VA - Весенний марафон № 166 / (Презент Зарубежных Новинок) (2015) WEBRip

Год выпуска: 2015
Жанр: Pop, Dance, Latino, Country, House, Indie, Soul, Reggaeton
Контейнер: MP4
Кол-во клипов: 25
Продолжительность: 01:30:19

Описание:
Весенние (26.04.2015) поп. новинки зарубежной эстрады. Не пропустите, держите новые треки.

Видеокодек: AVC/H.264
Битрейт видео: 4.496 ~ 2.690 kbps avg, 0.087 - 0.054 bit.pixel
Размер кадра: 1920x1080 (16:9), 25.000 fps
Качество видео: WEBRip
Аудиокодек: AAC, 2 ch
Битрейт аудио: 103 - 254 Kbps avg
1. Alina Eremia - Played You (Official Video) (00:03:34)
2. Andreea Balan - Baila (Official Video) (00:04:09)
3. Andreea D - Telegrama (English Version) (Official Video) (00:03:43)
4. Avril Lavigne - Fly for Special Olympics (Official Video) (00:03:07)
5. Bebe Rexha - I'm Gonna Show You Crazy (Official Video) (00:04:45)
6. Beyoncé - I Was Here (Genocide 1915 April 24) (Official Video) (00:04:15)
7. Bryce - Frontline (Official Video) (00:03:37)
8. DJane HouseKat ft. Piñero - Careless (Official Video) (00:03:43)
9. Easton Corbin - Are You With Me (Dj Dark & Dj Vianu Remix) (Official Video) (00:03:59)
10. Frida Amundsen - Told You So (Official Video) (00:03:27)
11. Haifa Wehbe - Breathing You In (Official Video) (00:04:42)
12. Jacquie Lee - Tears Fall (Official Video) (00:03:34)
13. Jessie J - Flashlight (Official Video) (00:03:52)
14. Last Night - Liar (Official Video) (00:03:46)
15. Mini Cuore - Na Na Naea (Official Video) (00:03:54)
16. Modern Talking - Maria ( Rainy Mix ) (00:03:33)
17. Natalie Imbruglia - Instant Crush (Official Video) (00:03:24)
18. Natalie Page - You're For Me (Official Video) (00:02:55)
19. Phase Five - Upside Down (Official Video) (00:03:45)
20. Shawn Mendes - Aftertaste (Official Video) (00:03:09)
21. Sia - Fire Meet Gasoline (Official Video) (00:04:06)
22. Sting - Fields Of Gold (Joffrey Martinache Remix) (00:05:14)
23. Wisin, Carlos Vives ft. Daddy Yankee - Nota de Amor (Official Video) (00:03:55)
24. Years & Years - King (Official Video) (00:03:54)
25. Zerotwenty - Break My Heart Again (Official Video) (00:03:36)
Код:
Код: Выделить всё
Общее
Полное имя                       : E:\VA - Весенний марафон № 166 (Презент Зарубежных Новинок)\Alina Eremia - Played You (Official Video).mp4
Формат                           : MPEG-4
Профиль формата                  : Base Media
Идентификатор кодека             : isom
Размер файла                     : 85,5 Мбайт
Продолжительность                : 3 м. 34 с.
Общий поток                      : 3344 Кбит/сек
Программа кодирования            : Lavf55.33.100

Видео
Идентификатор                    : 1
Формат                           : AVC
Формат/Информация                : Advanced Video Codec
Профиль формата                  :
Параметр CABAC формата           : Да
Параметр ReFrames формата        : 2 кадра
Параметры GOP формата            : N=1
Идентификатор кодека             : avc1
Идентификатор кодека/Информация  : Advanced Video Coding
Продолжительность                : 3 м. 34 с.
Вид битрейта                     : Переменный
Битрейт                          : 3085 Кбит/сек
Ширина                           : 1920 пикс.
Высота                           : 1080 пикс.
Соотношение сторон               : 16:9
Режим частоты кадров             : Переменный
Частота кадров                   : 25,000 кадр/сек
Минимальная частота кадров       : 25,000 кадр/сек
Максимальная частота кадров      : 90000,000 кадр/сек
Цветовое пространство            : YUV
Подвыборка цветности             : 4:2:0
Битовая глубина                  : 8 бит
Тип развёртки                    : Прогрессивная
Бит/(Пиксели*Кадры)              : 0.060
Размер потока                    : 78,9 Мбайт (92%)

Аудио
Идентификатор                    : 2
Формат                           : AAC
Формат/Информация                : Advanced Audio Codec
Профиль формата                  : LC
Идентификатор кодека             : 40
Продолжительность                : 3 м. 34 с.
Вид битрейта                     : Постоянный
Битрейт                          : 254 Кбит/сек
Каналы                           : 2 канала
Расположение каналов             : Front: L R
Частота                          : 44,1 КГц
Метод сжатия                     : С потерями
Размер потока                    : 6,49 Мбайт (8%)
Общее
Полное имя                       : E:\VA - Весенний марафон № 166 (Презент Зарубежных Новинок)\Andreea Balan - Baila (Official Video).mp4
Формат                           : MPEG-4
Профиль формата                  : Base Media
Идентификатор кодека             : isom
Размер файла                     : 135 Мбайт
Продолжительность                : 4 м. 8 с.
Общий поток                      : 4569 Кбит/сек
Дата кодирования                 : UTC 2015-04-20 08:16:36
Дата пометки                     : UTC 2015-04-20 08:16:36
Программа кодирования            : Lavf54.63.104

Видео
Идентификатор                    : 1
Формат                           : AVC
Формат/Информация                : Advanced Video Codec
Профиль формата                  :
Параметр CABAC формата           : Да
Параметр ReFrames формата        : 1 кадр
Идентификатор кодека             : avc1
Идентификатор кодека/Информация  : Advanced Video Coding
Продолжительность                : 4 м. 8 с.
Вид битрейта                     : Переменный
Битрейт                          : 4496 Кбит/сек
Ширина                           : 1920 пикс.
Высота                           : 1080 пикс.
Соотношение сторон               : 16:9
Режим частоты кадров             : Постоянный
Частота кадров                   : 25,000 кадр/сек
Цветовое пространство            : YUV
Подвыборка цветности             : 4:2:0
Битовая глубина                  : 8 бит
Тип развёртки                    : Прогрессивная
Бит/(Пиксели*Кадры)              : 0.087
Размер потока                    : 131 Мбайт (97%)
Библиотека кодирования           : x264 core 129
Настройки программы              : cabac=1 / ref=1 / deblock=1:0:0 / analyse=0x1:0x131 / me=dia / subme=2 / psy=1 / psy_rd=1.00:0.00 / mixed_ref=0 / me_range=16 / chroma_me=1 / trellis=0 / 8x8dct=0 / cqm=0 / deadzone=21,11 / fast_pskip=1 / chroma_qp_offset=0 / threads=2 / lookahead_threads=1 / sliced_threads=0 / nr=0 / decimate=1 / interlaced=0 / bluray_compat=0 / constrained_intra=0 / bframes=0 / weightp=2 / keyint=250 / keyint_min=25 / scenecut=40 / intra_refresh=0 / rc_lookahead=40 / rc=abr / mbtree=1 / bitrate=4496 / ratetol=1.0 / qcomp=0.60 / qpmin=10 / qpmax=51 / qpstep=4 / ip_ratio=1.41 / aq=1:1.00
Дата кодирования                 : UTC 2015-04-20 08:16:36
Дата пометки                     : UTC 2015-04-20 08:16:36

Аудио
Идентификатор                    : 2
Формат                           : AAC
Формат/Информация                : Advanced Audio Codec
Профиль формата                  : LC
Идентификатор кодека             : 40
Продолжительность                : 4 м. 8 с.
Вид битрейта                     : Переменный
Битрейт                          : 149 Кбит/сек
Максимальный битрейт             : 176,4 Кбит/сек
Каналы                           : 2 канала
Расположение каналов             : Front: L R
Частота                          : 44,1 КГц
Метод сжатия                     : С потерями
Размер потока                    : 4,40 Мбайт (3%)
Дата кодирования                 : UTC 2015-04-20 08:16:36
Дата пометки                     : UTC 2015-04-20 08:16:36
Общее
Полное имя                       : E:\VA - Весенний марафон № 166 (Презент Зарубежных Новинок)\Andreea D - Telegrama (English Version) (Official Video).mp4
Формат                           : MPEG-4
Профиль формата                  : Base Media
Идентификатор кодека             : isom
Размер файла                     : 124 Мбайт
Продолжительность                : 3 м. 43 с.
Общий поток                      : 4655 Кбит/сек
Дата кодирования                 : UTC 2015-04-17 08:52:23
Дата пометки                     : UTC 2015-04-17 08:52:23
Программа кодирования            : Lavf54.63.104

Видео
Идентификатор                    : 1
Формат                           : AVC
Формат/Информация                : Advanced Video Codec
Профиль формата                  :
Параметр CABAC формата           : Да
Параметр ReFrames формата        : 1 кадр
Идентификатор кодека             : avc1
Идентификатор кодека/Информация  : Advanced Video Coding
Продолжительность                : 3 м. 43 с.
Вид битрейта                     : Переменный
Битрейт                          : 4496 Кбит/сек
Ширина                           : 1920 пикс.
Высота                           : 1080 пикс.
Соотношение сторон               : 16:9
Режим частоты кадров             : Постоянный
Частота кадров                   : 25,000 кадр/сек
Цветовое пространство            : YUV
Подвыборка цветности             : 4:2:0
Битовая глубина                  : 8 бит
Тип развёртки                    : Прогрессивная
Бит/(Пиксели*Кадры)              : 0.087
Размер потока                    : 120 Мбайт (97%)
Библиотека кодирования           : x264 core 129
Настройки программы              : cabac=1 / ref=1 / deblock=1:0:0 / analyse=0x1:0x131 / me=dia / subme=2 / psy=1 / psy_rd=1.00:0.00 / mixed_ref=0 / me_range=16 / chroma_me=1 / trellis=0 / 8x8dct=0 / cqm=0 / deadzone=21,11 / fast_pskip=1 / chroma_qp_offset=0 / threads=2 / lookahead_threads=1 / sliced_threads=0 / nr=0 / decimate=1 / interlaced=0 / bluray_compat=0 / constrained_intra=0 / bframes=0 / weightp=2 / keyint=250 / keyint_min=25 / scenecut=40 / intra_refresh=0 / rc_lookahead=40 / rc=abr / mbtree=1 / bitrate=4496 / ratetol=1.0 / qcomp=0.60 / qpmin=10 / qpmax=51 / qpstep=4 / ip_ratio=1.41 / aq=1:1.00
Дата кодирования                 : UTC 2015-04-17 08:52:23
Дата пометки                     : UTC 2015-04-17 08:52:23

Аудио
Идентификатор                    : 2
Формат                           : AAC
Формат/Информация                : Advanced Audio Codec
Профиль формата                  : LC
Идентификатор кодека             : 40
Продолжительность                : 3 м. 43 с.
Вид битрейта                     : Переменный
Битрейт                          : 148 Кбит/сек
Максимальный битрейт             : 176,4 Кбит/сек
Каналы                           : 2 канала
Расположение каналов             : Front: L R
Частота                          : 44,1 КГц
Метод сжатия                     : С потерями
Размер потока                    : 3,95 Мбайт (3%)
Дата кодирования                 : UTC 2015-04-17 08:52:23
Дата пометки                     : UTC 2015-04-17 08:52:23
Общее
Полное имя                       : E:\VA - Весенний марафон № 166 (Презент Зарубежных Новинок)\Avril Lavigne - Fly for Special Olympics (Official Video).mp4
Формат                           : MPEG-4
Профиль формата                  : Base Media
Идентификатор кодека             : isom
Размер файла                     : 95,3 Мбайт
Продолжительность                : 3 м. 7 с.
Общий поток                      : 4264 Кбит/сек
Дата кодирования                 : UTC 2015-04-15 19:38:20
Дата пометки                     : UTC 2015-04-15 19:38:20
Программа кодирования            : Lavf54.63.104

Видео
Идентификатор                    : 1
Формат                           : AVC
Формат/Информация                : Advanced Video Codec
Профиль формата                  :
Параметр CABAC формата           : Да
Параметр ReFrames формата        : 1 кадр
Идентификатор кодека             : avc1
Идентификатор кодека/Информация  : Advanced Video Coding
Продолжительность                : 3 м. 7 с.
Вид битрейта                     : Переменный
Битрейт                          : 4109 Кбит/сек
Номинальный битрейт              : 4496 Кбит/сек
Ширина                           : 1920 пикс.
Высота                           : 1080 пикс.
Соотношение сторон               : 16:9
Режим частоты кадров             : Постоянный
Частота кадров                   : 25,000 кадр/сек
Цветовое пространство            : YUV
Подвыборка цветности             : 4:2:0
Битовая глубина                  : 8 бит
Тип развёртки                    : Прогрессивная
Бит/(Пиксели*Кадры)              : 0.079
Размер потока                    : 91,8 Мбайт (96%)
Библиотека кодирования           : x264 core 129
Настройки программы              : cabac=1 / ref=1 / deblock=1:0:0 / analyse=0x1:0x131 / me=dia / subme=2 / psy=1 / psy_rd=1.00:0.00 / mixed_ref=0 / me_range=16 / chroma_me=1 / trellis=0 / 8x8dct=0 / cqm=0 / deadzone=21,11 / fast_pskip=1 / chroma_qp_offset=0 / threads=2 / lookahead_threads=1 / sliced_threads=0 / nr=0 / decimate=1 / interlaced=0 / bluray_compat=0 / constrained_intra=0 / bframes=0 / weightp=2 / keyint=250 / keyint_min=25 / scenecut=40 / intra_refresh=0 / rc_lookahead=40 / rc=abr / mbtree=1 / bitrate=4496 / ratetol=1.0 / qcomp=0.60 / qpmin=10 / qpmax=51 / qpstep=4 / ip_ratio=1.41 / aq=1:1.00
Дата кодирования                 : UTC 2015-04-15 19:38:20
Дата пометки                     : UTC 2015-04-15 19:38:20

Аудио
Идентификатор                    : 2
Формат                           : AAC
Формат/Информация                : Advanced Audio Codec
Профиль формата                  : LC
Идентификатор кодека             : 40
Продолжительность                : 3 м. 7 с.
Вид битрейта                     : Переменный
Битрейт                          : 150 Кбит/сек
Максимальный битрейт             : 176,4 Кбит/сек
Каналы                           : 2 канала
Расположение каналов             : Front: L R
Частота                          : 44,1 КГц
Метод сжатия                     : С потерями
Размер потока                    : 3,36 Мбайт (4%)
Дата кодирования                 : UTC 2015-04-15 19:38:20
Дата пометки                     : UTC 2015-04-15 19:38:20
Общее
Полное имя                       : E:\VA - Весенний марафон № 166 (Презент Зарубежных Новинок)\Bebe Rexha - I'm Gonna Show You Crazy (Official Video).mp4
Формат                           : MPEG-4
Профиль формата                  : Base Media
Идентификатор кодека             : isom
Размер файла                     : 154 Мбайт
Продолжительность                : 4 м. 45 с.
Общий поток                      : 4546 Кбит/сек
Дата кодирования                 : UTC 2015-04-17 07:56:36
Дата пометки                     : UTC 2015-04-17 07:56:36
Программа кодирования            : Lavf54.63.104

Видео
Идентификатор                    : 1
Формат                           : AVC
Формат/Информация                : Advanced Video Codec
Профиль формата                  :
Параметр CABAC формата           : Да
Параметр ReFrames формата        : 1 кадр
Идентификатор кодека             : avc1
Идентификатор кодека/Информация  : Advanced Video Coding
Продолжительность                : 4 м. 45 с.
Вид битрейта                     : Переменный
Битрейт                          : 4496 Кбит/сек
Ширина                           : 1920 пикс.
Высота                           : 1080 пикс.
Соотношение сторон               : 16:9
Режим частоты кадров             : Постоянный
Частота кадров                   : 25,000 кадр/сек
Цветовое пространство            : YUV
Подвыборка цветности             : 4:2:0
Битовая глубина                  : 8 бит
Тип развёртки                    : Прогрессивная
Бит/(Пиксели*Кадры)              : 0.087
Размер потока                    : 149 Мбайт (97%)
Библиотека кодирования           : x264 core 129
Настройки программы              : cabac=1 / ref=1 / deblock=1:0:0 / analyse=0x1:0x131 / me=dia / subme=2 / psy=1 / psy_rd=1.00:0.00 / mixed_ref=0 / me_range=16 / chroma_me=1 / trellis=0 / 8x8dct=0 / cqm=0 / deadzone=21,11 / fast_pskip=1 / chroma_qp_offset=0 / threads=2 / lookahead_threads=1 / sliced_threads=0 / nr=0 / decimate=1 / interlaced=0 / bluray_compat=0 / constrained_intra=0 / bframes=0 / weightp=2 / keyint=250 / keyint_min=25 / scenecut=40 / intra_refresh=0 / rc_lookahead=40 / rc=abr / mbtree=1 / bitrate=4496 / ratetol=1.0 / qcomp=0.60 / qpmin=10 / qpmax=51 / qpstep=4 / ip_ratio=1.41 / aq=1:1.00
Дата кодирования                 : UTC 2015-04-17 07:56:36
Дата пометки                     : UTC 2015-04-17 07:56:36

Аудио
Идентификатор                    : 2
Формат                           : AAC
Формат/Информация                : Advanced Audio Codec
Профиль формата                  : LC
Идентификатор кодека             : 40
Продолжительность                : 4 м. 45 с.
Вид битрейта                     : Переменный
Битрейт                          : 144 Кбит/сек
Максимальный битрейт             : 176,4 Кбит/сек
Каналы                           : 2 канала
Расположение каналов             : Front: L R
Частота                          : 44,1 КГц
Метод сжатия                     : С потерями
Размер потока                    : 4,89 Мбайт (3%)
Дата кодирования                 : UTC 2015-04-17 07:56:36
Дата пометки                     : UTC 2015-04-17 07:56:36
Общее
Полное имя                       : E:\VA - Весенний марафон № 166 (Презент Зарубежных Новинок)\Beyoncé - I Was Here (Genocide 1915 April 24) (Official Video).mp4
Формат                           : MPEG-4
Профиль формата                  : Base Media
Идентификатор кодека             : isom
Размер файла                     : 139 Мбайт
Продолжительность                : 4 м. 15 с.
Общий поток                      : 4576 Кбит/сек
Дата кодирования                 : UTC 2015-04-23 19:18:00
Дата пометки                     : UTC 2015-04-23 19:18:00
Программа кодирования            : Lavf54.63.104

Видео
Идентификатор                    : 1
Формат                           : AVC
Формат/Информация                : Advanced Video Codec
Профиль формата                  :
Параметр CABAC формата           : Да
Параметр ReFrames формата        : 1 кадр
Идентификатор кодека             : avc1
Идентификатор кодека/Информация  : Advanced Video Coding
Продолжительность                : 4 м. 15 с.
Вид битрейта                     : Переменный
Битрейт                          : 4496 Кбит/сек
Ширина                           : 1920 пикс.
Высота                           : 1080 пикс.
Соотношение сторон               : 16:9
Режим частоты кадров             : Постоянный
Частота кадров                   : 25,000 кадр/сек
Цветовое пространство            : YUV
Подвыборка цветности             : 4:2:0
Битовая глубина                  : 8 бит
Тип развёртки                    : Прогрессивная
Бит/(Пиксели*Кадры)              : 0.087
Размер потока                    : 135 Мбайт (97%)
Библиотека кодирования           : x264 core 129
Настройки программы              : cabac=1 / ref=1 / deblock=1:0:0 / analyse=0x1:0x131 / me=dia / subme=2 / psy=1 / psy_rd=1.00:0.00 / mixed_ref=0 / me_range=16 / chroma_me=1 / trellis=0 / 8x8dct=0 / cqm=0 / deadzone=21,11 / fast_pskip=1 / chroma_qp_offset=0 / threads=2 / lookahead_threads=1 / sliced_threads=0 / nr=0 / decimate=1 / interlaced=0 / bluray_compat=0 / constrained_intra=0 / bframes=0 / weightp=2 / keyint=250 / keyint_min=25 / scenecut=40 / intra_refresh=0 / rc_lookahead=40 / rc=abr / mbtree=1 / bitrate=4496 / ratetol=1.0 / qcomp=0.60 / qpmin=10 / qpmax=51 / qpstep=4 / ip_ratio=1.41 / aq=1:1.00
Дата кодирования                 : UTC 2015-04-23 19:18:00
Дата пометки                     : UTC 2015-04-23 19:18:00

Аудио
Идентификатор                    : 2
Формат                           : AAC
Формат/Информация                : Advanced Audio Codec
Профиль формата                  : LC
Идентификатор кодека             : 40
Продолжительность                : 4 м. 15 с.
Вид битрейта                     : Переменный
Битрейт                          : 151 Кбит/сек
Максимальный битрейт             : 176,4 Кбит/сек
Каналы                           : 2 канала
Расположение каналов             : Front: L R
Частота                          : 44,1 КГц
Метод сжатия                     : С потерями
Размер потока                    : 4,62 Мбайт (3%)
Дата кодирования                 : UTC 2015-04-23 19:18:00
Дата пометки                     : UTC 2015-04-23 19:18:00
Общее
Полное имя                       : E:\VA - Весенний марафон № 166 (Презент Зарубежных Новинок)\Bryce - Frontline (Official Video).mp4
Формат                           : MPEG-4
Профиль формата                  : Base Media
Идентификатор кодека             : isom
Размер файла                     : 119 Мбайт
Продолжительность                : 3 м. 37 с.
Общий поток                      : 4609 Кбит/сек
Дата кодирования                 : UTC 2015-04-24 08:35:06
Дата пометки                     : UTC 2015-04-24 08:35:06
Программа кодирования            : Lavf54.63.104

Видео
Идентификатор                    : 1
Формат                           : AVC
Формат/Информация                : Advanced Video Codec
Профиль формата                  :
Параметр CABAC формата           : Да
Параметр ReFrames формата        : 1 кадр
Идентификатор кодека             : avc1
Идентификатор кодека/Информация  : Advanced Video Coding
Продолжительность                : 3 м. 37 с.
Вид битрейта                     : Переменный
Битрейт                          : 4496 Кбит/сек
Ширина                           : 1920 пикс.
Высота                           : 1080 пикс.
Соотношение сторон               : 16:9
Режим частоты кадров             : Постоянный
Частота кадров                   : 25,000 кадр/сек
Цветовое пространство            : YUV
Подвыборка цветности             : 4:2:0
Битовая глубина                  : 8 бит
Тип развёртки                    : Прогрессивная
Бит/(Пиксели*Кадры)              : 0.087
Размер потока                    : 115 Мбайт (97%)
Библиотека кодирования           : x264 core 129
Настройки программы              : cabac=1 / ref=1 / deblock=1:0:0 / analyse=0x1:0x131 / me=dia / subme=2 / psy=1 / psy_rd=1.00:0.00 / mixed_ref=0 / me_range=16 / chroma_me=1 / trellis=0 / 8x8dct=0 / cqm=0 / deadzone=21,11 / fast_pskip=1 / chroma_qp_offset=0 / threads=2 / lookahead_threads=1 / sliced_threads=0 / nr=0 / decimate=1 / interlaced=0 / bluray_compat=0 / constrained_intra=0 / bframes=0 / weightp=2 / keyint=250 / keyint_min=25 / scenecut=40 / intra_refresh=0 / rc_lookahead=40 / rc=abr / mbtree=1 / bitrate=4496 / ratetol=1.0 / qcomp=0.60 / qpmin=10 / qpmax=51 / qpstep=4 / ip_ratio=1.41 / aq=1:1.00
Дата кодирования                 : UTC 2015-04-24 08:35:06
Дата пометки                     : UTC 2015-04-24 08:35:06

Аудио
Идентификатор                    : 2
Формат                           : AAC
Формат/Информация                : Advanced Audio Codec
Профиль формата                  : LC
Идентификатор кодека             : 40
Продолжительность                : 3 м. 37 с.
Вид битрейта                     : Переменный
Битрейт                          : 152 Кбит/сек
Максимальный битрейт             : 176,4 Кбит/сек
Каналы                           : 2 канала
Расположение каналов             : Front: L R
Частота                          : 44,1 КГц
Метод сжатия                     : С потерями
Размер потока                    : 3,93 Мбайт (3%)
Дата кодирования                 : UTC 2015-04-24 08:35:06
Дата пометки                     : UTC 2015-04-24 08:35:06
Общее
Полное имя                       : E:\VA - Весенний марафон № 166 (Презент Зарубежных Новинок)\DJane HouseKat ft. Piñero - Careless (Official Video).mp4
Формат                           : MPEG-4
Профиль формата                  : Base Media
Идентификатор кодека             : isom
Размер файла                     : 119 Мбайт
Продолжительность                : 3 м. 43 с.
Общий поток                      : 4476 Кбит/сек
Дата кодирования                 : UTC 2015-04-08 13:00:48
Дата пометки                     : UTC 2015-04-08 13:00:48
Программа кодирования            : Lavf54.63.104

Видео
Идентификатор                    : 1
Формат                           : AVC
Формат/Информация                : Advanced Video Codec
Профиль формата                  :
Параметр CABAC формата           : Да
Параметр ReFrames формата        : 1 кадр
Идентификатор кодека             : avc1
Идентификатор кодека/Информация  : Advanced Video Coding
Продолжительность                : 3 м. 43 с.
Вид битрейта                     : Переменный
Битрейт                          : 4496 Кбит/сек
Ширина                           : 1920 пикс.
Высота                           : 1080 пикс.
Соотношение сторон               : 16:9
Режим частоты кадров             : Постоянный
Частота кадров                   : 25,000 кадр/сек
Цветовое пространство            : YUV
Подвыборка цветности             : 4:2:0
Битовая глубина                  : 8 бит
Тип развёртки                    : Прогрессивная
Бит/(Пиксели*Кадры)              : 0.087
Размер потока                    : 115 Мбайт (96%)
Библиотека кодирования           : x264 core 129
Настройки программы              : cabac=1 / ref=1 / deblock=1:0:0 / analyse=0x1:0x131 / me=dia / subme=2 / psy=1 / psy_rd=1.00:0.00 / mixed_ref=0 / me_range=16 / chroma_me=1 / trellis=0 / 8x8dct=0 / cqm=0 / deadzone=21,11 / fast_pskip=1 / chroma_qp_offset=0 / threads=2 / lookahead_threads=1 / sliced_threads=0 / nr=0 / decimate=1 / interlaced=0 / bluray_compat=0 / constrained_intra=0 / bframes=0 / weightp=2 / keyint=250 / keyint_min=25 / scenecut=40 / intra_refresh=0 / rc_lookahead=40 / rc=abr / mbtree=1 / bitrate=4496 / ratetol=1.0 / qcomp=0.60 / qpmin=10 / qpmax=51 / qpstep=4 / ip_ratio=1.41 / aq=1:1.00
Дата кодирования                 : UTC 2015-04-08 13:00:48
Дата пометки                     : UTC 2015-04-08 13:00:48

Аудио
Идентификатор                    : 2
Формат                           : AAC
Формат/Информация                : Advanced Audio Codec
Профиль формата                  : LC
Идентификатор кодека             : 40
Продолжительность                : 3 м. 43 с.
Вид битрейта                     : Переменный
Битрейт                          : 152 Кбит/сек
Максимальный битрейт             : 176,4 Кбит/сек
Каналы                           : 2 канала
Расположение каналов             : Front: L R
Частота                          : 44,1 КГц
Метод сжатия                     : С потерями
Размер потока                    : 4,05 Мбайт (3%)
Дата кодирования                 : UTC 2015-04-08 13:00:48
Дата пометки                     : UTC 2015-04-08 13:00:48
Общее
Полное имя                       : E:\VA - Весенний марафон № 166 (Презент Зарубежных Новинок)\Easton Corbin - Are You With Me (Dj Dark & Dj Vianu Remix) (Official Video).mp4
Формат                           : MPEG-4
Профиль формата                  : Base Media
Идентификатор кодека             : isom
Размер файла                     : 132 Мбайт
Продолжительность                : 3 м. 58 с.
Общий поток                      : 4656 Кбит/сек
Дата кодирования                 : UTC 2015-04-12 04:25:41
Дата пометки                     : UTC 2015-04-12 04:25:41
Программа кодирования            : Lavf54.63.104

Видео
Идентификатор                    : 1
Формат                           : AVC
Формат/Информация                : Advanced Video Codec
Профиль формата                  :
Параметр CABAC формата           : Да
Параметр ReFrames формата        : 1 кадр
Идентификатор кодека             : avc1
Идентификатор кодека/Информация  : Advanced Video Coding
Продолжительность                : 3 м. 58 с.
Вид битрейта                     : Переменный
Битрейт                          : 4496 Кбит/сек
Ширина                           : 1920 пикс.
Высота                           : 1080 пикс.
Соотношение сторон               : 16:9
Режим частоты кадров             : Постоянный
Частота кадров                   : 25,000 кадр/сек
Цветовое пространство            : YUV
Подвыборка цветности             : 4:2:0
Битовая глубина                  : 8 бит
Тип развёртки                    : Прогрессивная
Бит/(Пиксели*Кадры)              : 0.087
Размер потока                    : 128 Мбайт (97%)
Библиотека кодирования           : x264 core 129
Настройки программы              : cabac=1 / ref=1 / deblock=1:0:0 / analyse=0x1:0x131 / me=dia / subme=2 / psy=1 / psy_rd=1.00:0.00 / mixed_ref=0 / me_range=16 / chroma_me=1 / trellis=0 / 8x8dct=0 / cqm=0 / deadzone=21,11 / fast_pskip=1 / chroma_qp_offset=0 / threads=2 / lookahead_threads=1 / sliced_threads=0 / nr=0 / decimate=1 / interlaced=0 / bluray_compat=0 / constrained_intra=0 / bframes=0 / weightp=2 / keyint=250 / keyint_min=25 / scenecut=40 / intra_refresh=0 / rc_lookahead=40 / rc=abr / mbtree=1 / bitrate=4496 / ratetol=1.0 / qcomp=0.60 / qpmin=10 / qpmax=51 / qpstep=4 / ip_ratio=1.41 / aq=1:1.00
Дата кодирования                 : UTC 2015-04-12 04:25:41
Дата пометки                     : UTC 2015-04-12 04:25:41

Аудио
Идентификатор                    : 2
Формат                           : AAC
Формат/Информация                : Advanced Audio Codec
Профиль формата                  : LC
Идентификатор кодека             : 40
Продолжительность                : 3 м. 57 с.
Вид битрейта                     : Переменный
Битрейт                          : 152 Кбит/сек
Максимальный битрейт             : 176,4 Кбит/сек
Каналы                           : 2 канала
Расположение каналов             : Front: L R
Частота                          : 44,1 КГц
Метод сжатия                     : С потерями
Размер потока                    : 4,30 Мбайт (3%)
Дата кодирования                 : UTC 2015-04-12 04:25:41
Дата пометки                     : UTC 2015-04-12 04:25:41
Общее
Полное имя                       : E:\VA - Весенний марафон № 166 (Презент Зарубежных Новинок)\Frida Amundsen  - Told You So (Official Video).mp4
Формат                           : MPEG-4
Профиль формата                  : Base Media
Идентификатор кодека             : isom
Размер файла                     : 116 Мбайт
Продолжительность                : 3 м. 27 с.
Общий поток                      : 4671 Кбит/сек
Дата кодирования                 : UTC 2015-01-19 15:05:33
Дата пометки                     : UTC 2015-01-19 15:05:33
Программа кодирования            : Lavf54.63.104

Видео
Идентификатор                    : 1
Формат                           : AVC
Формат/Информация                : Advanced Video Codec
Профиль формата                  :
Параметр CABAC формата           : Да
Параметр ReFrames формата        : 1 кадр
Идентификатор кодека             : avc1
Идентификатор кодека/Информация  : Advanced Video Coding
Продолжительность                : 3 м. 27 с.
Вид битрейта                     : Переменный
Битрейт                          : 4496 Кбит/сек
Ширина                           : 1920 пикс.
Высота                           : 1080 пикс.
Соотношение сторон               : 16:9
Режим частоты кадров             : Постоянный
Частота кадров                   : 25,000 кадр/сек
Цветовое пространство            : YUV
Подвыборка цветности             : 4:2:0
Битовая глубина                  : 8 бит
Тип развёртки                    : Прогрессивная
Бит/(Пиксели*Кадры)              : 0.087
Размер потока                    : 112 Мбайт (97%)
Библиотека кодирования           : x264 core 129
Настройки программы              : cabac=1 / ref=1 / deblock=1:0:0 / analyse=0x1:0x131 / me=dia / subme=2 / psy=1 / psy_rd=1.00:0.00 / mixed_ref=0 / me_range=16 / chroma_me=1 / trellis=0 / 8x8dct=0 / cqm=0 / deadzone=21,11 / fast_pskip=1 / chroma_qp_offset=0 / threads=2 / lookahead_threads=1 / sliced_threads=0 / nr=0 / decimate=1 / interlaced=0 / bluray_compat=0 / constrained_intra=0 / bframes=0 / weightp=2 / keyint=250 / keyint_min=25 / scenecut=40 / intra_refresh=0 / rc_lookahead=40 / rc=abr / mbtree=1 / bitrate=4496 / ratetol=1.0 / qcomp=0.60 / qpmin=10 / qpmax=51 / qpstep=4 / ip_ratio=1.41 / aq=1:1.00
Дата кодирования                 : UTC 2015-01-19 15:05:33
Дата пометки                     : UTC 2015-01-19 15:05:33

Аудио
Идентификатор                    : 2
Формат                           : AAC
Формат/Информация                : Advanced Audio Codec
Профиль формата                  : LC
Идентификатор кодека             : 40
Продолжительность                : 3 м. 27 с.
Вид битрейта                     : Переменный
Битрейт                          : 150 Кбит/сек
Максимальный битрейт             : 176,4 Кбит/сек
Каналы                           : 2 канала
Расположение каналов             : Front: L R
Частота                          : 44,1 КГц
Метод сжатия                     : С потерями
Размер потока                    : 3,72 Мбайт (3%)
Дата кодирования                 : UTC 2015-01-19 15:05:33
Дата пометки                     : UTC 2015-01-19 15:05:33
Общее
Полное имя                       : E:\VA - Весенний марафон № 166 (Презент Зарубежных Новинок)\Haifa Wehbe - Breathing You In (Official Video).mp4
Формат                           : MPEG-4
Профиль формата                  : Base Media
Идентификатор кодека             : isom
Размер файла                     : 157 Мбайт
Продолжительность                : 4 м. 42 с.
Общий поток                      : 4662 Кбит/сек
Дата кодирования                 : UTC 2015-04-14 14:00:25
Дата пометки                     : UTC 2015-04-14 14:00:25
Программа кодирования            : Lavf54.63.104

Видео
Идентификатор                    : 1
Формат                           : AVC
Формат/Информация                : Advanced Video Codec
Профиль формата                  :
Параметр CABAC формата           : Да
Параметр ReFrames формата        : 1 кадр
Идентификатор кодека             : avc1
Идентификатор кодека/Информация  : Advanced Video Coding
Продолжительность                : 4 м. 42 с.
Вид битрейта                     : Переменный
Битрейт                          : 4496 Кбит/сек
Ширина                           : 1920 пикс.
Высота                           : 1080 пикс.
Соотношение сторон               : 16:9
Режим частоты кадров             : Постоянный
Частота кадров                   : 25,000 кадр/сек
Цветовое пространство            : YUV
Подвыборка цветности             : 4:2:0
Битовая глубина                  : 8 бит
Тип развёртки                    : Прогрессивная
Бит/(Пиксели*Кадры)              : 0.087
Размер потока                    : 152 Мбайт (97%)
Библиотека кодирования           : x264 core 129
Настройки программы              : cabac=1 / ref=1 / deblock=1:0:0 / analyse=0x1:0x131 / me=dia / subme=2 / psy=1 / psy_rd=1.00:0.00 / mixed_ref=0 / me_range=16 / chroma_me=1 / trellis=0 / 8x8dct=0 / cqm=0 / deadzone=21,11 / fast_pskip=1 / chroma_qp_offset=0 / threads=2 / lookahead_threads=1 / sliced_threads=0 / nr=0 / decimate=1 / interlaced=0 / bluray_compat=0 / constrained_intra=0 / bframes=0 / weightp=2 / keyint=250 / keyint_min=25 / scenecut=40 / intra_refresh=0 / rc_lookahead=40 / rc=abr / mbtree=1 / bitrate=4496 / ratetol=1.0 / qcomp=0.60 / qpmin=10 / qpmax=51 / qpstep=4 / ip_ratio=1.41 / aq=1:1.00
Дата кодирования                 : UTC 2015-04-14 14:00:25
Дата пометки                     : UTC 2015-04-14 14:00:25

Аудио
Идентификатор                    : 2
Формат                           : AAC
Формат/Информация                : Advanced Audio Codec
Профиль формата                  : LC
Идентификатор кодека             : 40
Продолжительность                : 4 м. 42 с.
Вид битрейта                     : Переменный
Битрейт                          : 151 Кбит/сек
Максимальный битрейт             : 176,4 Кбит/сек
Каналы                           : 2 канала
Расположение каналов             : Front: L R
Частота                          : 44,1 КГц
Метод сжатия                     : С потерями
Размер потока                    : 5,08 Мбайт (3%)
Дата кодирования                 : UTC 2015-04-14 14:00:25
Дата пометки                     : UTC 2015-04-14 14:00:25
Общее
Полное имя                       : E:\VA - Весенний марафон № 166 (Презент Зарубежных Новинок)\Jacquie Lee - Tears Fall (Official Video).mp4
Формат                           : MPEG-4
Профиль формата                  : Base Media
Идентификатор кодека             : isom
Размер файла                     : 114 Мбайт
Продолжительность                : 3 м. 34 с.
Общий поток                      : 4467 Кбит/сек
Дата кодирования                 : UTC 2015-04-24 07:55:58
Дата пометки                     : UTC 2015-04-24 07:55:58
Программа кодирования            : Lavf54.63.104

Видео
Идентификатор                    : 1
Формат                           : AVC
Формат/Информация                : Advanced Video Codec
Профиль формата                  :
Параметр CABAC формата           : Да
Параметр ReFrames формата        : 1 кадр
Идентификатор кодека             : avc1
Идентификатор кодека/Информация  : Advanced Video Coding
Продолжительность                : 3 м. 34 с.
Вид битрейта                     : Переменный
Битрейт                          : 4496 Кбит/сек
Ширина                           : 1920 пикс.
Высота                           : 1080 пикс.
Соотношение сторон               : 16:9
Режим частоты кадров             : Постоянный
Частота кадров                   : 25,000 кадр/сек
Цветовое пространство            : YUV
Подвыборка цветности             : 4:2:0
Битовая глубина                  : 8 бит
Тип развёртки                    : Прогрессивная
Бит/(Пиксели*Кадры)              : 0.087
Размер потока                    : 110 Мбайт (97%)
Библиотека кодирования           : x264 core 129
Настройки программы              : cabac=1 / ref=1 / deblock=1:0:0 / analyse=0x1:0x131 / me=dia / subme=2 / psy=1 / psy_rd=1.00:0.00 / mixed_ref=0 / me_range=16 / chroma_me=1 / trellis=0 / 8x8dct=0 / cqm=0 / deadzone=21,11 / fast_pskip=1 / chroma_qp_offset=0 / threads=2 / lookahead_threads=1 / sliced_threads=0 / nr=0 / decimate=1 / interlaced=0 / bluray_compat=0 / constrained_intra=0 / bframes=0 / weightp=2 / keyint=250 / keyint_min=25 / scenecut=40 / intra_refresh=0 / rc_lookahead=40 / rc=abr / mbtree=1 / bitrate=4496 / ratetol=1.0 / qcomp=0.60 / qpmin=10 / qpmax=51 / qpstep=4 / ip_ratio=1.41 / aq=1:1.00
Дата кодирования                 : UTC 2015-04-24 07:55:58
Дата пометки                     : UTC 2015-04-24 07:55:58

Аудио
Идентификатор                    : 2
Формат                           : AAC
Формат/Информация                : Advanced Audio Codec
Профиль формата                  : LC
Идентификатор кодека             : 40
Продолжительность                : 3 м. 34 с.
Вид битрейта                     : Переменный
Битрейт                          : 150 Кбит/сек
Максимальный битрейт             : 176,4 Кбит/сек
Каналы                           : 2 канала
Расположение каналов             : Front: L R
Частота                          : 44,1 КГц
Метод сжатия                     : С потерями
Размер потока                    : 3,84 Мбайт (3%)
Дата кодирования                 : UTC 2015-04-24 07:55:58
Дата пометки                     : UTC 2015-04-24 07:55:58
Общее
Полное имя                       : E:\VA - Весенний марафон № 166 (Презент Зарубежных Новинок)\Jessie J - Flashlight (Official Video).mp4
Формат                           : MPEG-4
Профиль формата                  : Base Media
Идентификатор кодека             : isom
Размер файла                     : 119 Мбайт
Продолжительность                : 3 м. 52 с.
Общий поток                      : 4297 Кбит/сек
Дата кодирования                 : UTC 2015-04-22 00:01:38
Дата пометки                     : UTC 2015-04-22 00:01:38
Программа кодирования            : Lavf54.63.104

Видео
Идентификатор                    : 1
Формат                           : AVC
Формат/Информация                : Advanced Video Codec
Профиль формата                  :
Параметр CABAC формата           : Да
Параметр ReFrames формата        : 1 кадр
Идентификатор кодека             : avc1
Идентификатор кодека/Информация  : Advanced Video Coding
Продолжительность                : 3 м. 52 с.
Вид битрейта                     : Переменный
Битрейт                          : 4146 Кбит/сек
Номинальный битрейт              : 4496 Кбит/сек
Ширина                           : 1920 пикс.
Высота                           : 1080 пикс.
Соотношение сторон               : 16:9
Режим частоты кадров             : Постоянный
Частота кадров                   : 25,000 кадр/сек
Цветовое пространство            : YUV
Подвыборка цветности             : 4:2:0
Битовая глубина                  : 8 бит
Тип развёртки                    : Прогрессивная
Бит/(Пиксели*Кадры)              : 0.080
Размер потока                    : 115 Мбайт (96%)
Библиотека кодирования           : x264 core 129
Настройки программы              : cabac=1 / ref=1 / deblock=1:0:0 / analyse=0x1:0x131 / me=dia / subme=2 / psy=1 / psy_rd=1.00:0.00 / mixed_ref=0 / me_range=16 / chroma_me=1 / trellis=0 / 8x8dct=0 / cqm=0 / deadzone=21,11 / fast_pskip=1 / chroma_qp_offset=0 / threads=2 / lookahead_threads=1 / sliced_threads=0 / nr=0 / decimate=1 / interlaced=0 / bluray_compat=0 / constrained_intra=0 / bframes=0 / weightp=2 / keyint=250 / keyint_min=25 / scenecut=40 / intra_refresh=0 / rc_lookahead=40 / rc=abr / mbtree=1 / bitrate=4496 / ratetol=1.0 / qcomp=0.60 / qpmin=10 / qpmax=51 / qpstep=4 / ip_ratio=1.41 / aq=1:1.00
Дата кодирования                 : UTC 2015-04-22 00:01:38
Дата пометки                     : UTC 2015-04-22 00:01:38

Аудио
Идентификатор                    : 2
Формат                           : AAC
Формат/Информация                : Advanced Audio Codec
Профиль формата                  : LC
Идентификатор кодека             : 40
Продолжительность                : 3 м. 52 с.
Вид битрейта                     : Переменный
Битрейт                          : 144 Кбит/сек
Максимальный битрейт             : 176,4 Кбит/сек
Каналы                           : 2 канала
Расположение каналов             : Front: L R
Частота                          : 44,1 КГц
Метод сжатия                     : С потерями
Размер потока                    : 4,02 Мбайт (3%)
Дата кодирования                 : UTC 2015-04-22 00:01:38
Дата пометки                     : UTC 2015-04-22 00:01:38
Общее
Полное имя                       : E:\VA - Весенний марафон № 166 (Презент Зарубежных Новинок)\Last Night - Liar (Official Video).mp4
Формат                           : MPEG-4
Профиль формата                  : Base Media
Идентификатор кодека             : isom
Размер файла                     : 125 Мбайт
Продолжительность                : 3 м. 46 с.
Общий поток                      : 4639 Кбит/сек
Дата кодирования                 : UTC 2015-04-10 07:03:15
Дата пометки                     : UTC 2015-04-10 07:03:15
Программа кодирования            : Lavf54.63.104

Видео
Идентификатор                    : 1
Формат                           : AVC
Формат/Информация                : Advanced Video Codec
Профиль формата                  :
Параметр CABAC формата           : Да
Параметр ReFrames формата        : 1 кадр
Идентификатор кодека             : avc1
Идентификатор кодека/Информация  : Advanced Video Coding
Продолжительность                : 3 м. 46 с.
Вид битрейта                     : Переменный
Битрейт                          : 4496 Кбит/сек
Ширина                           : 1920 пикс.
Высота                           : 1080 пикс.
Соотношение сторон               : 16:9
Режим частоты кадров             : Постоянный
Частота кадров                   : 25,000 кадр/сек
Цветовое пространство            : YUV
Подвыборка цветности             : 4:2:0
Битовая глубина                  : 8 бит
Тип развёртки                    : Прогрессивная
Бит/(Пиксели*Кадры)              : 0.087
Размер потока                    : 121 Мбайт (97%)
Библиотека кодирования           : x264 core 129
Настройки программы              : cabac=1 / ref=1 / deblock=1:0:0 / analyse=0x1:0x131 / me=dia / subme=2 / psy=1 / psy_rd=1.00:0.00 / mixed_ref=0 / me_range=16 / chroma_me=1 / trellis=0 / 8x8dct=0 / cqm=0 / deadzone=21,11 / fast_pskip=1 / chroma_qp_offset=0 / threads=2 / lookahead_threads=1 / sliced_threads=0 / nr=0 / decimate=1 / interlaced=0 / bluray_compat=0 / constrained_intra=0 / bframes=0 / weightp=2 / keyint=250 / keyint_min=25 / scenecut=40 / intra_refresh=0 / rc_lookahead=40 / rc=abr / mbtree=1 / bitrate=4496 / ratetol=1.0 / qcomp=0.60 / qpmin=10 / qpmax=51 / qpstep=4 / ip_ratio=1.41 / aq=1:1.00
Дата кодирования                 : UTC 2015-04-10 07:03:15
Дата пометки                     : UTC 2015-04-10 07:03:15

Аудио
Идентификатор                    : 2
Формат                           : AAC
Формат/Информация                : Advanced Audio Codec
Профиль формата                  : LC
Идентификатор кодека             : 40
Продолжительность                : 3 м. 46 с.
Вид битрейта                     : Переменный
Битрейт                          : 152 Кбит/сек
Максимальный битрейт             : 176,4 Кбит/сек
Каналы                           : 2 канала
Расположение каналов             : Front: L R
Частота                          : 44,1 КГц
Метод сжатия                     : С потерями
Размер потока                    : 4,11 Мбайт (3%)
Дата кодирования                 : UTC 2015-04-10 07:03:15
Дата пометки                     : UTC 2015-04-10 07:03:15
Общее
Полное имя                       : E:\VA - Весенний марафон № 166 (Презент Зарубежных Новинок)\Mini Cuore - Na Na Naea (Official Video).mp4
Формат                           : MPEG-4
Профиль формата                  : Base Media
Идентификатор кодека             : isom
Размер файла                     : 128 Мбайт
Продолжительность                : 3 м. 54 с.
Общий поток                      : 4588 Кбит/сек
Дата кодирования                 : UTC 2015-04-06 04:30:51
Дата пометки                     : UTC 2015-04-06 04:30:51
Программа кодирования            : Lavf54.63.104

Видео
Идентификатор                    : 1
Формат                           : AVC
Формат/Информация                : Advanced Video Codec
Профиль формата                  :
Параметр CABAC формата           : Да
Параметр ReFrames формата        : 1 кадр
Идентификатор кодека             : avc1
Идентификатор кодека/Информация  : Advanced Video Coding
Продолжительность                : 3 м. 54 с.
Вид битрейта                     : Переменный
Битрейт                          : 4496 Кбит/сек
Ширина                           : 1920 пикс.
Высота                           : 1080 пикс.
Соотношение сторон               : 16:9
Режим частоты кадров             : Постоянный
Частота кадров                   : 25,000 кадр/сек
Цветовое пространство            : YUV
Подвыборка цветности             : 4:2:0
Битовая глубина                  : 8 бит
Тип развёртки                    : Прогрессивная
Бит/(Пиксели*Кадры)              : 0.087
Размер потока                    : 124 Мбайт (97%)
Библиотека кодирования           : x264 core 129
Настройки программы              : cabac=1 / ref=1 / deblock=1:0:0 / analyse=0x1:0x131 / me=dia / subme=2 / psy=1 / psy_rd=1.00:0.00 / mixed_ref=0 / me_range=16 / chroma_me=1 / trellis=0 / 8x8dct=0 / cqm=0 / deadzone=21,11 / fast_pskip=1 / chroma_qp_offset=0 / threads=2 / lookahead_threads=1 / sliced_threads=0 / nr=0 / decimate=1 / interlaced=0 / bluray_compat=0 / constrained_intra=0 / bframes=0 / weightp=2 / keyint=250 / keyint_min=25 / scenecut=40 / intra_refresh=0 / rc_lookahead=40 / rc=abr / mbtree=1 / bitrate=4496 / ratetol=1.0 / qcomp=0.60 / qpmin=10 / qpmax=51 / qpstep=4 / ip_ratio=1.41 / aq=1:1.00
Дата кодирования                 : UTC 2015-04-06 04:30:51
Дата пометки                     : UTC 2015-04-06 04:30:51

Аудио
Идентификатор                    : 2
Формат                           : AAC
Формат/Информация                : Advanced Audio Codec
Профиль формата                  : LC
Идентификатор кодека             : 40
Продолжительность                : 3 м. 54 с.
Вид битрейта                     : Переменный
Битрейт                          : 150 Кбит/сек
Максимальный битрейт             : 176,4 Кбит/сек
Каналы                           : 2 канала
Расположение каналов             : Front: L R
Частота                          : 44,1 КГц
Метод сжатия                     : С потерями
Размер потока                    : 4,19 Мбайт (3%)
Дата кодирования                 : UTC 2015-04-06 04:30:51
Дата пометки                     : UTC 2015-04-06 04:30:51
Общее
Полное имя                       : E:\VA - Весенний марафон № 166 (Презент Зарубежных Новинок)\Modern Talking - Maria ( Rainy Mix ).mp4
Формат                           : MPEG-4
Профиль формата                  : Base Media
Идентификатор кодека             : isom
Размер файла                     : 116 Мбайт
Продолжительность                : 3 м. 33 с.
Общий поток                      : 4559 Кбит/сек
Дата кодирования                 : UTC 2015-04-07 03:59:15
Дата пометки                     : UTC 2015-04-07 03:59:15
Программа кодирования            : Lavf54.63.104

Видео
Идентификатор                    : 1
Формат                           : AVC
Формат/Информация                : Advanced Video Codec
Профиль формата                  :
Параметр CABAC формата           : Да
Параметр ReFrames формата        : 1 кадр
Идентификатор кодека             : avc1
Идентификатор кодека/Информация  : Advanced Video Coding
Продолжительность                : 3 м. 33 с.
Вид битрейта                     : Переменный
Битрейт                          : 4496 Кбит/сек
Ширина                           : 1920 пикс.
Высота                           : 1080 пикс.
Соотношение сторон               : 16:9
Режим частоты кадров             : Постоянный
Частота кадров                   : 25,000 кадр/сек
Цветовое пространство            : YUV
Подвыборка цветности             : 4:2:0
Битовая глубина                  : 8 бит
Тип развёртки                    : Прогрессивная
Бит/(Пиксели*Кадры)              : 0.087
Размер потока                    : 112 Мбайт (97%)
Библиотека кодирования           : x264 core 129
Настройки программы              : cabac=1 / ref=1 / deblock=1:0:0 / analyse=0x1:0x131 / me=dia / subme=2 / psy=1 / psy_rd=1.00:0.00 / mixed_ref=0 / me_range=16 / chroma_me=1 / trellis=0 / 8x8dct=0 / cqm=0 / deadzone=21,11 / fast_pskip=1 / chroma_qp_offset=0 / threads=2 / lookahead_threads=1 / sliced_threads=0 / nr=0 / decimate=1 / interlaced=0 / bluray_compat=0 / constrained_intra=0 / bframes=0 / weightp=2 / keyint=250 / keyint_min=25 / scenecut=40 / intra_refresh=0 / rc_lookahead=40 / rc=abr / mbtree=1 / bitrate=4496 / ratetol=1.0 / qcomp=0.60 / qpmin=10 / qpmax=51 / qpstep=4 / ip_ratio=1.41 / aq=1:1.00
Дата кодирования                 : UTC 2015-04-07 03:59:15
Дата пометки                     : UTC 2015-04-07 03:59:15

Аудио
Идентификатор                    : 2
Формат                           : AAC
Формат/Информация                : Advanced Audio Codec
Профиль формата                  : LC
Идентификатор кодека             : 40
Продолжительность                : 3 м. 33 с.
Вид битрейта                     : Переменный
Битрейт                          : 152 Кбит/сек
Максимальный битрейт             : 176,4 Кбит/сек
Каналы                           : 2 канала
Расположение каналов             : Front: L R
Частота                          : 44,1 КГц
Метод сжатия                     : С потерями
Размер потока                    : 3,86 Мбайт (3%)
Дата кодирования                 : UTC 2015-04-07 03:59:15
Дата пометки                     : UTC 2015-04-07 03:59:15
Общее
Полное имя                       : E:\VA - Весенний марафон № 166 (Презент Зарубежных Новинок)\Natalie Imbruglia - Instant Crush (Official Video).mp4
Формат                           : MPEG-4
Профиль формата                  : Base Media
Идентификатор кодека             : isom
Размер файла                     : 114 Мбайт
Продолжительность                : 3 м. 24 с.
Общий поток                      : 4692 Кбит/сек
Программа кодирования            : Lavf54.63.104

Видео
Идентификатор                    : 1
Формат                           : AVC
Формат/Информация                : Advanced Video Codec
Профиль формата                  :
Параметр CABAC формата           : Да
Параметр ReFrames формата        : 1 кадр
Идентификатор кодека             : avc1
Идентификатор кодека/Информация  : Advanced Video Coding
Продолжительность                : 3 м. 24 с.
Вид битрейта                     : Переменный
Битрейт                          : 4496 Кбит/сек
Ширина                           : 1920 пикс.
Высота                           : 1080 пикс.
Соотношение сторон               : 16:9
Режим частоты кадров             : Постоянный
Частота кадров                   : 25,000 кадр/сек
Цветовое пространство            : YUV
Подвыборка цветности             : 4:2:0
Битовая глубина                  : 8 бит
Тип развёртки                    : Прогрессивная
Бит/(Пиксели*Кадры)              : 0.087
Размер потока                    : 110 Мбайт (97%)
Библиотека кодирования           : x264 core 129
Настройки программы              : cabac=1 / ref=1 / deblock=1:0:0 / analyse=0x1:0x131 / me=dia / subme=2 / psy=1 / psy_rd=1.00:0.00 / mixed_ref=0 / me_range=16 / chroma_me=1 / trellis=0 / 8x8dct=0 / cqm=0 / deadzone=21,11 / fast_pskip=1 / chroma_qp_offset=0 / threads=2 / lookahead_threads=1 / sliced_threads=0 / nr=0 / decimate=1 / interlaced=0 / bluray_compat=0 / constrained_intra=0 / bframes=0 / weightp=2 / keyint=250 / keyint_min=25 / scenecut=40 / intra_refresh=0 / rc_lookahead=40 / rc=abr / mbtree=1 / bitrate=4496 / ratetol=1.0 / qcomp=0.60 / qpmin=10 / qpmax=51 / qpstep=4 / ip_ratio=1.41 / aq=1:1.00

Аудио
Идентификатор                    : 2
Формат                           : AAC
Формат/Информация                : Advanced Audio Codec
Профиль формата                  : LC
Идентификатор кодека             : 40
Продолжительность                : 3 м. 24 с.
Вид битрейта                     : Переменный
Битрейт                          : 151 Кбит/сек
Максимальный битрейт             : 176,4 Кбит/сек
Каналы                           : 2 канала
Расположение каналов             : Front: L R
Частота                          : 44,1 КГц
Метод сжатия                     : С потерями
Размер потока                    : 3,68 Мбайт (3%)
Общее
Полное имя                       : E:\VA - Весенний марафон № 166 (Презент Зарубежных Новинок)\Natalie Page - You're For Me (Official Video).mp4
Формат                           : MPEG-4
Профиль формата                  : Base Media
Идентификатор кодека             : isom
Размер файла                     : 99,5 Мбайт
Продолжительность                : 2 м. 55 с.
Общий поток                      : 4766 Кбит/сек
Дата кодирования                 : UTC 2015-04-12 04:46:38
Дата пометки                     : UTC 2015-04-12 04:46:38
Программа кодирования            : Lavf54.63.104

Видео
Идентификатор                    : 1
Формат                           : AVC
Формат/Информация                : Advanced Video Codec
Профиль формата                  :
Параметр CABAC формата           : Да
Параметр ReFrames формата        : 1 кадр
Идентификатор кодека             : avc1
Идентификатор кодека/Информация  : Advanced Video Coding
Продолжительность                : 2 м. 55 с.
Вид битрейта                     : Переменный
Битрейт                          : 4496 Кбит/сек
Ширина                           : 1920 пикс.
Высота                           : 1080 пикс.
Соотношение сторон               : 16:9
Режим частоты кадров             : Постоянный
Частота кадров                   : 25,000 кадр/сек
Цветовое пространство            : YUV
Подвыборка цветности             : 4:2:0
Битовая глубина                  : 8 бит
Тип развёртки                    : Прогрессивная
Бит/(Пиксели*Кадры)              : 0.087
Размер потока                    : 97,2 Мбайт (98%)
Библиотека кодирования           : x264 core 129
Настройки программы              : cabac=1 / ref=1 / deblock=1:0:0 / analyse=0x1:0x131 / me=dia / subme=2 / psy=1 / psy_rd=1.00:0.00 / mixed_ref=0 / me_range=16 / chroma_me=1 / trellis=0 / 8x8dct=0 / cqm=0 / deadzone=21,11 / fast_pskip=1 / chroma_qp_offset=0 / threads=2 / lookahead_threads=1 / sliced_threads=0 / nr=0 / decimate=1 / interlaced=0 / bluray_compat=0 / constrained_intra=0 / bframes=0 / weightp=2 / keyint=250 / keyint_min=25 / scenecut=40 / intra_refresh=0 / rc_lookahead=40 / rc=abr / mbtree=1 / bitrate=4496 / ratetol=1.0 / qcomp=0.60 / qpmin=10 / qpmax=51 / qpstep=4 / ip_ratio=1.41 / aq=1:1.00
Дата кодирования                 : UTC 2015-04-12 04:46:38
Дата пометки                     : UTC 2015-04-12 04:46:38

Аудио
Идентификатор                    : 2
Формат                           : AAC
Формат/Информация                : Advanced Audio Codec
Профиль формата                  : LC
Идентификатор кодека             : 40
Продолжительность                : 2 м. 55 с.
Вид битрейта                     : Переменный
Битрейт                          : 103 Кбит/сек
Максимальный битрейт             : 176,4 Кбит/сек
Каналы                           : 2 канала
Расположение каналов             : Front: L R
Частота                          : 44,1 КГц
Метод сжатия                     : С потерями
Размер потока                    : 2,16 Мбайт (2%)
Дата кодирования                 : UTC 2015-04-12 04:46:38
Дата пометки                     : UTC 2015-04-12 04:46:38
Общее
Полное имя                       : E:\VA - Весенний марафон № 166 (Презент Зарубежных Новинок)\Phase Five - Upside Down (Official Video).mp4
Формат                           : MPEG-4
Профиль формата                  : Base Media
Идентификатор кодека             : isom
Размер файла                     : 124 Мбайт
Продолжительность                : 3 м. 45 с.
Общий поток                      : 4596 Кбит/сек
Дата кодирования                 : UTC 2015-04-18 14:11:12
Дата пометки                     : UTC 2015-04-18 14:11:12
Программа кодирования            : Lavf54.63.104

Видео
Идентификатор                    : 1
Формат                           : AVC
Формат/Информация                : Advanced Video Codec
Профиль формата                  :
Параметр CABAC формата           : Да
Параметр ReFrames формата        : 1 кадр
Идентификатор кодека             : avc1
Идентификатор кодека/Информация  : Advanced Video Coding
Продолжительность                : 3 м. 45 с.
Вид битрейта                     : Переменный
Битрейт                          : 4496 Кбит/сек
Ширина                           : 1920 пикс.
Высота                           : 1080 пикс.
Соотношение сторон               : 16:9
Режим частоты кадров             : Постоянный
Частота кадров                   : 25,000 кадр/сек
Цветовое пространство            : YUV
Подвыборка цветности             : 4:2:0
Битовая глубина                  : 8 бит
Тип развёртки                    : Прогрессивная
Бит/(Пиксели*Кадры)              : 0.087
Размер потока                    : 120 Мбайт (97%)
Библиотека кодирования           : x264 core 129
Настройки программы              : cabac=1 / ref=1 / deblock=1:0:0 / analyse=0x1:0x131 / me=dia / subme=2 / psy=1 / psy_rd=1.00:0.00 / mixed_ref=0 / me_range=16 / chroma_me=1 / trellis=0 / 8x8dct=0 / cqm=0 / deadzone=21,11 / fast_pskip=1 / chroma_qp_offset=0 / threads=2 / lookahead_threads=1 / sliced_threads=0 / nr=0 / decimate=1 / interlaced=0 / bluray_compat=0 / constrained_intra=0 / bframes=0 / weightp=2 / keyint=250 / keyint_min=25 / scenecut=40 / intra_refresh=0 / rc_lookahead=40 / rc=abr / mbtree=1 / bitrate=4496 / ratetol=1.0 / qcomp=0.60 / qpmin=10 / qpmax=51 / qpstep=4 / ip_ratio=1.41 / aq=1:1.00
Дата кодирования                 : UTC 2015-04-18 14:11:12
Дата пометки                     : UTC 2015-04-18 14:11:12

Аудио
Идентификатор                    : 2
Формат                           : AAC
Формат/Информация                : Advanced Audio Codec
Профиль формата                  : LC
Идентификатор кодека             : 40
Продолжительность                : 3 м. 45 с.
Вид битрейта                     : Переменный
Битрейт                          : 152 Кбит/сек
Максимальный битрейт             : 176,4 Кбит/сек
Каналы                           : 2 канала
Расположение каналов             : Front: L R
Частота                          : 44,1 КГц
Метод сжатия                     : С потерями
Размер потока                    : 4,09 Мбайт (3%)
Дата кодирования                 : UTC 2015-04-18 14:11:12
Дата пометки                     : UTC 2015-04-18 14:11:12
Общее
Полное имя                       : E:\VA - Весенний марафон № 166 (Презент Зарубежных Новинок)\Shawn Mendes - Aftertaste (Official Video).MP4
Формат                           : MPEG-4
Профиль формата                  : Base Media
Идентификатор кодека             : isom
Размер файла                     : 63,6 Мбайт
Продолжительность                : 3 м. 9 с.
Общий поток                      : 2819 Кбит/сек
Дата кодирования                 : UTC 2015-04-15 18:26:41
Дата пометки                     : UTC 2015-04-15 18:26:41

Видео
Идентификатор                    : 1
Формат                           : AVC
Формат/Информация                : Advanced Video Codec
Профиль формата                  :
Параметр CABAC формата           : Да
Параметр ReFrames формата        : 2 кадра
Идентификатор кодека             : avc1
Идентификатор кодека/Информация  : Advanced Video Coding
Продолжительность                : 3 м. 9 с.
Вид битрейта                     : Переменный
Битрейт                          : 2690 Кбит/сек
Ширина                           : 1920 пикс.
Высота                           : 1080 пикс.
Соотношение сторон               : 16:9
Режим частоты кадров             : Переменный
Частота кадров                   : 23,976 кадр/сек
Минимальная частота кадров       : 23,974 кадр/сек
Максимальная частота кадров      : 23,981 кадр/сек
Цветовое пространство            : YUV
Подвыборка цветности             : 4:2:0
Битовая глубина                  : 8 бит
Тип развёртки                    : Прогрессивная
Бит/(Пиксели*Кадры)              : 0.054
Размер потока                    : 60,7 Мбайт (95%)
Дата кодирования                 : UTC 2015-04-15 18:26:41
Дата пометки                     : UTC 2015-04-15 18:26:41

Аудио
Идентификатор                    : 2
Формат                           : AAC
Формат/Информация                : Advanced Audio Codec
Профиль формата                  : LC
Идентификатор кодека             : 40
Продолжительность                : 3 м. 9 с.
Вид битрейта                     : Переменный
Битрейт                          : 126 Кбит/сек
Каналы                           : 2 канала
Расположение каналов             : Front: L R
Частота                          : 44,1 КГц
Метод сжатия                     : С потерями
Размер потока                    : 2,83 Мбайт (4%)
Дата кодирования                 : UTC 2015-04-15 18:23:38
Дата пометки                     : UTC 2015-04-15 18:23:38
Общее
Полное имя                       : E:\VA - Весенний марафон № 166 (Презент Зарубежных Новинок)\Sia - Fire Meet Gasoline (Official Video).mp4
Формат                           : MPEG-4
Профиль формата                  : Base Media
Идентификатор кодека             : isom
Размер файла                     : 130 Мбайт
Продолжительность                : 4 м. 6 с.
Общий поток                      : 4423 Кбит/сек
Программа кодирования            : Lavf54.63.104

Видео
Идентификатор                    : 1
Формат                           : AVC
Формат/Информация                : Advanced Video Codec
Профиль формата                  :
Параметр CABAC формата           : Да
Параметр ReFrames формата        : 1 кадр
Идентификатор кодека             : avc1
Идентификатор кодека/Информация  : Advanced Video Coding
Продолжительность                : 4 м. 6 с.
Вид битрейта                     : Переменный
Битрейт                          : 4267 Кбит/сек
Номинальный битрейт              : 4496 Кбит/сек
Ширина                           : 1920 пикс.
Высота                           : 1080 пикс.
Соотношение сторон               : 16:9
Режим частоты кадров             : Постоянный
Частота кадров                   : 25,000 кадр/сек
Цветовое пространство            : YUV
Подвыборка цветности             : 4:2:0
Битовая глубина                  : 8 бит
Тип развёртки                    : Прогрессивная
Бит/(Пиксели*Кадры)              : 0.082
Размер потока                    : 125 Мбайт (96%)
Библиотека кодирования           : x264 core 129
Настройки программы              : cabac=1 / ref=1 / deblock=1:0:0 / analyse=0x1:0x131 / me=dia / subme=2 / psy=1 / psy_rd=1.00:0.00 / mixed_ref=0 / me_range=16 / chroma_me=1 / trellis=0 / 8x8dct=0 / cqm=0 / deadzone=21,11 / fast_pskip=1 / chroma_qp_offset=0 / threads=2 / lookahead_threads=1 / sliced_threads=0 / nr=0 / decimate=1 / interlaced=0 / bluray_compat=0 / constrained_intra=0 / bframes=0 / weightp=2 / keyint=250 / keyint_min=25 / scenecut=40 / intra_refresh=0 / rc_lookahead=40 / rc=abr / mbtree=1 / bitrate=4496 / ratetol=1.0 / qcomp=0.60 / qpmin=10 / qpmax=51 / qpstep=4 / ip_ratio=1.41 / aq=1:1.00

Аудио
Идентификатор                    : 2
Формат                           : AAC
Формат/Информация                : Advanced Audio Codec
Профиль формата                  : LC
Идентификатор кодека             : 40
Продолжительность                : 4 м. 6 с.
Вид битрейта                     : Переменный
Битрейт                          : 151 Кбит/сек
Максимальный битрейт             : 176,4 Кбит/сек
Каналы                           : 2 канала
Расположение каналов             : Front: L R
Частота                          : 44,1 КГц
Метод сжатия                     : С потерями
Размер потока                    : 4,43 Мбайт (3%)
Общее
Полное имя                       : E:\VA - Весенний марафон № 166 (Презент Зарубежных Новинок)\Sting - Fields Of Gold (Joffrey Martinache Remix).mp4
Формат                           : MPEG-4
Профиль формата                  : Base Media
Идентификатор кодека             : isom
Размер файла                     : 164 Мбайт
Продолжительность                : 5 м. 14 с.
Общий поток                      : 4369 Кбит/сек
Дата кодирования                 : UTC 2015-04-06 16:20:13
Дата пометки                     : UTC 2015-04-06 16:20:13
Программа кодирования            : Lavf54.63.104

Видео
Идентификатор                    : 1
Формат                           : AVC
Формат/Информация                : Advanced Video Codec
Профиль формата                  :
Параметр CABAC формата           : Да
Параметр ReFrames формата        : 1 кадр
Идентификатор кодека             : avc1
Идентификатор кодека/Информация  : Advanced Video Coding
Продолжительность                : 5 м. 14 с.
Вид битрейта                     : Переменный
Битрейт                          : 4213 Кбит/сек
Номинальный битрейт              : 4496 Кбит/сек
Ширина                           : 1920 пикс.
Высота                           : 1080 пикс.
Соотношение сторон               : 16:9
Режим частоты кадров             : Постоянный
Частота кадров                   : 25,000 кадр/сек
Цветовое пространство            : YUV
Подвыборка цветности             : 4:2:0
Битовая глубина                  : 8 бит
Тип развёртки                    : Прогрессивная
Бит/(Пиксели*Кадры)              : 0.081
Размер потока                    : 158 Мбайт (96%)
Библиотека кодирования           : x264 core 129
Настройки программы              : cabac=1 / ref=1 / deblock=1:0:0 / analyse=0x1:0x131 / me=dia / subme=2 / psy=1 / psy_rd=1.00:0.00 / mixed_ref=0 / me_range=16 / chroma_me=1 / trellis=0 / 8x8dct=0 / cqm=0 / deadzone=21,11 / fast_pskip=1 / chroma_qp_offset=0 / threads=2 / lookahead_threads=1 / sliced_threads=0 / nr=0 / decimate=1 / interlaced=0 / bluray_compat=0 / constrained_intra=0 / bframes=0 / weightp=2 / keyint=250 / keyint_min=25 / scenecut=40 / intra_refresh=0 / rc_lookahead=40 / rc=abr / mbtree=1 / bitrate=4496 / ratetol=1.0 / qcomp=0.60 / qpmin=10 / qpmax=51 / qpstep=4 / ip_ratio=1.41 / aq=1:1.00
Дата кодирования                 : UTC 2015-04-06 16:20:13
Дата пометки                     : UTC 2015-04-06 16:20:13

Аудио
Идентификатор                    : 2
Формат                           : AAC
Формат/Информация                : Advanced Audio Codec
Профиль формата                  : LC
Идентификатор кодека             : 40
Продолжительность                : 5 м. 14 с.
Вид битрейта                     : Переменный
Битрейт                          : 151 Кбит/сек
Максимальный битрейт             : 176,4 Кбит/сек
Каналы                           : 2 канала
Расположение каналов             : Front: L R
Частота                          : 44,1 КГц
Метод сжатия                     : С потерями
Размер потока                    : 5,66 Мбайт (3%)
Дата кодирования                 : UTC 2015-04-06 16:20:13
Дата пометки                     : UTC 2015-04-06 16:20:13
Общее
Полное имя                       : E:\VA - Весенний марафон № 166 (Презент Зарубежных Новинок)\Wisin, Carlos Vives ft. Daddy Yankee - Nota de Amor (Official Video).mp4
Формат                           : MPEG-4
Профиль формата                  : Base Media
Идентификатор кодека             : isom
Размер файла                     : 130 Мбайт
Продолжительность                : 3 м. 55 с.
Общий поток                      : 4641 Кбит/сек
Программа кодирования            : Lavf54.63.104

Видео
Идентификатор                    : 1
Формат                           : AVC
Формат/Информация                : Advanced Video Codec
Профиль формата                  :
Параметр CABAC формата           : Да
Параметр ReFrames формата        : 1 кадр
Идентификатор кодека             : avc1
Идентификатор кодека/Информация  : Advanced Video Coding
Продолжительность                : 3 м. 55 с.
Вид битрейта                     : Переменный
Битрейт                          : 4496 Кбит/сек
Ширина                           : 1920 пикс.
Высота                           : 1080 пикс.
Соотношение сторон               : 16:9
Режим частоты кадров             : Постоянный
Частота кадров                   : 25,000 кадр/сек
Цветовое пространство            : YUV
Подвыборка цветности             : 4:2:0
Битовая глубина                  : 8 бит
Тип развёртки                    : Прогрессивная
Бит/(Пиксели*Кадры)              : 0.087
Размер потока                    : 126 Мбайт (97%)
Библиотека кодирования           : x264 core 129
Настройки программы              : cabac=1 / ref=1 / deblock=1:0:0 / analyse=0x1:0x131 / me=dia / subme=2 / psy=1 / psy_rd=1.00:0.00 / mixed_ref=0 / me_range=16 / chroma_me=1 / trellis=0 / 8x8dct=0 / cqm=0 / deadzone=21,11 / fast_pskip=1 / chroma_qp_offset=0 / threads=2 / lookahead_threads=1 / sliced_threads=0 / nr=0 / decimate=1 / interlaced=0 / bluray_compat=0 / constrained_intra=0 / bframes=0 / weightp=2 / keyint=250 / keyint_min=25 / scenecut=40 / intra_refresh=0 / rc_lookahead=40 / rc=abr / mbtree=1 / bitrate=4496 / ratetol=1.0 / qcomp=0.60 / qpmin=10 / qpmax=51 / qpstep=4 / ip_ratio=1.41 / aq=1:1.00

Аудио
Идентификатор                    : 2
Формат                           : AAC
Формат/Информация                : Advanced Audio Codec
Профиль формата                  : LC
Идентификатор кодека             : 40
Продолжительность                : 3 м. 55 с.
Вид битрейта                     : Переменный
Битрейт                          : 150 Кбит/сек
Максимальный битрейт             : 176,4 Кбит/сек
Каналы                           : 2 канала
Расположение каналов             : Front: L R
Частота                          : 44,1 КГц
Метод сжатия                     : С потерями
Размер потока                    : 4,21 Мбайт (3%)
Общее
Полное имя                       : E:\VA - Весенний марафон № 166 (Презент Зарубежных Новинок)\Years & Years - King (Official Video).mp4
Формат                           : MPEG-4
Профиль формата                  : Base Media
Идентификатор кодека             : isom
Размер файла                     : 127 Мбайт
Продолжительность                : 3 м. 54 с.
Общий поток                      : 4538 Кбит/сек
Дата кодирования                 : UTC 2015-04-04 07:27:08
Дата пометки                     : UTC 2015-04-04 07:27:08
Программа кодирования            : Lavf54.63.104

Видео
Идентификатор                    : 1
Формат                           : AVC
Формат/Информация                : Advanced Video Codec
Профиль формата                  :
Параметр CABAC формата           : Да
Параметр ReFrames формата        : 1 кадр
Идентификатор кодека             : avc1
Идентификатор кодека/Информация  : Advanced Video Coding
Продолжительность                : 3 м. 54 с.
Вид битрейта                     : Переменный
Битрейт                          : 4496 Кбит/сек
Ширина                           : 1920 пикс.
Высота                           : 1080 пикс.
Соотношение сторон               : 16:9
Режим частоты кадров             : Постоянный
Частота кадров                   : 25,000 кадр/сек
Цветовое пространство            : YUV
Подвыборка цветности             : 4:2:0
Битовая глубина                  : 8 бит
Тип развёртки                    : Прогрессивная
Бит/(Пиксели*Кадры)              : 0.087
Размер потока                    : 122 Мбайт (97%)
Библиотека кодирования           : x264 core 129
Настройки программы              : cabac=1 / ref=1 / deblock=1:0:0 / analyse=0x1:0x131 / me=dia / subme=2 / psy=1 / psy_rd=1.00:0.00 / mixed_ref=0 / me_range=16 / chroma_me=1 / trellis=0 / 8x8dct=0 / cqm=0 / deadzone=21,11 / fast_pskip=1 / chroma_qp_offset=0 / threads=2 / lookahead_threads=1 / sliced_threads=0 / nr=0 / decimate=1 / interlaced=0 / bluray_compat=0 / constrained_intra=0 / bframes=0 / weightp=2 / keyint=250 / keyint_min=25 / scenecut=40 / intra_refresh=0 / rc_lookahead=40 / rc=abr / mbtree=1 / bitrate=4496 / ratetol=1.0 / qcomp=0.60 / qpmin=10 / qpmax=51 / qpstep=4 / ip_ratio=1.41 / aq=1:1.00
Дата кодирования                 : UTC 2015-04-04 07:27:08
Дата пометки                     : UTC 2015-04-04 07:27:08

Аудио
Идентификатор                    : 2
Формат                           : AAC
Формат/Информация                : Advanced Audio Codec
Профиль формата                  : LC
Идентификатор кодека             : 40
Продолжительность                : 3 м. 53 с.
Вид битрейта                     : Переменный
Битрейт                          : 148 Кбит/сек
Максимальный битрейт             : 176,4 Кбит/сек
Каналы                           : 2 канала
Расположение каналов             : Front: L R
Частота                          : 44,1 КГц
Метод сжатия                     : С потерями
Размер потока                    : 4,11 Мбайт (3%)
Дата кодирования                 : UTC 2015-04-04 07:27:08
Дата пометки                     : UTC 2015-04-04 07:27:08
Общее
Полное имя                       : E:\VA - Весенний марафон № 166 (Презент Зарубежных Новинок)\Zerotwenty - Break My Heart Again (Official Video).mp4
Формат                           : MPEG-4
Профиль формата                  : Base Media
Идентификатор кодека             : isom
Размер файла                     : 116 Мбайт
Продолжительность                : 3 м. 36 с.
Общий поток                      : 4513 Кбит/сек
Дата кодирования                 : UTC 2015-04-20 09:37:03
Дата пометки                     : UTC 2015-04-20 09:37:03
Программа кодирования            : Lavf54.63.104

Видео
Идентификатор                    : 1
Формат                           : AVC
Формат/Информация                : Advanced Video Codec
Профиль формата                  :
Параметр CABAC формата           : Да
Параметр ReFrames формата        : 1 кадр
Идентификатор кодека             : avc1
Идентификатор кодека/Информация  : Advanced Video Coding
Продолжительность                : 3 м. 36 с.
Вид битрейта                     : Переменный
Битрейт                          : 4496 Кбит/сек
Ширина                           : 1920 пикс.
Высота                           : 1080 пикс.
Соотношение сторон               : 16:9
Режим частоты кадров             : Постоянный
Частота кадров                   : 25,000 кадр/сек
Цветовое пространство            : YUV
Подвыборка цветности             : 4:2:0
Битовая глубина                  : 8 бит
Тип развёртки                    : Прогрессивная
Бит/(Пиксели*Кадры)              : 0.087
Размер потока                    : 112 Мбайт (97%)
Библиотека кодирования           : x264 core 129
Настройки программы              : cabac=1 / ref=1 / deblock=1:0:0 / analyse=0x1:0x131 / me=dia / subme=2 / psy=1 / psy_rd=1.00:0.00 / mixed_ref=0 / me_range=16 / chroma_me=1 / trellis=0 / 8x8dct=0 / cqm=0 / deadzone=21,11 / fast_pskip=1 / chroma_qp_offset=0 / threads=2 / lookahead_threads=1 / sliced_threads=0 / nr=0 / decimate=1 / interlaced=0 / bluray_compat=0 / constrained_intra=0 / bframes=0 / weightp=2 / keyint=250 / keyint_min=25 / scenecut=40 / intra_refresh=0 / rc_lookahead=40 / rc=abr / mbtree=1 / bitrate=4496 / ratetol=1.0 / qcomp=0.60 / qpmin=10 / qpmax=51 / qpstep=4 / ip_ratio=1.41 / aq=1:1.00
Дата кодирования                 : UTC 2015-04-20 09:37:03
Дата пометки                     : UTC 2015-04-20 09:37:03

Аудио
Идентификатор                    : 2
Формат                           : AAC
Формат/Информация                : Advanced Audio Codec
Профиль формата                  : LC
Идентификатор кодека             : 40
Продолжительность                : 3 м. 36 с.
Вид битрейта                     : Переменный
Битрейт                          : 152 Кбит/сек
Максимальный битрейт             : 176,4 Кбит/сек
Каналы                           : 2 канала
Расположение каналов             : Front: L R
Частота                          : 44,1 КГц
Метод сжатия                     : С потерями
Размер потока                    : 3,91 Мбайт (3%)
Дата кодирования                 : UTC 2015-04-20 09:37:03
Дата пометки                     : UTC 2015-04-20 09:37:03

Скриншоты:


Хорошего настроения

Время раздачи:
24/7 - до 5 скачавших, далее по возможности.
 
Не забывайте говорить Спасибо. Не уходите с раздачи!   
Торрент: Зарегистрирован [26 апр 2015, 22:19] Скачать торрент
Скачать торрент
[ Размер 17.78 КБ / Просмотров 21 ]
Статус:
Проверен
 
.torrent скачан: 0 раз
Хэш: e5349ec1f21320c8e3eaaa32b1c0706b6f48b053
Размер: 2.98 ГБ (3 195 954 324 байт)
Стать Автором раздачи
 
Аватара пользователя
 
Раздал: 2.45 ГБ
Скачал: 15.94 МБ
Ратио: 157.696
Сообщения: 337733
Зарегистрирован: 16 янв 2012, 17:03


  • Похожие торренты
    Ответы
    Просмотры
    Последнее сообщение

Вернуться в Музыкальные клипы (транзит)

Ресурс не предоставляет электронные версии произведений, а занимается лишь коллекционированием и каталогизацией ссылок, присылаемых и публикуемых на форуме нашими читателями. Если вы являетесь правообладателем какого-либо представленного материала и не желаете чтобы ссылка на него находилась в нашем каталоге, свяжитесь с нами и мы незамедлительно удалим её. Файлы для обмена на трекере предоставлены пользователями сайта, и администрация не несёт ответственности за их содержание. Просьба не заливать файлы, защищенные авторскими правами, а также файлы нелегального содержания!
cron