Alborada Del Inka - Amazonas (2009) WEBRip [H.264]

 
 Статистика раздачи 
Размер: 1.35 ГБ   |  Зарегистрирован: 26 апр 2015, 22:09   |   .torrent скачан: 0 раз
Сидеров: 1  [ 0 байт/сек ]     Личеров: 0  [ 0 байт/сек ]  
  

Alborada Del Inka - Amazonas (2009) WEBRip [H.264]

Сообщение Satch » 26 апр 2015, 22:09

Alborada Del Inka - Amazonas (2009) WEBRip [H.264]

Производство: Перу
Жанр: Native American, Ethnic, Folk

Режиссер: Alborada Del Inka

Описание:
В видеоряде диска вы найдете много красивой Перуанской (и не только) природы (включая сьемки, которые сделал Нивьо во время путешествия к племенам Бора и Ягуа в Амазонии), съемки в городах Икитос, Ика и Анкаш, а также фрагменты выступлений группы в Крыму.

Треклист:

00. Intro / Вступление
01. Profesia del condor y el aguila / Пророчество кондора и орла
02. Maht Ichi / Матичи
03. Primer llanto / Первый плач
04. Circulo de la amistad / Круг дружбы
05. A lo ho ho / Веселие
06. Nuevo dia / Новый день
07. Altiplano / Высокогорье
08. El ultimo indio mogicano / Последний из Могикан
09. Zizari Lucero / Звезда Сисари
10. Ananau / Ананау
11. El Сhiman / Шаман
12. Kuntur / Кондор
13. Эпилог
Продолжительность: 00:57:15
Качество видео: WEBRip

Видеокодек: AVC/H.264
Битрейт видео: ~2958 Кбит/с
Размер кадра: 1280x720
Аудиокодек: AC3 2.0
Битрейт аудио: 192 Кбит/с
Код:
Код: Выделить всё
Общее
Уникальный идентификатор                 : 149071476232619989843961213047228837581 (0x70261F3AEF9AB59EB880CE9D4AF7AECD)
Полное имя                               : C:\Раздача\Клипы\Alborada Del Inka - Amazonas (2009)\00. Intro.mkv
Формат                                   : Matroska
Версия формата                           : Version 4 / Version 2
Размер файла                             : 16,9 Мбайт
Продолжительность                        : 44 с.
Общий поток                              : 3214 Кбит/сек
Программа кодирования                    : Lavf55.33.100
Библиотека кодирования                   : Lavf55.33.100

Видео
Идентификатор                            : 1
Формат                                   : AVC
Формат/Информация                        : Advanced Video Codec
Профиль формата                          :
Параметр CABAC формата                   : Да
Параметр ReFrames формата                : 4 кадра
Идентификатор кодека                     : V_MPEG4/ISO/AVC
Продолжительность                        : 44 с.
Битрейт                                  : 2958 Кбит/сек
Номинальный битрейт                      : 3200 Кбит/сек
Ширина                                   : 1280 пикселей
Высота                                   : 720 пикселей
Соотношение сторон                       : 16:9
Режим частоты кадров                     : Постоянный
Частота кадров                           : 25,000 кадров/сек
Цветовое пространство                    : YUV
Субдискретизация насыщенности            : 4:2:0
Битовая глубина                          : 8 бит
Тип развёртки                            : Прогрессивная
Бит/(Пиксели*Кадры)                      : 0.128
Размер потока                            : 15,6 Мбайт (92%)
Библиотека кодирования                   : x264 core 136 r2350 3361d59
Настройки программы                      :
Default                                  : Да
Forced                                   : Нет

Аудио
Идентификатор                            : 2
Формат                                   : AC-3
Формат/Информация                        : Audio Coding 3
Расширение режима                        : CM (complete main)
Параметр Endianness формата              : Big
Идентификатор кодека                     : A_AC3
Продолжительность                        : 44 с.
Вид битрейта                             : Постоянный
Битрейт                                  : 192 Кбит/сек
Каналы                                   : 2 канала
Расположение каналов                     : Front: L R
Частота                                  : 48,0 КГц
Битовая глубина                          : 16 бит
Метод сжатия                             : С потерями
Размер потока                            : 1,01 Мбайт (6%)
Default                                  : Да
Forced                                   : Нет

Общее
Уникальный идентификатор                 : 254966997531014203284964837137749935015 (0xBFD0DB8794AE9F9B906C63B44F8083A7)
Полное имя                               : C:\Раздача\Клипы\Alborada Del Inka - Amazonas (2009)\00. Вступление.mkv
Формат                                   : Matroska
Версия формата                           : Version 4 / Version 2
Размер файла                             : 56,3 Мбайт
Продолжительность                        : 2 м. 20 с.
Общий поток                              : 3358 Кбит/сек
Программа кодирования                    : Lavf55.33.100
Библиотека кодирования                   : Lavf55.33.100

Видео
Идентификатор                            : 1
Формат                                   : AVC
Формат/Информация                        : Advanced Video Codec
Профиль формата                          :
Параметр CABAC формата                   : Да
Параметр ReFrames формата                : 4 кадра
Идентификатор кодека                     : V_MPEG4/ISO/AVC
Продолжительность                        : 2 м. 20 с.
Битрейт                                  : 3035 Кбит/сек
Номинальный битрейт                      : 3200 Кбит/сек
Ширина                                   : 1280 пикселей
Высота                                   : 720 пикселей
Соотношение сторон                       : 16:9
Режим частоты кадров                     : Постоянный
Частота кадров                           : 25,000 кадров/сек
Цветовое пространство                    : YUV
Субдискретизация насыщенности            : 4:2:0
Битовая глубина                          : 8 бит
Тип развёртки                            : Прогрессивная
Бит/(Пиксели*Кадры)                      : 0.132
Размер потока                            : 50,9 Мбайт (90%)
Библиотека кодирования                   : x264 core 136 r2350 3361d59
Настройки программы                      :
Default                                  : Да
Forced                                   : Нет

Аудио
Идентификатор                            : 2
Формат                                   : AC-3
Формат/Информация                        : Audio Coding 3
Расширение режима                        : CM (complete main)
Параметр Endianness формата              : Big
Идентификатор кодека                     : A_AC3
Продолжительность                        : 2 м. 20 с.
Вид битрейта                             : Постоянный
Битрейт                                  : 256 Кбит/сек
Каналы                                   : 2 канала
Расположение каналов                     : Front: L R
Частота                                  : 48,0 КГц
Битовая глубина                          : 16 бит
Метод сжатия                             : С потерями
Задержка видео                           : 1 м. 5 с.
Размер потока                            : 4,29 Мбайт (8%)
Default                                  : Да
Forced                                   : Нет

Общее
Уникальный идентификатор                 : 280549896201771379963872071325606617482 (0xD30FF1D13CFD951487248B4F5CA2218A)
Полное имя                               : C:\Раздача\Клипы\Alborada Del Inka - Amazonas (2009)\01. Profesia del condor y el aguila -  Пророчество кондора и орла.mkv
Формат                                   : Matroska
Версия формата                           : Version 4 / Version 2
Размер файла                             : 133 Мбайт
Продолжительность                        : 5 м. 29 с.
Общий поток                              : 3394 Кбит/сек
Программа кодирования                    : Lavf55.33.100
Библиотека кодирования                   : Lavf55.33.100

Видео
Идентификатор                            : 1
Формат                                   : AVC
Формат/Информация                        : Advanced Video Codec
Профиль формата                          :
Параметр CABAC формата                   : Да
Параметр ReFrames формата                : 4 кадра
Идентификатор кодека                     : V_MPEG4/ISO/AVC
Продолжительность                        : 5 м. 29 с.
Битрейт                                  : 3200 Кбит/сек
Ширина                                   : 1280 пикселей
Высота                                   : 720 пикселей
Соотношение сторон                       : 16:9
Режим частоты кадров                     : Постоянный
Частота кадров                           : 25,000 кадров/сек
Цветовое пространство                    : YUV
Субдискретизация насыщенности            : 4:2:0
Битовая глубина                          : 8 бит
Тип развёртки                            : Прогрессивная
Бит/(Пиксели*Кадры)                      : 0.139
Размер потока                            : 121 Мбайт (90%)
Библиотека кодирования                   : x264 core 136 r2350 3361d59
Настройки программы                      :
Default                                  : Да
Forced                                   : Нет

Аудио
Идентификатор                            : 2
Формат                                   : AC-3
Формат/Информация                        : Audio Coding 3
Расширение режима                        : CM (complete main)
Параметр Endianness формата              : Big
Идентификатор кодека                     : A_AC3
Продолжительность                        : 5 м. 29 с.
Вид битрейта                             : Постоянный
Битрейт                                  : 256 Кбит/сек
Каналы                                   : 2 канала
Расположение каналов                     : Front: L R
Частота                                  : 48,0 КГц
Битовая глубина                          : 16 бит
Метод сжатия                             : С потерями
Задержка видео                           : 1 м. 5 с.
Размер потока                            : 10,1 Мбайт (8%)
Default                                  : Да
Forced                                   : Нет

Общее
Уникальный идентификатор                 : 110978454015443518503133662116886171217 (0x537DAC3B1D4A955E6915ABA3C5294E51)
Полное имя                               : C:\Раздача\Клипы\Alborada Del Inka - Amazonas (2009)\02. Maht Ichi -  Матичи.mkv
Формат                                   : Matroska
Версия формата                           : Version 4 / Version 2
Размер файла                             : 136 Мбайт
Продолжительность                        : 5 м. 30 с.
Общий поток                              : 3442 Кбит/сек
Программа кодирования                    : Lavf55.33.100
Библиотека кодирования                   : Lavf55.33.100

Видео
Идентификатор                            : 1
Формат                                   : AVC
Формат/Информация                        : Advanced Video Codec
Профиль формата                          :
Параметр CABAC формата                   : Да
Параметр ReFrames формата                : 4 кадра
Идентификатор кодека                     : V_MPEG4/ISO/AVC
Продолжительность                        : 5 м. 30 с.
Битрейт                                  : 3200 Кбит/сек
Ширина                                   : 1280 пикселей
Высота                                   : 720 пикселей
Соотношение сторон                       : 16:9
Режим частоты кадров                     : Постоянный
Частота кадров                           : 25,000 кадров/сек
Цветовое пространство                    : YUV
Субдискретизация насыщенности            : 4:2:0
Битовая глубина                          : 8 бит
Тип развёртки                            : Прогрессивная
Бит/(Пиксели*Кадры)                      : 0.139
Размер потока                            : 123 Мбайт (91%)
Библиотека кодирования                   : x264 core 136 r2350 3361d59
Настройки программы                      :
Default                                  : Да
Forced                                   : Нет

Аудио
Идентификатор                            : 2
Формат                                   : AC-3
Формат/Информация                        : Audio Coding 3
Расширение режима                        : CM (complete main)
Параметр Endianness формата              : Big
Идентификатор кодека                     : A_AC3
Продолжительность                        : 5 м. 30 с.
Вид битрейта                             : Постоянный
Битрейт                                  : 256 Кбит/сек
Каналы                                   : 2 канала
Расположение каналов                     : Front: L R
Частота                                  : 48,0 КГц
Битовая глубина                          : 16 бит
Метод сжатия                             : С потерями
Задержка видео                           : 1 м. 5 с.
Размер потока                            : 10,1 Мбайт (7%)
Default                                  : Да
Forced                                   : Нет

Общее
Уникальный идентификатор                 : 263167209407947108320237010565215850904 (0xC5FC29309BD098BDBE08B4F947349198)
Полное имя                               : C:\Раздача\Клипы\Alborada Del Inka - Amazonas (2009)\03. Primer llanto - Первый плач.mkv
Формат                                   : Matroska
Версия формата                           : Version 4 / Version 2
Размер файла                             : 83,6 Мбайт
Продолжительность                        : 3 м. 21 с.
Общий поток                              : 3478 Кбит/сек
Программа кодирования                    : Lavf55.33.100
Библиотека кодирования                   : Lavf55.33.100

Видео
Идентификатор                            : 1
Формат                                   : AVC
Формат/Информация                        : Advanced Video Codec
Профиль формата                          :
Параметр CABAC формата                   : Да
Параметр ReFrames формата                : 4 кадра
Идентификатор кодека                     : V_MPEG4/ISO/AVC
Продолжительность                        : 3 м. 21 с.
Битрейт                                  : 3200 Кбит/сек
Ширина                                   : 1280 пикселей
Высота                                   : 720 пикселей
Соотношение сторон                       : 16:9
Режим частоты кадров                     : Постоянный
Частота кадров                           : 25,000 кадров/сек
Цветовое пространство                    : YUV
Субдискретизация насыщенности            : 4:2:0
Битовая глубина                          : 8 бит
Тип развёртки                            : Прогрессивная
Бит/(Пиксели*Кадры)                      : 0.139
Размер потока                            : 75,8 Мбайт (91%)
Библиотека кодирования                   : x264 core 136 r2350 3361d59
Настройки программы                      :
Default                                  : Да
Forced                                   : Нет

Аудио
Идентификатор                            : 2
Формат                                   : AC-3
Формат/Информация                        : Audio Coding 3
Расширение режима                        : CM (complete main)
Параметр Endianness формата              : Big
Идентификатор кодека                     : A_AC3
Продолжительность                        : 3 м. 21 с.
Вид битрейта                             : Постоянный
Битрейт                                  : 256 Кбит/сек
Каналы                                   : 2 канала
Расположение каналов                     : Front: L R
Частота                                  : 48,0 КГц
Битовая глубина                          : 16 бит
Метод сжатия                             : С потерями
Задержка видео                           : 1 м. 5 с.
Размер потока                            : 6,15 Мбайт (7%)
Default                                  : Да
Forced                                   : Нет

Общее
Уникальный идентификатор                 : 171807627379036416664655598214579864954 (0x8140F2075461ABFB2FDC072512C9C57A)
Полное имя                               : C:\Раздача\Клипы\Alborada Del Inka - Amazonas (2009)\04. Circulo de la amistad - Круг дружбы.mkv
Формат                                   : Matroska
Версия формата                           : Version 4 / Version 2
Размер файла                             : 106 Мбайт
Продолжительность                        : 4 м. 32 с.
Общий поток                              : 3278 Кбит/сек
Программа кодирования                    : Lavf55.33.100
Библиотека кодирования                   : Lavf55.33.100

Видео
Идентификатор                            : 1
Формат                                   : AVC
Формат/Информация                        : Advanced Video Codec
Профиль формата                          :
Параметр CABAC формата                   : Да
Параметр ReFrames формата                : 4 кадра
Идентификатор кодека                     : V_MPEG4/ISO/AVC
Продолжительность                        : 4 м. 32 с.
Битрейт                                  : 2956 Кбит/сек
Номинальный битрейт                      : 3200 Кбит/сек
Ширина                                   : 1280 пикселей
Высота                                   : 720 пикселей
Соотношение сторон                       : 16:9
Режим частоты кадров                     : Постоянный
Частота кадров                           : 25,000 кадров/сек
Цветовое пространство                    : YUV
Субдискретизация насыщенности            : 4:2:0
Битовая глубина                          : 8 бит
Тип развёртки                            : Прогрессивная
Бит/(Пиксели*Кадры)                      : 0.128
Размер потока                            : 95,9 Мбайт (90%)
Библиотека кодирования                   : x264 core 136 r2350 3361d59
Настройки программы                      :
Default                                  : Да
Forced                                   : Нет

Аудио
Идентификатор                            : 2
Формат                                   : AC-3
Формат/Информация                        : Audio Coding 3
Расширение режима                        : CM (complete main)
Параметр Endianness формата              : Big
Идентификатор кодека                     : A_AC3
Продолжительность                        : 4 м. 32 с.
Вид битрейта                             : Постоянный
Битрейт                                  : 256 Кбит/сек
Каналы                                   : 2 канала
Расположение каналов                     : Front: L R
Частота                                  : 48,0 КГц
Битовая глубина                          : 16 бит
Метод сжатия                             : С потерями
Задержка видео                           : 1 м. 5 с.
Размер потока                            : 8,31 Мбайт (8%)
Default                                  : Да
Forced                                   : Нет

Общее
Уникальный идентификатор                 : 164631003005098661900779053141411797261 (0x7BDAC720EDC0D9E00F34CA0193B0990D)
Полное имя                               : C:\Раздача\Клипы\Alborada Del Inka - Amazonas (2009)\05. A lo ho ho - Веселие.mkv
Формат                                   : Matroska
Версия формата                           : Version 4 / Version 2
Размер файла                             : 92,0 Мбайт
Продолжительность                        : 3 м. 40 с.
Общий поток                              : 3503 Кбит/сек
Программа кодирования                    : Lavf55.33.100
Библиотека кодирования                   : Lavf55.33.100

Видео
Идентификатор                            : 1
Формат                                   : AVC
Формат/Информация                        : Advanced Video Codec
Профиль формата                          :
Параметр CABAC формата                   : Да
Параметр ReFrames формата                : 4 кадра
Идентификатор кодека                     : V_MPEG4/ISO/AVC
Продолжительность                        : 3 м. 40 с.
Битрейт                                  : 3200 Кбит/сек
Ширина                                   : 1280 пикселей
Высота                                   : 720 пикселей
Соотношение сторон                       : 16:9
Режим частоты кадров                     : Постоянный
Частота кадров                           : 25,000 кадров/сек
Цветовое пространство                    : YUV
Субдискретизация насыщенности            : 4:2:0
Битовая глубина                          : 8 бит
Тип развёртки                            : Прогрессивная
Бит/(Пиксели*Кадры)                      : 0.139
Размер потока                            : 83,5 Мбайт (91%)
Библиотека кодирования                   : x264 core 136 r2350 3361d59
Настройки программы                      :
Default                                  : Да
Forced                                   : Нет

Аудио
Идентификатор                            : 2
Формат                                   : AC-3
Формат/Информация                        : Audio Coding 3
Расширение режима                        : CM (complete main)
Параметр Endianness формата              : Big
Идентификатор кодека                     : A_AC3
Продолжительность                        : 3 м. 40 с.
Вид битрейта                             : Постоянный
Битрейт                                  : 256 Кбит/сек
Каналы                                   : 2 канала
Расположение каналов                     : Front: L R
Частота                                  : 48,0 КГц
Битовая глубина                          : 16 бит
Метод сжатия                             : С потерями
Задержка видео                           : 1 м. 5 с.
Размер потока                            : 6,72 Мбайт (7%)
Default                                  : Да
Forced                                   : Нет

Общее
Уникальный идентификатор                 : 14587053927784310924834383661302293924 (0xAF95D490E40ACB4A9E7DA27150025A4)
Полное имя                               : C:\Раздача\Клипы\Alborada Del Inka - Amazonas (2009)\06. Nuevo dia - Новый день.mkv
Формат                                   : Matroska
Версия формата                           : Version 4 / Version 2
Размер файла                             : 91,2 Мбайт
Продолжительность                        : 3 м. 43 с.
Общий поток                              : 3422 Кбит/сек
Программа кодирования                    : Lavf55.33.100
Библиотека кодирования                   : Lavf55.33.100

Видео
Идентификатор                            : 1
Формат                                   : AVC
Формат/Информация                        : Advanced Video Codec
Профиль формата                          :
Параметр CABAC формата                   : Да
Параметр ReFrames формата                : 4 кадра
Идентификатор кодека                     : V_MPEG4/ISO/AVC
Продолжительность                        : 3 м. 43 с.
Битрейт                                  : 3200 Кбит/сек
Ширина                                   : 1280 пикселей
Высота                                   : 720 пикселей
Соотношение сторон                       : 16:9
Режим частоты кадров                     : Постоянный
Частота кадров                           : 25,000 кадров/сек
Цветовое пространство                    : YUV
Субдискретизация насыщенности            : 4:2:0
Битовая глубина                          : 8 бит
Тип развёртки                            : Прогрессивная
Бит/(Пиксели*Кадры)                      : 0.139
Размер потока                            : 82,6 Мбайт (91%)
Библиотека кодирования                   : x264 core 136 r2350 3361d59
Настройки программы                      :
Default                                  : Да
Forced                                   : Нет

Аудио
Идентификатор                            : 2
Формат                                   : AC-3
Формат/Информация                        : Audio Coding 3
Расширение режима                        : CM (complete main)
Параметр Endianness формата              : Big
Идентификатор кодека                     : A_AC3
Продолжительность                        : 3 м. 43 с.
Вид битрейта                             : Постоянный
Битрейт                                  : 256 Кбит/сек
Каналы                                   : 2 канала
Расположение каналов                     : Front: L R
Частота                                  : 48,0 КГц
Битовая глубина                          : 16 бит
Метод сжатия                             : С потерями
Задержка видео                           : 1 м. 5 с.
Размер потока                            : 6,82 Мбайт (7%)
Default                                  : Да
Forced                                   : Нет

Общее
Уникальный идентификатор                 : 26473761520717345904729983216704774663 (0x13EAA937A539BF658EB0D1A3BF6F6207)
Полное имя                               : C:\Раздача\Клипы\Alborada Del Inka - Amazonas (2009)\07. Altiplano - Высокогорье.mkv
Формат                                   : Matroska
Версия формата                           : Version 4 / Version 2
Размер файла                             : 101 Мбайт
Продолжительность                        : 4 м. 9 с.
Общий поток                              : 3396 Кбит/сек
Программа кодирования                    : Lavf55.33.100
Библиотека кодирования                   : Lavf55.33.100

Видео
Идентификатор                            : 1
Формат                                   : AVC
Формат/Информация                        : Advanced Video Codec
Профиль формата                          :
Параметр CABAC формата                   : Да
Параметр ReFrames формата                : 4 кадра
Идентификатор кодека                     : V_MPEG4/ISO/AVC
Продолжительность                        : 4 м. 9 с.
Битрейт                                  : 3200 Кбит/сек
Ширина                                   : 1280 пикселей
Высота                                   : 720 пикселей
Соотношение сторон                       : 16:9
Режим частоты кадров                     : Постоянный
Частота кадров                           : 25,000 кадров/сек
Цветовое пространство                    : YUV
Субдискретизация насыщенности            : 4:2:0
Битовая глубина                          : 8 бит
Тип развёртки                            : Прогрессивная
Бит/(Пиксели*Кадры)                      : 0.139
Размер потока                            : 91,3 Мбайт (90%)
Библиотека кодирования                   : x264 core 136 r2350 3361d59
Настройки программы                      :
Default                                  : Да
Forced                                   : Нет

Аудио
Идентификатор                            : 2
Формат                                   : AC-3
Формат/Информация                        : Audio Coding 3
Расширение режима                        : CM (complete main)
Параметр Endianness формата              : Big
Идентификатор кодека                     : A_AC3
Продолжительность                        : 4 м. 9 с.
Вид битрейта                             : Постоянный
Битрейт                                  : 256 Кбит/сек
Каналы                                   : 2 канала
Расположение каналов                     : Front: L R
Частота                                  : 48,0 КГц
Битовая глубина                          : 16 бит
Метод сжатия                             : С потерями
Задержка видео                           : 1 м. 5 с.
Размер потока                            : 7,60 Мбайт (8%)
Default                                  : Да
Forced                                   : Нет

Общее
Уникальный идентификатор                 : 264775484500565601981443247106954450811 (0xC731E746229A8A1FE9C900EDC291577B)
Полное имя                               : C:\Раздача\Клипы\Alborada Del Inka - Amazonas (2009)\08. El ultimo indio mogicano - Последний из Могикан.mkv
Формат                                   : Matroska
Версия формата                           : Version 4 / Version 2
Размер файла                             : 109 Мбайт
Продолжительность                        : 4 м. 33 с.
Общий поток                              : 3348 Кбит/сек
Программа кодирования                    : Lavf55.33.100
Библиотека кодирования                   : Lavf55.33.100

Видео
Идентификатор                            : 1
Формат                                   : AVC
Формат/Информация                        : Advanced Video Codec
Профиль формата                          :
Параметр CABAC формата                   : Да
Параметр ReFrames формата                : 4 кадра
Идентификатор кодека                     : V_MPEG4/ISO/AVC
Продолжительность                        : 4 м. 33 с.
Битрейт                                  : 3025 Кбит/сек
Номинальный битрейт                      : 3200 Кбит/сек
Ширина                                   : 1280 пикселей
Высота                                   : 720 пикселей
Соотношение сторон                       : 16:9
Режим частоты кадров                     : Постоянный
Частота кадров                           : 25,000 кадров/сек
Цветовое пространство                    : YUV
Субдискретизация насыщенности            : 4:2:0
Битовая глубина                          : 8 бит
Тип развёртки                            : Прогрессивная
Бит/(Пиксели*Кадры)                      : 0.131
Размер потока                            : 98,7 Мбайт (90%)
Библиотека кодирования                   : x264 core 136 r2350 3361d59
Настройки программы                      :
Default                                  : Да
Forced                                   : Нет

Аудио
Идентификатор                            : 2
Формат                                   : AC-3
Формат/Информация                        : Audio Coding 3
Расширение режима                        : CM (complete main)
Параметр Endianness формата              : Big
Идентификатор кодека                     : A_AC3
Продолжительность                        : 4 м. 33 с.
Вид битрейта                             : Постоянный
Битрейт                                  : 256 Кбит/сек
Каналы                                   : 2 канала
Расположение каналов                     : Front: L R
Частота                                  : 48,0 КГц
Битовая глубина                          : 16 бит
Метод сжатия                             : С потерями
Задержка видео                           : 1 м. 5 с.
Размер потока                            : 8,36 Мбайт (8%)
Default                                  : Да
Forced                                   : Нет

Общее
Уникальный идентификатор                 : 163367189955367280071637826984791188072 (0x7AE76055A02B89604DB45CD8DB5F2268)
Полное имя                               : C:\Раздача\Клипы\Alborada Del Inka - Amazonas (2009)\09. Zizari Lucero - Звезда Сисари.mkv
Формат                                   : Matroska
Версия формата                           : Version 4 / Version 2
Размер файла                             : 107 Мбайт
Продолжительность                        : 4 м. 24 с.
Общий поток                              : 3404 Кбит/сек
Программа кодирования                    : Lavf55.33.100
Библиотека кодирования                   : Lavf55.33.100

Видео
Идентификатор                            : 1
Формат                                   : AVC
Формат/Информация                        : Advanced Video Codec
Профиль формата                          :
Параметр CABAC формата                   : Да
Параметр ReFrames формата                : 4 кадра
Идентификатор кодека                     : V_MPEG4/ISO/AVC
Продолжительность                        : 4 м. 24 с.
Битрейт                                  : 3200 Кбит/сек
Ширина                                   : 1280 пикселей
Высота                                   : 720 пикселей
Соотношение сторон                       : 16:9
Режим частоты кадров                     : Постоянный
Частота кадров                           : 25,000 кадров/сек
Цветовое пространство                    : YUV
Субдискретизация насыщенности            : 4:2:0
Битовая глубина                          : 8 бит
Тип развёртки                            : Прогрессивная
Бит/(Пиксели*Кадры)                      : 0.139
Размер потока                            : 97,1 Мбайт (90%)
Библиотека кодирования                   : x264 core 136 r2350 3361d59
Настройки программы                      :
Default                                  : Да
Forced                                   : Нет

Аудио
Идентификатор                            : 2
Формат                                   : AC-3
Формат/Информация                        : Audio Coding 3
Расширение режима                        : CM (complete main)
Параметр Endianness формата              : Big
Идентификатор кодека                     : A_AC3
Продолжительность                        : 4 м. 24 с.
Вид битрейта                             : Постоянный
Битрейт                                  : 256 Кбит/сек
Каналы                                   : 2 канала
Расположение каналов                     : Front: L R
Частота                                  : 48,0 КГц
Битовая глубина                          : 16 бит
Метод сжатия                             : С потерями
Задержка видео                           : 1 м. 5 с.
Размер потока                            : 8,07 Мбайт (8%)
Default                                  : Да
Forced                                   : Нет

Общее
Уникальный идентификатор                 : 36319425935469456999410325407085648661 (0x1B52DDF3876BF21488EBDBB4F4E45B15)
Полное имя                               : C:\Раздача\Клипы\Alborada Del Inka - Amazonas (2009)\10. Ananau - Ананау.mkv
Формат                                   : Matroska
Версия формата                           : Version 4 / Version 2
Размер файла                             : 130 Мбайт
Продолжительность                        : 5 м. 4 с.
Общий поток                              : 3577 Кбит/сек
Программа кодирования                    : Lavf55.33.100
Библиотека кодирования                   : Lavf55.33.100

Видео
Идентификатор                            : 1
Формат                                   : AVC
Формат/Информация                        : Advanced Video Codec
Профиль формата                          :
Параметр CABAC формата                   : Да
Параметр ReFrames формата                : 4 кадра
Идентификатор кодека                     : V_MPEG4/ISO/AVC
Продолжительность                        : 5 м. 4 с.
Битрейт                                  : 3200 Кбит/сек
Ширина                                   : 1280 пикселей
Высота                                   : 720 пикселей
Соотношение сторон                       : 16:9
Режим частоты кадров                     : Постоянный
Частота кадров                           : 25,000 кадров/сек
Цветовое пространство                    : YUV
Субдискретизация насыщенности            : 4:2:0
Битовая глубина                          : 8 бит
Тип развёртки                            : Прогрессивная
Бит/(Пиксели*Кадры)                      : 0.139
Размер потока                            : 118 Мбайт (91%)
Библиотека кодирования                   : x264 core 136 r2350 3361d59
Настройки программы                      :
Default                                  : Да
Forced                                   : Нет

Аудио
Идентификатор                            : 2
Формат                                   : AC-3
Формат/Информация                        : Audio Coding 3
Расширение режима                        : CM (complete main)
Параметр Endianness формата              : Big
Идентификатор кодека                     : A_AC3
Продолжительность                        : 5 м. 4 с.
Вид битрейта                             : Постоянный
Битрейт                                  : 256 Кбит/сек
Каналы                                   : 2 канала
Расположение каналов                     : Front: L R
Частота                                  : 48,0 КГц
Битовая глубина                          : 16 бит
Метод сжатия                             : С потерями
Задержка видео                           : 1 м. 5 с.
Размер потока                            : 9,30 Мбайт (7%)
Default                                  : Да
Forced                                   : Нет

Общее
Уникальный идентификатор                 : 309708091680068115156059710502727586287 (0xE8FF9BD8E983FF5DF0B6F0E38F4011EF)
Полное имя                               : C:\Раздача\Клипы\Alborada Del Inka - Amazonas (2009)\11. El Сhiman - Шаман.mkv
Формат                                   : Matroska
Версия формата                           : Version 4 / Version 2
Размер файла                             : 105 Мбайт
Продолжительность                        : 4 м. 20 с.
Общий поток                              : 3399 Кбит/сек
Программа кодирования                    : Lavf55.33.100
Библиотека кодирования                   : Lavf55.33.100

Видео
Идентификатор                            : 1
Формат                                   : AVC
Формат/Информация                        : Advanced Video Codec
Профиль формата                          :
Параметр CABAC формата                   : Да
Параметр ReFrames формата                : 4 кадра
Идентификатор кодека                     : V_MPEG4/ISO/AVC
Продолжительность                        : 4 м. 20 с.
Битрейт                                  : 3200 Кбит/сек
Ширина                                   : 1280 пикселей
Высота                                   : 720 пикселей
Соотношение сторон                       : 16:9
Режим частоты кадров                     : Постоянный
Частота кадров                           : 25,000 кадров/сек
Цветовое пространство                    : YUV
Субдискретизация насыщенности            : 4:2:0
Битовая глубина                          : 8 бит
Тип развёртки                            : Прогрессивная
Бит/(Пиксели*Кадры)                      : 0.139
Размер потока                            : 95,4 Мбайт (90%)
Библиотека кодирования                   : x264 core 136 r2350 3361d59
Настройки программы                      :
Default                                  : Да
Forced                                   : Нет

Аудио
Идентификатор                            : 2
Формат                                   : AC-3
Формат/Информация                        : Audio Coding 3
Расширение режима                        : CM (complete main)
Параметр Endianness формата              : Big
Идентификатор кодека                     : A_AC3
Продолжительность                        : 4 м. 20 с.
Вид битрейта                             : Постоянный
Битрейт                                  : 256 Кбит/сек
Каналы                                   : 2 канала
Расположение каналов                     : Front: L R
Частота                                  : 48,0 КГц
Битовая глубина                          : 16 бит
Метод сжатия                             : С потерями
Задержка видео                           : 1 м. 5 с.
Размер потока                            : 7,94 Мбайт (8%)
Default                                  : Да
Forced                                   : Нет

Общее
Уникальный идентификатор                 : 282211998224997630500000676210438736262 (0xD4500DC624DF7FB7908FF1A9D50E8986)
Полное имя                               : C:\Раздача\Клипы\Alborada Del Inka - Amazonas (2009)\12. Kuntur - Кондор.mkv
Формат                                   : Matroska
Версия формата                           : Version 4 / Version 2
Размер файла                             : 88,3 Мбайт
Продолжительность                        : 3 м. 26 с.
Общий поток                              : 3591 Кбит/сек
Программа кодирования                    : Lavf55.33.100
Библиотека кодирования                   : Lavf55.33.100

Видео
Идентификатор                            : 1
Формат                                   : AVC
Формат/Информация                        : Advanced Video Codec
Профиль формата                          :
Параметр CABAC формата                   : Да
Параметр ReFrames формата                : 4 кадра
Идентификатор кодека                     : V_MPEG4/ISO/AVC
Продолжительность                        : 3 м. 26 с.
Битрейт                                  : 3200 Кбит/сек
Ширина                                   : 1280 пикселей
Высота                                   : 720 пикселей
Соотношение сторон                       : 16:9
Режим частоты кадров                     : Постоянный
Частота кадров                           : 25,000 кадров/сек
Цветовое пространство                    : YUV
Субдискретизация насыщенности            : 4:2:0
Битовая глубина                          : 8 бит
Тип развёртки                            : Прогрессивная
Бит/(Пиксели*Кадры)                      : 0.139
Размер потока                            : 80,3 Мбайт (91%)
Библиотека кодирования                   : x264 core 136 r2350 3361d59
Настройки программы                      :
Default                                  : Да
Forced                                   : Нет

Аудио
Идентификатор                            : 2
Формат                                   : AC-3
Формат/Информация                        : Audio Coding 3
Расширение режима                        : CM (complete main)
Параметр Endianness формата              : Big
Идентификатор кодека                     : A_AC3
Продолжительность                        : 3 м. 26 с.
Вид битрейта                             : Постоянный
Битрейт                                  : 256 Кбит/сек
Каналы                                   : 2 канала
Расположение каналов                     : Front: L R
Частота                                  : 48,0 КГц
Битовая глубина                          : 16 бит
Метод сжатия                             : С потерями
Задержка видео                           : 1 м. 5 с.
Размер потока                            : 6,30 Мбайт (7%)
Default                                  : Да
Forced                                   : Нет

Общее
Уникальный идентификатор                 : 97258500826288609562996128753154618407 (0x492B4E5009468F7128347271867D7427)
Полное имя                               : C:\Раздача\Клипы\Alborada Del Inka - Amazonas (2009)\13. Эпилог.mkv
Формат                                   : Matroska
Версия формата                           : Version 4 / Version 2
Размер файла                             : 21,7 Мбайт
Продолжительность                        : 56 с.
Общий поток                              : 3243 Кбит/сек
Программа кодирования                    : Lavf55.33.100
Библиотека кодирования                   : Lavf55.33.100

Видео
Идентификатор                            : 1
Формат                                   : AVC
Формат/Информация                        : Advanced Video Codec
Профиль формата                          :
Параметр CABAC формата                   : Да
Параметр ReFrames формата                : 4 кадра
Идентификатор кодека                     : V_MPEG4/ISO/AVC
Продолжительность                        : 56 с.
Битрейт                                  : 2923 Кбит/сек
Номинальный битрейт                      : 3200 Кбит/сек
Ширина                                   : 1280 пикселей
Высота                                   : 720 пикселей
Соотношение сторон                       : 16:9
Режим частоты кадров                     : Постоянный
Частота кадров                           : 25,000 кадров/сек
Цветовое пространство                    : YUV
Субдискретизация насыщенности            : 4:2:0
Битовая глубина                          : 8 бит
Тип развёртки                            : Прогрессивная
Бит/(Пиксели*Кадры)                      : 0.127
Размер потока                            : 19,6 Мбайт (90%)
Библиотека кодирования                   : x264 core 136 r2350 3361d59
Настройки программы                      :
Default                                  : Да
Forced                                   : Нет

Аудио
Идентификатор                            : 2
Формат                                   : AC-3
Формат/Информация                        : Audio Coding 3
Расширение режима                        : CM (complete main)
Параметр Endianness формата              : Big
Идентификатор кодека                     : A_AC3
Продолжительность                        : 56 с.
Вид битрейта                             : Постоянный
Битрейт                                  : 256 Кбит/сек
Каналы                                   : 2 канала
Расположение каналов                     : Front: L R
Частота                                  : 48,0 КГц
Битовая глубина                          : 16 бит
Метод сжатия                             : С потерями
Задержка видео                           : 1 м. 5 с.
Размер потока                            : 1,72 Мбайт (8%)
Default                                  : Да
Forced                                   : Нет

Скриншоты:



Время раздачи: с 6:00 до 22:00 (GMT +2)
 
Не забывайте говорить Спасибо. Не уходите с раздачи!   
Торрент: Зарегистрирован [26 апр 2015, 22:09] Скачать торрент
Скачать торрент
[ Размер 15.2 КБ / Просмотров 15 ]
Статус:
Проверен
 
.torrent скачан: 0 раз
Хэш: 460c4ec27a2a2b16f89a2ce7a9afd30b7a9b8d6e
Размер: 1.35 ГБ (1 445 353 433 байт)
Стать Автором раздачи
 
Аватара пользователя
 
Раздал: 2.45 ГБ
Скачал: 15.94 МБ
Ратио: 157.696
Сообщения: 337733
Зарегистрирован: 16 янв 2012, 17:03


  • Похожие торренты
    Ответы
    Просмотры
    Последнее сообщение

Вернуться в Музыкальные клипы (транзит)

Ресурс не предоставляет электронные версии произведений, а занимается лишь коллекционированием и каталогизацией ссылок, присылаемых и публикуемых на форуме нашими читателями. Если вы являетесь правообладателем какого-либо представленного материала и не желаете чтобы ссылка на него находилась в нашем каталоге, свяжитесь с нами и мы незамедлительно удалим её. Файлы для обмена на трекере предоставлены пользователями сайта, и администрация не несёт ответственности за их содержание. Просьба не заливать файлы, защищенные авторскими правами, а также файлы нелегального содержания!
cron