Атлантида / Atlantis (2014) WEB-DLRip / HDTVRip [H.264] (Сезон 2, серии 1-8 из 9) BaibaKo [MP4|1280x718]

 
 Статистика раздачи 
Размер: 9.21 ГБ   |  Зарегистрирован: 26 апр 2015, 13:23   |   .torrent скачан: 0 раз
Сидеров: 1  [ 0 байт/сек ]     Личеров: 1  [ 0 байт/сек ]  
  

Атлантида / Atlantis (2014) WEB-DLRip / HDTVRip [H.264] (Сезон 2, серии 1-8 из 9) BaibaKo [MP4|1280x718]

Сообщение Thistoll » 26 апр 2015, 13:23

Атлантида / Atlantis (2014) WEB-DLRip / HDTVRip [H.264] (Сезон 2, серии 1-8 из 9) BaibaKo

Производство: Великобритания
Жанр: фэнтези

Режиссер: Джастин Молотников, Деклан О’Двайр, Элис Тротон
Актеры: Марк Эдди, Джо Диксон, Джек Доннелли, Роберт Эммс, Аийша Харт, Сара Пэриш, Джемайма Рупер, Джордж Саввидес, Джульет Стивенсон и др.

Описание:
Молодой Ясон в наше время отправляется на поиски своего отца, но оказывается выброшенным на берег таинственной земли. Город Атлантида — это древний мир мифических существ, оракулов-предсказателей, богинь со змеями вместо волос и настолько огромных дворцов, что поговаривают, будто они построены великанами. Но вскоре Ясон оказывается втянут в смертельный ритуал, от которого нет спасения...

Сэмпл

Продолжительность: ~ 00:43:00 серия
Качество видео: WEB-DLRip 720p | HDTVRip 720p
Перевод: Многоголосый закадровый, профессиональный - BaibaKo
Автор перевода: vipere
Озвучка: Юлия Котурбаш, Алексей Кузнецов, Владимир Курдов и Виталий Ткаченко
Монтаж: Виталий Ткаченко

Видео: AVC/H.264, 1280x718 (16:9), ~4000 | 2185 Кбит/сек
Аудио #1: AAC, 2 канала, 128 Кбит/сек - русский (многоголосый закадровый, BaibaKo)
Аудио #2: AAC, 2 канала, 128 Кбит/сек - английский (оригинальный)
Код:
Код: Выделить всё
Полное имя                               : D:\Atlantis_s2_WEB-DLRip_720p_x264_BaibaKo_[NNM-CLUB]\Atlantis.s02e01.HD720p.WEB-DL.Rus.Eng.BaibaKo.tv.mp4
Формат                                   : MPEG-4
Профиль формата                          : Base Media
Идентификатор кодека                     : isom
Размер файла                             : 1,26 Гбайт
Продолжительность                        : 42 м.
Общий поток                              : 4252 Кбит/сек
Дата кодирования                         : UTC 2014-11-16 20:31:02

Видео
Идентификатор                            : 1
Формат                                   : AVC
Формат/Информация                        : Advanced Video Codec
Профиль формата                          :
Параметр CABAC формата                   : Да
Параметр ReFrames формата                : 4 кадра
Идентификатор кодека                     : avc1
Идентификатор кодека/Информация          : Advanced Video Coding
Продолжительность                        : 42 м.
Битрейт                                  : 4000 Кбит/сек
Ширина                                   : 1280 пикселей
Высота                                   : 718 пикселей
Соотношение сторон                       : 16:9
Режим частоты кадров                     : Постоянный
Частота кадров                           : 25,000 кадров/сек
Цветовое пространство                    : YUV
Субдискретизация насыщенности            : 4:2:0
Битовая глубина                          : 8 бит
Тип развёртки                            : Прогрессивная
Бит/(Пиксели*Кадры)                      : 0.174
Размер потока                            : 1,18 Гбайт (94%)
Библиотека кодирования                   : x264 core 128 r2216M 198a7ea
Настройки программы                      : cabac=1 / ref=5 / deblock=1:0:0 / analyse=0x3:0x133 / me=hex / subme=7 / psy=1 / psy_rd=1.00:0.20 / mixed_ref=1 / me_range=16 / chroma_me=1 / trellis=1 / 8x8dct=1 / cqm=0 / deadzone=21,11 / fast_pskip=1 / chroma_qp_offset=-3 / threads=12 / lookahead_threads=2 / sliced_threads=0 / nr=0 / decimate=1 / interlaced=0 / bluray_compat=0 / constrained_intra=0 / bframes=6 / b_pyramid=1 / b_adapt=2 / b_bias=0 / direct=3 / weightb=1 / open_gop=0 / weightp=2 / keyint=250 / keyint_min=25 / scenecut=40 / intra_refresh=0 / rc_lookahead=40 / rc=abr / mbtree=1 / bitrate=4000 / ratetol=1.0 / qcomp=0.60 / qpmin=10 / qpmax=51 / qpstep=4 / vbv_maxrate=31250 / vbv_bufsize=31250 / nal_hrd=none / ip_ratio=1.40 / aq=1:1.00
Язык                                     : English
Дата кодирования                         : UTC 2014-11-16 20:31:02
Дата пометки                             : UTC 2014-11-16 20:31:02

Аудио #1
Идентификатор                            : 2
Формат                                   : AAC
Формат/Информация                        : Advanced Audio Codec
Профиль формата                          : LC
Идентификатор кодека                     : 40
Продолжительность                        : 42 м.
Вид битрейта                             : Постоянный
Битрейт                                  : 128 Кбит/сек
Каналы                                   : 2 канала
Расположение каналов                     : Front: L R
Частота                                  : 48,0 КГц
Метод сжатия                             : С потерями
Размер потока                            : 38,9 Мбайт (3%)
Язык                                     : Russian
Дата кодирования                         : UTC 2014-11-16 20:31:02
Дата пометки                             : UTC 2014-11-16 20:31:02

Аудио #2
Идентификатор                            : 3
Формат                                   : AAC
Формат/Информация                        : Advanced Audio Codec
Профиль формата                          : LC
Идентификатор кодека                     : 40
Продолжительность                        : 42 м.
Вид битрейта                             : Постоянный
Битрейт                                  : 128 Кбит/сек
Каналы                                   : 2 канала
Расположение каналов                     : Front: L R
Частота                                  : 48,0 КГц
Метод сжатия                             : С потерями
Размер потока                            : 38,9 Мбайт (3%)
Язык                                     : English
Дата кодирования                         : UTC 2014-11-16 20:31:02
Дата пометки                             : UTC 2014-11-16 20:31:02
01. A New Dawn / Новая заря
02. A New Dawn: Part Two / Новая заря ч.2
03. Telemon / Телемон
04. The Marriage of True Minds / Брак честных душ
05. The Day of the Dead / День мёртвых
06. The Grey Sisters / Серые сёстры
07. A Fate Worse Than Death / Судьба хуже смерти
08. The Madness of Hercules / Безумие Геркулеса
Внимание! Раздача ведётся путём добавления новых серий; при каждом добавлении создаётся новый торрент.
Чтобы начать докачку новой серии, пользователям необходимо сделать следующее:
1. Остановить скачивание;
2. Удалить старый торрент у себя из клиента (старые серии удалять не надо);
3. Скачать новый торрент и запустить его у себя в клиенте вместо старого, при этом указать клиенту путь в старую папку куда и должно происходить скачивание новых серий. Ваш клиент при этом должен произвести хеширование (проверку) старой папки и будет докачивать только те серии, которых у вас ещё нет. Старые серии при этом не удаляются, а продолжают раздаваться! Eсли вы уже удалили старые серии, то предотвратить повторную закачку старых серий можно, отжав галочку в соответствующих местах при запуске нового торрента.

Скриншоты:




Время раздачи:
24/7 - круглосуточно
(до первых 5-ти сидов - потом по возможности)
 
Не забывайте говорить Спасибо. Не уходите с раздачи!   
Торрент: Зарегистрирован [26 апр 2015, 13:23] Для скачивания .torrent
необходима регистрация
Или скачать с помощью
MediaGet
Статус:
Проверен
 
.torrent скачан: 0 раз
Хэш: 5d27c7cbf6ce87b73e549a40dd840ef034157f85
Размер: 9.21 ГБ (9 886 016 053 байт)
Стать Автором раздачи
 
 
Раздал: 6.67 ГБ
Скачал: 302.5 МБ
Ратио: 22.576
Сообщения: 374198
Зарегистрирован: 17 апр 2014, 11:05


  • Похожие торренты
    Ответы
    Просмотры
    Последнее сообщение

Вернуться в Видео для мобильных устройств

Ресурс не предоставляет электронные версии произведений, а занимается лишь коллекционированием и каталогизацией ссылок, присылаемых и публикуемых на форуме нашими читателями. Если вы являетесь правообладателем какого-либо представленного материала и не желаете чтобы ссылка на него находилась в нашем каталоге, свяжитесь с нами и мы незамедлительно удалим её. Файлы для обмена на трекере предоставлены пользователями сайта, и администрация не несёт ответственности за их содержание. Просьба не заливать файлы, защищенные авторскими правами, а также файлы нелегального содержания!
cron