Скорпион / Scorpion (2014) WEB-DLRip [H.264] (Сезон 1, серии 1-22 из 22) BaibaKo [MP4|1280x720]

 
 Статистика раздачи 
Размер: 27.13 ГБ   |  Зарегистрирован: 23 апр 2015, 15:17   |   .torrent скачан: 0 раз
Сидеров: 1  [ 0 байт/сек ]     Личеров: 1  [ 0 байт/сек ]  
  

Скорпион / Scorpion (2014) WEB-DLRip [H.264] (Сезон 1, серии 1-22 из 22) BaibaKo [MP4|1280x720]

Сообщение Thistoll » 23 апр 2015, 15:17

Скорпион / Scorpion (2014) WEB-DLRip [H.264] (Сезон 1, серии 1-22 из 22) BaibaKo
«This team is pure genius»

Производство: США
Жанр: боевик, драма

Режиссер: Гэри Фледер, Дуайт Х. Литтл, Бобби Рот
Актеры: Элиес Габел, Кэтрин МакФи, Эри Стидэм, Эдди Кэй Томас, Джейдин Вонг, Эмили Робинсон, Роберт Патрик, Рис Риос и др.

Описание:
Сюжет основан на реальных событиях. Это история об эксцентричном гении и его группе вундеркиндов. Они являются аналитическим центром, работающим на службу национальной безопасности, и их задача — разбираться со сложными угрозами современности ...

Сэмпл

Продолжительность: ~ 00:42:00 серия
Качество видео: WEB-DLRip 720p
Перевод: Многоголосый закадровый, профессиональный - BaibaKo
Автор перевода: Татьяна Saavick
Озвучка: Anna_Smile, Юлия Котурбаш, Андрей Корзаченко, Виталий Ткаченко и Олекса Мельник
Монтаж: Виталий Ткаченко

Видео: AVC/H.264, 1280x720 (16:9), ~4000 Кбит/сек
Аудио #1: AAC, 2 канала, 128 Кбит/сек - русский (многоголосый закадровый, BaibaKo)
Аудио #2: AAC, 2 канала, 128 Кбит/сек - английский (оригинальный)
Код:
Код: Выделить всё
Полное имя                               : D:\Scorpion_s1_WEB-DLRip720p_x264_BaibaKo_[NNM-CLUB]\Scorpion.s01e01.HD720p.WEB-DL.Rus.Eng.BaibaKo.mp4
Формат                                   : MPEG-4
Профиль формата                          : Base Media
Идентификатор кодека                     : isom
Размер файла                             : 1,22 Гбайт
Продолжительность                        : 41 м.
Общий поток                              : 4207 Кбит/сек
Дата кодирования                         : UTC 2014-09-24 00:45:29
Дата пометки                             : UTC 2014-09-24 00:45:29
Программа кодирования                    : XviD4PSP 6.0 / 54.29.105

Видео
Идентификатор                            : 1
Формат                                   : AVC
Формат/Информация                        : Advanced Video Codec
Профиль формата                          :
Параметр CABAC формата                   : Да
Параметр ReFrames формата                : 4 кадра
Идентификатор кодека                     : avc1
Идентификатор кодека/Информация          : Advanced Video Coding
Продолжительность                        : 41 м.
Битрейт                                  : 4000 Кбит/сек
Ширина                                   : 1280 пикселей
Высота                                   : 720 пикселей
Соотношение сторон                       : 16:9
Режим частоты кадров                     : Постоянный
Частота кадров                           : 23,976 кадра/сек
Цветовое пространство                    : YUV
Субдискретизация насыщенности            : 4:2:0
Битовая глубина                          : 8 бит
Тип развёртки                            : Прогрессивная
Бит/(Пиксели*Кадры)                      : 0.181
Размер потока                            : 1,14 Гбайт (94%)
Библиотека кодирования                   : x264 core 128 r2216M 198a7ea
Настройки программы                      : cabac=1 / ref=5 / deblock=1:0:0 / analyse=0x3:0x133 / me=hex / subme=7 / psy=1 / psy_rd=1.00:0.20 / mixed_ref=1 / me_range=16 / chroma_me=1 / trellis=1 / 8x8dct=1 / cqm=0 / deadzone=21,11 / fast_pskip=1 / chroma_qp_offset=-3 / threads=8 / lookahead_threads=1 / sliced_threads=0 / nr=0 / decimate=1 / interlaced=0 / bluray_compat=0 / constrained_intra=0 / bframes=6 / b_pyramid=1 / b_adapt=2 / b_bias=0 / direct=3 / weightb=1 / open_gop=0 / weightp=2 / keyint=230 / keyint_min=23 / scenecut=40 / intra_refresh=0 / rc_lookahead=40 / rc=abr / mbtree=1 / bitrate=4000 / ratetol=1.0 / qcomp=0.60 / qpmin=10 / qpmax=51 / qpstep=4 / vbv_maxrate=31250 / vbv_bufsize=31250 / nal_hrd=none / ip_ratio=1.40 / aq=1:1.00
Язык                                     : English
Дата кодирования                         : UTC 2014-09-24 00:45:29
Дата пометки                             : UTC 2014-09-24 00:45:29

Аудио #1
Идентификатор                            : 2
Формат                                   : AAC
Формат/Информация                        : Advanced Audio Codec
Профиль формата                          : LC
Идентификатор кодека                     : 40
Продолжительность                        : 41 м.
Вид битрейта                             : Постоянный
Битрейт                                  : 128 Кбит/сек
Каналы                                   : 2 канала
Channel(s)_Original                      : 6 каналов
Расположение каналов                     : Front: L C R, Side: L R, LFE
Частота                                  : 48,0 КГц
Метод сжатия                             : С потерями
Размер потока                            : 38,0 Мбайт (3%)
Язык                                     : Russian
Дата кодирования                         : UTC 2014-09-24 00:45:29
Дата пометки                             : UTC 2014-09-24 00:45:29

Аудио #2
Идентификатор                            : 3
Формат                                   : AAC
Формат/Информация                        : Advanced Audio Codec
Профиль формата                          : LC
Идентификатор кодека                     : 40
Продолжительность                        : 41 м.
Вид битрейта                             : Постоянный
Битрейт                                  : 128 Кбит/сек
Каналы                                   : 2 канала
Channel(s)_Original                      : 6 каналов
Расположение каналов                     : Front: L C R, Side: L R, LFE
Частота                                  : 48,0 КГц
Метод сжатия                             : С потерями
Размер потока                            : 38,0 Мбайт (3%)
Язык                                     : English
Дата кодирования                         : UTC 2014-09-24 00:45:29
Дата пометки                             : UTC 2014-09-24 00:45:29
01 - Пилот / Pilot
02 - Единственная неудача / Single Point of Failure
03 - Циклон / A Cyclone
04 - Ловкость рук / Shorthanded
05 - Плутоний навсегда / Plutonium Is Forever
06 - Истинное я / True Colors
07 - День отца / Father's Day
08 - Рискованный бизнес / Risky Business
09 - Преступный элемент / Rogue Element
10 - Талисманы / Talismans
11 - Возмездие / Revenge
12 - Домино / Dominoes
13 - Смертельная игра / Kill Screen
14 - Шарады / Charades
15 - Незабудки / Forget Me Nots
16 - Корабль любви / Love Boat
17 - На юг / Going South
18 - Однажды укушенный боится и ужа / Once Bitten, Twice Die
19 - Огонь юных сердец / Young Hearts Spark Fire
20 - Перекрестки / Crossroads
21 - Над пропастью / Cliffhanger
22 - Открытки с края бездны / Postcards from the Edge

Скриншоты:




Время раздачи:
24/7 - круглосуточно
(до первых 5-ти сидов - потом по возможности)
 
Не забывайте говорить Спасибо. Не уходите с раздачи!   
Торрент: Зарегистрирован [23 апр 2015, 15:17] Для скачивания .torrent
необходима регистрация
Или скачать с помощью
MediaGet
Статус:
Проверен
 
.torrent скачан: 0 раз
Хэш: 230e9b56cfb4532be4b584c9b28be820779a7afb
Размер: 27.13 ГБ (29 128 806 465 байт)
Стать Автором раздачи
 
 
Раздал: 6.67 ГБ
Скачал: 302.5 МБ
Ратио: 22.576
Сообщения: 374198
Зарегистрирован: 17 апр 2014, 11:05


  • Похожие торренты
    Ответы
    Просмотры
    Последнее сообщение

Вернуться в Видео для мобильных устройств

Ресурс не предоставляет электронные версии произведений, а занимается лишь коллекционированием и каталогизацией ссылок, присылаемых и публикуемых на форуме нашими читателями. Если вы являетесь правообладателем какого-либо представленного материала и не желаете чтобы ссылка на него находилась в нашем каталоге, свяжитесь с нами и мы незамедлительно удалим её. Файлы для обмена на трекере предоставлены пользователями сайта, и администрация не несёт ответственности за их содержание. Просьба не заливать файлы, защищенные авторскими правами, а также файлы нелегального содержания!
cron