Marvel: Создание Вселенной / Marvel Studios: Assembling a Universe (2014) WEB-DL [H.264/720p]

 
 Статистика раздачи 
Размер: 1.36 ГБ   |  Зарегистрирован: 22 апр 2015, 18:59   |   .torrent скачан: 9 раз
Сидеров: 1  [ 0 байт/сек ]     Личеров: 0  [ 0 байт/сек ]  
  

Marvel: Создание Вселенной / Marvel Studios: Assembling a Universe (2014) WEB-DL [H.264/720p]

Сообщение Thistoll » 22 апр 2015, 18:59

Marvel: Создание Вселенной / Marvel Studios: Assembling a Universe (2014) WEB-DL


Телекомпания:
Marvel Entertainment, Disney-ABC Television
Жанр: Документальный
Участники: Аксель Алонсо, Виктория Алонсо, Хейли Этвелл, Джеффри Белл, Шейн Блэк, Джофф Бучер, Кеннет Брана, Стивен Бруссар, Дэн Бакли, Доминик Купер, Луис Д’Эспозито, Вин Дизель, Роберт Дауни мл., Крис Эванс, Джон Фавро, Кевин Файги, Кларк Грегг, Джеймс Ганн, Крис Хардвик, Крис Хемсворт, Сэмюэл Л. Джексон,
Скарлетт Йоханссон, Джереми Латчем, Том Морелло, Бобби Мойнахан, Гвинет Пэлтроу, Крис Пратт, Роберт Редфорд, Джереми Реннер, Марк Руффало, Себастьян Стэн, Джосс Уидон и др.
Описание:
Фильм предлагает ближе узнать историю Marvel Studios и кинематографическую вселенную Marvel. Заглядывая за кулисы съемок кинолент и беря интервью у звезд, авторы предоставляют поклонникам этой Вселенной эксклюзивный взгляд на мир кинокомиксов.


Продолжительность: 00:43:00
Качество видео: WEB-DL

Перевод: Многоголосый закадровый, профессиональный (СТС)
Язык субтитров: Английский
Вид субтитров: Вшитые

Видео: AVC/H.264 | 1280х720 (16:9) | ~3851 kbps | 23,976 fps | High @L3.1
Аудио 1: Russian: 48 kHz, AC3, 2/0 (L,R) ch, ~192.00 kbps avg
Аудио 2: English: 48 kHz, AC3, 3/2 (L,C,R,l,r) + LFE ch, ~384.00 kbps avg
Код:
Код: Выделить всё
Общее
Уникальный идентификатор                 : 237475582107101661820969530266038544097 (0xB2A8222AB3CB2BD2A152E120DEA7A6E1)
Полное имя                               : D:\TORRENT\FILMS\Marvel.Studios.Assembling.a.Universe.2014.720p.WEB-DL.Rus.Eng.HDCLUB.mkv
Формат                                   : Matroska
Версия формата                           : Version 4 / Version 2
Размер файла                             : 1,36 Гбайт
Продолжительность                        : 43 м.
Общий поток                              : 4517 Кбит/сек
Дата кодирования                         : UTC 2015-04-21 17:23:18
Программа кодирования                    : mkvmerge v7.8.0 ('River Man') 64bit built on Mar 27 2015 16:31:37
Библиотека кодирования                   : libebml v1.3.1 + libmatroska v1.4.2
DURATION                                 : 00:43:00.160000000
NUMBER_OF_FRAMES                         : 80630
NUMBER_OF_BYTES                          : 61923840
_STATISTICS_WRITING_APP                  : mkvmerge v7.8.0 ('River Man') 64bit built on Mar 27 2015 16:31:37
_STATISTICS_WRITING_DATE_UTC             : 2015-04-21 17:23:18
_STATISTICS_TAGS                         : BPS DURATION NUMBER_OF_FRAMES NUMBER_OF_BYTES

Видео
Идентификатор                            : 1
Формат                                   : AVC
Формат/Информация                        : Advanced Video Codec
Профиль формата                          :
Параметр CABAC формата                   : Нет
Параметр ReFrames формата                : 2 кадра
Идентификатор кодека                     : V_MPEG4/ISO/AVC
Продолжительность                        : 43 м.
Битрейт                                  : 3851 Кбит/сек
Ширина                                   : 1280 пикселей
Высота                                   : 720 пикселей
Соотношение сторон                       : 16:9
Режим частоты кадров                     : Постоянный
Частота кадров                           : 23,976 кадра/сек
Цветовое пространство                    : YUV
Субдискретизация насыщенности            : 4:2:0
Битовая глубина                          : 8 бит
Тип развёртки                            : Прогрессивная
Бит/(Пиксели*Кадры)                      : 0.174
Размер потока                            : 1,16 Гбайт (85%)
Заголовок                                : Marvel Studios: Assembling a Universe 2014
Язык                                     : English
Default                                  : Да
Forced                                   : Нет
Основные цвета                           : BT.709
Характеристики трансфера                 : BT.709
Коэффициенты матрицы                     : BT.709
colour_range                             : Limited

Аудио #1
Идентификатор                            : 2
Формат                                   : AC-3
Формат/Информация                        : Audio Coding 3
Расширение режима                        : CM (complete main)
Параметр Endianness формата              : Big
Идентификатор кодека                     : A_AC3
Продолжительность                        : 43 м.
Вид битрейта                             : Постоянный
Битрейт                                  : 192 Кбит/сек
Каналы                                   : 2 канала
Расположение каналов                     : Front: L R
Частота                                  : 48,0 КГц
Битовая глубина                          : 16 бит
Метод сжатия                             : С потерями
Размер потока                            : 59,1 Мбайт (4%)
Заголовок                                : AC3 2.0 @ 192 kbps - СТС
Язык                                     : Russian
Default                                  : Да
Forced                                   : Нет

Аудио #2
Идентификатор                            : 3
Формат                                   : AC-3
Формат/Информация                        : Audio Coding 3
Расширение режима                        : CM (complete main)
Параметр Endianness формата              : Big
Идентификатор кодека                     : A_AC3
Продолжительность                        : 43 м.
Вид битрейта                             : Постоянный
Битрейт                                  : 384 Кбит/сек
Каналы                                   : 6 каналов
Расположение каналов                     : Front: L C R, Side: L R, LFE
Частота                                  : 48,0 КГц
Битовая глубина                          : 16 бит
Метод сжатия                             : С потерями
Размер потока                            : 118 Мбайт (9%)
Заголовок                                : AC3 5.1 @ 384 kbps
Язык                                     : English
Default                                  : Нет
Forced                                   : Нет

Текст
Идентификатор                            : 4
Формат                                   : UTF-8
Идентификатор кодека                     : S_TEXT/UTF8
Идентификатор кодека/Информация          : UTF-8 Plain Text
Язык                                     : English
Default                                  : Нет
Forced                                   : Нет
Скриншоты:



Время раздачи: 24/7 до первых 10 скачавших. Далее по возможности
 
Не забывайте говорить Спасибо. Не уходите с раздачи!   
Торрент: Зарегистрирован [22 апр 2015, 18:59] Скачать торрент
Скачать торрент
[ Размер 14.36 КБ / Просмотров 252 ]
Статус:
Проверен
 
.torrent скачан: 9 раз
Хэш: 6f04a9b2fc99e13eef90eeeca268d3086aaf1e46
Размер: 1.36 ГБ (1 456 767 485 байт)
Стать Автором раздачи
 
 
Раздал: 6.67 ГБ
Скачал: 302.5 МБ
Ратио: 22.576
Сообщения: 374198
Зарегистрирован: 17 апр 2014, 11:05


  • Похожие торренты
    Ответы
    Просмотры
    Последнее сообщение

Вернуться в Интересно обо всем

Ресурс не предоставляет электронные версии произведений, а занимается лишь коллекционированием и каталогизацией ссылок, присылаемых и публикуемых на форуме нашими читателями. Если вы являетесь правообладателем какого-либо представленного материала и не желаете чтобы ссылка на него находилась в нашем каталоге, свяжитесь с нами и мы незамедлительно удалим её. Файлы для обмена на трекере предоставлены пользователями сайта, и администрация не несёт ответственности за их содержание. Просьба не заливать файлы, защищенные авторскими правами, а также файлы нелегального содержания!
cron