ДухLess: Дилогия / ДухLess: Dilogy (2012-2015) BDRip [H.264] [MP4|854x362/854x358]

 
 Статистика раздачи 
Размер: 2.87 ГБ   |  Зарегистрирован: 21 апр 2015, 20:55   |   .torrent скачан: 1 раз
Сидеров: 1  [ 0 байт/сек ]     Личеров: 1  [ 0 байт/сек ]  
  

ДухLess: Дилогия / ДухLess: Dilogy (2012-2015) BDRip [H.264] [MP4|854x362/854x358]

Сообщение Thistoll » 21 апр 2015, 20:55

ДухLess: Дилогия / ДухLess: Dilogy (2012-2015) BDRip


Год выпуска:
2012 / 2015
Жанр: Драма
Производство: Россия

Режиссер: Роман Прыгунов
Актеры: Данила Козловский, Артем Михалков, Михаил Ефремов, Мария Андреева, Артур Смольянинов, Мария Кожевникова, Сергей Белоголовцев, Игорь Войнаровский, Михаил Люлинецкий, Михаил Мухтасипов

Описание фильма:
Главный герой фильма — 29-летний топ-менеджер крупного международного банка по имени Макс. Он уверен, что жизнь удалась, ведь у него есть то, о чём многие не могут даже и мечтать: дорогая машина, пентхаус и вечеринки. Свою жизнь Максим тратит на зарабатывание денег, а деньги — на ночные клубы, шикарных девушек, кокаин и прочие атрибуты, так называемой, гламурной жизни. Но в какой-то момент к герою приходит осознание того, что с его жизнью что-то не так. И его мир начинает рушиться, подобно карточному домику...

Продолжительность: 01:45:24 / 01:51:31
Перевод: Оригинальный (русский)

Формат: MP4
Качество видео: BDRip
Видеокодек: AVC/H.264
Видео: 854x362 (2.35:1) / 854x358 (2.40:1), 24 fps, ~1700 kb/s
Аудио: AAC 2.0 192 kb/s VBR LC
ДухLess (2012) BDRip

Прoизводство: Россия
Жaнр: Драма

Описaние:
Главный герой фильма — 29-летний топ-менеджер крупного международного банка по имени Макс. Он уверен, что жизнь удалась, ведь у него есть то, о чём многие не могут даже и мечтать: дорогая машина, пентхаус и вечеринки. Свою жизнь Максим тратит на зарабатывание денег, а деньги — на ночные клубы, шикарных девушек, кокаин и прочие атрибуты, так называемой, гламурной жизни. Но в какой-то момент к герою приходит осознание того, что с его жизнью что-то не так. И его мир начинает рушиться, подобно карточному домику...

Рeжиссер: Роман Прыгунов
Прoдюсер: Петр Ануров, Фёдор Бондарчук, Дмитрий Рудовский
Актeры: Данила Козловский, Артем Михалков, Михаил Ефремов, Мария Андреева, Артур Смольянинов, Мария Кожевникова, Сергей Белоголовцев, Игорь Войнаровский, Михаил Люлинецкий, Михаил Мухтасипов

Продoлжительность: 01:45:24
Перевoд: Оригинальный (Русский)

Дата мировой премьеры: 4 октября 2012
Дата российской премьеры: 4 октября 2012
Дата выхода DVD/Blu-Ray релиза: 8 ноября 2012
Фoрмат: MP4
Качество видео: BDRip
Видеокодек: AVC/H.264
Битрейт видео: ~1700 kb/s
Размер кадра: 854x362
Аудиокодек: AAC
Битрейт аудио: 192 kb/s 2.0 VBR LC
Код:
Код: Выделить всё
General
Complete name               : F:\Духless - Дилогия.BDRip.NNM-CLUB\Духless.1.2012.BDRip.mp4
Format                      : MPEG-4
Format profile              : Base Media
Codec ID                    : isom
File size                   : 1.40 GiB
Duration                    : 1h 45mn
Overall bit rate mode       : Variable
Overall bit rate            : 1 895 Kbps
Encoded date                : UTC 2015-04-20 09:31:10
Tagged date                 : UTC 2015-04-20 09:31:10

Video
ID                          : 1
Format                      : AVC
Format/Info                 : Advanced Video Codec
Format profile              :
Format settings, CABAC      : Yes
Format settings, ReFrames   : 8 frames
Codec ID                    : avc1
Codec ID/Info               : Advanced Video Coding
Duration                    : 1h 45mn
Bit rate                    : 1 700 Kbps
Maximum bit rate            : 5 800 Kbps
Width                       : 854 pixels
Height                      : 362 pixels
Display aspect ratio        : 2.35:1
Frame rate mode             : Constant
Frame rate                  : 24.000 fps
Color space                 : YUV
Chroma subsampling          : 4:2:0
Bit depth                   : 8 bits
Scan type                   : Progressive
Bits/(Pixel*Frame)          : 0.229
Stream size                 : 1.25 GiB (90%)
Writing library             : x264 core 146 r2538 121396c
Encoding settings           : cabac=1 / ref=8 / deblock=1:-2:-2 / analyse=0x3:0x133 / me=umh / subme=10 / psy=1 / psy_rd=1.00:0.00 / mixed_ref=1 / me_range=48 / chroma_me=1 / trellis=2 / 8x8dct=1 / cqm=0 / deadzone=21,11 / fast_pskip=0 / chroma_qp_offset=-2 / threads=3 / lookahead_threads=1 / sliced_threads=0 / nr=0 / decimate=1 / interlaced=0 / bluray_compat=0 / constrained_intra=0 / bframes=6 / b_pyramid=2 / b_adapt=2 / b_bias=0 / direct=3 / weightb=1 / open_gop=0 / weightp=2 / keyint=240 / keyint_min=24 / scenecut=40 / intra_refresh=0 / rc_lookahead=48 / rc=2pass / mbtree=0 / bitrate=1700 / ratetol=1.0 / qcomp=0.60 / qpmin=10 / qpmax=51 / qpstep=4 / cplxblur=20.0 / qblur=0.5 / vbv_maxrate=27500 / vbv_bufsize=35000 / nal_hrd=none / filler=0 / ip_ratio=1.40 / pb_ratio=1.30 / aq=1:1.00
Encoded date                : UTC 2015-04-20 09:31:10
Tagged date                 : UTC 2015-04-20 09:31:52
Color primaries             : BT.709
Transfer characteristics    : BT.709
Matrix coefficients         : BT.709
Color range                 : Limited

Audio
ID                          : 2
Format                      : AAC
Format/Info                 : Advanced Audio Codec
Format profile              : LC
Codec ID                    : 40
Duration                    : 1h 45mn
Source duration             : 1h 45mn
Bit rate mode               : Variable
Bit rate                    : 192 Kbps
Maximum bit rate            : 200 Kbps
Channel(s)                  : 2 channels
Channel positions           : Front: L R
Sampling rate               : 48.0 KHz
Compression mode            : Lossy
Stream size                 : 145 MiB (10%)
Source stream size          : 145 MiB (10%)
Language                    : Russian
Encoded date                : UTC 2015-04-20 09:31:38
Tagged date                 : UTC 2015-04-20 09:31:52


Код:
Код: Выделить всё
x264 [info]: profile High, level 4.1
x264 [info]: frame I:1491  Avg QP:17.35  size: 44303
x264 [info]: frame P:34933 Avg QP:19.45  size: 15828
x264 [info]: frame B:115368 Avg QP:21.53  size:  6281
x264 [info]: consecutive B-frames:  2.8%  3.4% 11.0% 20.7% 16.2% 36.3%  9.6%
x264 [info]: mb I  I16..4:  6.3% 74.9% 18.8%
x264 [info]: mb P  I16..4:  2.7% 17.2%  3.1%  P16..4: 35.0% 20.6% 12.9%  0.7%  0.2%    skip: 7.6%
x264 [info]: mb B  I16..4:  0.3%  1.5%  0.3%  B16..8: 39.2% 13.0%  3.6%  direct: 8.5%  skip:33.6%  L0:44.6% L1:43.8% BI:11.6%
x264 [info]: 8x8 transform intra:74.1% inter:63.8%
x264 [info]: direct mvs  spatial:98.0% temporal:2.0%
x264 [info]: coded y,uvDC,uvAC intra: 77.3% 76.3% 51.4% inter: 30.4% 26.0% 3.6%
x264 [info]: i16 v,h,dc,p: 43% 18% 10% 28%
x264 [info]: i8 v,h,dc,ddl,ddr,vr,hd,vl,hu: 10% 11% 10%  9% 12% 12% 12% 10% 12%
x264 [info]: i4 v,h,dc,ddl,ddr,vr,hd,vl,hu: 13% 12%  5%  9% 13% 13% 12% 10% 12%
x264 [info]: i8c dc,h,v,p: 40% 25% 20% 15%
x264 [info]: Weighted P-Frames: Y:7.7% UV:5.1%
x264 [info]: ref P L0: 48.4%  8.8% 16.9%  8.6%  6.3%  4.8%  3.8%  2.2%  0.3%  0.0%
x264 [info]: ref B L0: 68.3% 15.2%  7.7%  4.0%  2.8%  1.5%  0.6%
x264 [info]: ref B L1: 91.2%  8.8%
x264 [info]: kb/s:1699.46
    В перерыве между съёмками исполнитель главной роли Данила Козловский сломал руку на спектакле в Санкт-Петербурге. Продюсеры и съёмочная группа были в ужасе, ведь предстоял последний тяжелый блок съёмок в интерьерах: клубы, танцы, эротические сцены. Но актёр не просто приехал вовремя в Москву, но и сыграл все эти сцены (две недели по 15 часов) с гипсом на руке так, что этого даже невозможно заметить на экране.

Скриншоты


ДухLess 2 (2015) BDRip

#77Прoизводство: Россия
Жaнр: Драма

Описaние:
Он отказался от всего, что так когда-то ценил — светской жизни, успешной карьеры, роскошного пентхауса. Теперь его стихия — океан. Каждый день он рассекает на серфе теплые волны, омывающие остров Бали. Но невозможно забыть ритм большого города. Случайное знакомство возвращает его в самое сердце современной столицы — высокие технологии, сумасшедшие сделки, смертельный риск и прежняя любовь, которая больше не с ним.

Рeжиссер: Роман Прыгунов
Прoдюсер: Петр Ануров, Фёдор Бондарчук, Дмитрий Рудовский
Актeры: Данила Козловский, Мария Андреева, Милош Бикович, Павел Ворожцов, Сергей Бурунов, Владимир Симонов, Доминик Пинон, Александра Бортич, Яна Набокова, Анна Александрова, Лев Прыгунов

Продoлжительность: 01:51:31
Перевoд: Оригинальный (Русский)

Дата мировой премьеры: 5 марта 2015
Дата российской премьеры: 5 марта 2015
Фoрмат: MP4
Качество видео: BDRip
Видеокодек: AVC/H.264
Битрейт видео: ~1700 kb/s
Размер кадра: 854x358
Аудиокодек: AAC
Битрейт аудио: 192 kb/s 2.0 VBR LC
Код:
Код: Выделить всё
General
Complete name               : F:\Духless - Дилогия.BDRip.NNM-CLUB\Духless.2.2015.BDRip.mp4
Format                      : MPEG-4
Format profile              : Base Media
Codec ID                    : isom
File size                   : 1.48 GiB
Duration                    : 1h 51mn
Overall bit rate mode       : Variable
Overall bit rate            : 1 895 Kbps
Encoded date                : UTC 2015-04-21 09:55:17
Tagged date                 : UTC 2015-04-21 09:55:17

Video
ID                          : 1
Format                      : AVC
Format/Info                 : Advanced Video Codec
Format profile              :
Format settings, CABAC      : Yes
Format settings, ReFrames   : 8 frames
Codec ID                    : avc1
Codec ID/Info               : Advanced Video Coding
Duration                    : 1h 51mn
Bit rate                    : 1 700 Kbps
Maximum bit rate            : 11.0 Mbps
Width                       : 854 pixels
Height                      : 358 pixels
Display aspect ratio        : 2.40:1
Frame rate mode             : Constant
Frame rate                  : 24.000 fps
Color space                 : YUV
Chroma subsampling          : 4:2:0
Bit depth                   : 8 bits
Scan type                   : Progressive
Bits/(Pixel*Frame)          : 0.232
Stream size                 : 1.32 GiB (90%)
Writing library             : x264 core 146 r2538 121396c
Encoding settings           : cabac=1 / ref=8 / deblock=1:-2:-2 / analyse=0x3:0x133 / me=umh / subme=10 / psy=1 / psy_rd=1.00:0.00 / mixed_ref=1 / me_range=48 / chroma_me=1 / trellis=2 / 8x8dct=1 / cqm=0 / deadzone=21,11 / fast_pskip=0 / chroma_qp_offset=-2 / threads=3 / lookahead_threads=1 / sliced_threads=0 / nr=0 / decimate=1 / interlaced=0 / bluray_compat=0 / constrained_intra=0 / bframes=6 / b_pyramid=2 / b_adapt=2 / b_bias=0 / direct=3 / weightb=1 / open_gop=0 / weightp=2 / keyint=240 / keyint_min=24 / scenecut=40 / intra_refresh=0 / rc_lookahead=48 / rc=2pass / mbtree=0 / bitrate=1700 / ratetol=1.0 / qcomp=0.60 / qpmin=10 / qpmax=51 / qpstep=4 / cplxblur=20.0 / qblur=0.5 / vbv_maxrate=27500 / vbv_bufsize=35000 / nal_hrd=none / filler=0 / ip_ratio=1.40 / pb_ratio=1.30 / aq=1:1.00
Encoded date                : UTC 2015-04-21 09:55:17
Tagged date                 : UTC 2015-04-21 09:56:07
Color primaries             : BT.709
Transfer characteristics    : BT.709
Matrix coefficients         : BT.709
Color range                 : Limited

Audio
ID                          : 2
Format                      : AAC
Format/Info                 : Advanced Audio Codec
Format profile              : LC
Codec ID                    : 40
Duration                    : 1h 51mn
Source duration             : 1h 51mn
Bit rate mode               : Variable
Bit rate                    : 192 Kbps
Maximum bit rate            : 200 Kbps
Channel(s)                  : 2 channels
Channel positions           : Front: L R
Sampling rate               : 48.0 KHz
Compression mode            : Lossy
Stream size                 : 153 MiB (10%)
Source stream size          : 153 MiB (10%)
Language                    : Russian
Encoded date                : UTC 2015-04-21 09:55:55
Tagged date                 : UTC 2015-04-21 09:56:07


Код:
Код: Выделить всё
x264 [info]: profile High, level 4.1
x264 [info]: frame I:1404  Avg QP:14.61  size: 41913
x264 [info]: frame P:39980 Avg QP:16.09  size: 16641
x264 [info]: frame B:119210 Avg QP:18.14  size:  5851
x264 [info]: consecutive B-frames:  3.1%  3.2% 10.9% 38.1% 16.7% 22.7%  5.2%
x264 [info]: mb I  I16..4:  8.2% 62.0% 29.8%
x264 [info]: mb P  I16..4:  1.7% 13.5%  3.4%  P16..4: 31.2% 20.3% 15.4%  1.4%  0.5%    skip:12.5%
x264 [info]: mb B  I16..4:  0.3%  1.6%  0.5%  B16..8: 32.2% 14.4%  4.6%  direct: 7.0%  skip:39.5%  L0:39.3% L1:40.4% BI:20.3%
x264 [info]: 8x8 transform intra:70.0% inter:52.4%
x264 [info]: direct mvs  spatial:97.7% temporal:2.3%
x264 [info]: coded y,uvDC,uvAC intra: 75.6% 81.6% 65.9% inter: 22.7% 20.4% 7.0%
x264 [info]: i16 v,h,dc,p: 48% 14%  7% 31%
x264 [info]: i8 v,h,dc,ddl,ddr,vr,hd,vl,hu: 19% 15% 13%  6%  8%  9%  9%  9% 11%
x264 [info]: i4 v,h,dc,ddl,ddr,vr,hd,vl,hu: 20% 14%  7%  7% 11% 11% 11%  9% 11%
x264 [info]: i8c dc,h,v,p: 42% 26% 21% 12%
x264 [info]: Weighted P-Frames: Y:4.3% UV:1.9%
x264 [info]: ref P L0: 53.7% 10.3% 14.4%  7.0%  5.2%  3.9%  3.1%  1.9%  0.3%  0.0%
x264 [info]: ref B L0: 77.8% 11.6%  5.0%  2.5%  1.7%  0.9%  0.5%
x264 [info]: ref B L1: 93.9%  6.1%
x264 [info]: kb/s:1699.71

Скриншоты



Скриншоты:


Время раздачи: Круглосуточно, до первых 10-и скачавших
Приятного просмотра!
 
Не забывайте говорить Спасибо. Не уходите с раздачи!   
Торрент: Зарегистрирован [21 апр 2015, 20:55] Для скачивания .torrent
необходима регистрация
Или скачать с помощью
MediaGet
Статус:
Проверен
 
.torrent скачан: 1 раз
Хэш: 2f95b8b7280f38e0da7918de9af950fa945a6f72
Размер: 2.87 ГБ (3 083 665 416 байт)
Стать Автором раздачи
 
 
Раздал: 6.67 ГБ
Скачал: 302.5 МБ
Ратио: 22.576
Сообщения: 374198
Зарегистрирован: 17 апр 2014, 11:05


  • Похожие торренты
    Ответы
    Просмотры
    Последнее сообщение

Вернуться в Видео для мобильных устройств

Ресурс не предоставляет электронные версии произведений, а занимается лишь коллекционированием и каталогизацией ссылок, присылаемых и публикуемых на форуме нашими читателями. Если вы являетесь правообладателем какого-либо представленного материала и не желаете чтобы ссылка на него находилась в нашем каталоге, свяжитесь с нами и мы незамедлительно удалим её. Файлы для обмена на трекере предоставлены пользователями сайта, и администрация не несёт ответственности за их содержание. Просьба не заливать файлы, защищенные авторскими правами, а также файлы нелегального содержания!
cron