Ани Лорак - Корабли (2015) HDTVRip [H.264/1080p]

 
 Статистика раздачи 
Размер: 197.97 МБ   |  Зарегистрирован: 20 апр 2015, 23:03   |   .torrent скачан: 1 раз
Сидеров: 1  [ 0 байт/сек ]     Личеров: 0  [ 0 байт/сек ]  
  

Ани Лорак - Корабли (2015) HDTVRip [H.264/1080p]

Сообщение Thistoll » 20 апр 2015, 23:03

Ани Лорак - Корабли (2015) HDTVRip [H.264/1080p]

Исполнитель: Ани Лорак
Год выпуска: 2015
Жанр: Pop
Продолжительность: 00:03:19

Описание: Известная украинская исполнительница Ани Лорак представила клип к лирической композиции «Корабли». Режиссером видео выступил известный клипмейкер Сергей Солодкий. В портфолио мастера можно найти работы для таких звезд шоу-бизнеса как Сергей Лазарев, Вера Брежнева, Полина Гагарина, группы БиС, Инь-Янь и других исполнителей. Работы над клипами Ани Лорак к песням «Медленно» и «Мальви» также курировал Солодкий.

Качество видео: HDTVRip [1080p]
Видеокодек: MPEG-4 AVC/H.264
Битрейт видео: ~ 8024 Кбит/с
Размер кадра: 1920x1080 (16:9), 25,000 кадров/с
Аудиокодек: AAC, 2 ch, stereo
Битрейт аудио: 317 Кбит/с
Код:
Код: Выделить всё
Общее
Полное имя                               : Ани Лорак - Корабли.mp4
Формат                                   : MPEG-4
Профиль формата                          : Base Media / Version 2
Идентификатор кодека                     : mp42
Размер файла                             : 198 Мбайт
Продолжительность                        : 3 м. 19 с.
Режим общего битрейта                    : Переменный
Общий поток                              : 8345 Кбит/сек
Дата кодирования                         : UTC 2015-04-17 13:57:23
Дата пометки                             : UTC 2015-04-17 13:57:25
©TIM                                     : 00:00:00:00
©TSC                                     : 25
©TSZ                                     : 1

Видео
Идентификатор                            : 1
Формат                                   : AVC
Формат/Информация                        : Advanced Video Codec
Профиль формата                          :
Параметр CABAC формата                   : Да
Параметр ReFrames формата                : 3 кадра
Параметр GOP формата                     : M=4, N=25
Идентификатор кодека                     : avc1
Идентификатор кодека/Информация          : Advanced Video Coding
Продолжительность                        : 3 м. 19 с.
Битрейт                                  : 8024 Кбит/сек
Ширина                                   : 1920 пикселей
Высота                                   : 1080 пикселей
Соотношение сторон                       : 16:9
Режим частоты кадров                     : Постоянный
Частота кадров                           : 25,000 кадров/сек
Стандарт вещания                         : PAL
Цветовое пространство                    : YUV
Субдискретизация насыщенности            : 4:2:0
Битовая глубина                          : 8 бит
Тип развёртки                            : Прогрессивная
Бит/(Пиксели*Кадры)                      : 0.155
Размер потока                            : 190 Мбайт (96%)
Язык                                     : English
Дата кодирования                         : UTC 2015-04-17 13:57:23
Дата пометки                             : UTC 2015-04-17 13:57:23
Основные цвета                           : BT.709
Характеристики трансфера                 : BT.709
Коэффициенты матрицы                     : BT.709
colour_range                             : Limited

Аудио
Идентификатор                            : 2
Формат                                   : AAC
Формат/Информация                        : Advanced Audio Codec
Профиль формата                          : LC
Идентификатор кодека                     : 40
Продолжительность                        : 3 м. 19 с.
Продолжительность оригинала              : 3 м. 19 с.
Вид битрейта                             : Переменный
Битрейт                                  : 317 Кбит/сек
Максимальный битрейт                     : 402 Кбит/сек
Каналы                                   : 2 канала
Расположение каналов                     : Front: L R
Частота                                  : 48,0 КГц
Метод сжатия                             : С потерями
Размер потока                            : 7,53 Мбайт (4%)
Размер потока оригинала                  : 7,53 Мбайт (4%)
Язык                                     : English
Дата кодирования                         : UTC 2015-04-17 13:57:23
Дата пометки                             : UTC 2015-04-17 13:57:23
Скриншоты:

 
Не забывайте говорить Спасибо. Не уходите с раздачи!   
Торрент: Зарегистрирован [20 апр 2015, 23:03] Скачать торрент
Скачать торрент
[ Размер 16.17 КБ / Просмотров 13 ]
Статус:
Проверен
 
.torrent скачан: 1 раз
Хэш: 29092e563a2e668f67e8530a9ab1875223b48fac
Размер: 197.97 МБ (207 585 499 байт)
Стать Автором раздачи
 
 
Раздал: 6.67 ГБ
Скачал: 302.5 МБ
Ратио: 22.576
Сообщения: 374198
Зарегистрирован: 17 апр 2014, 11:05


  • Похожие торренты
    Ответы
    Просмотры
    Последнее сообщение

Вернуться в Музыкальные клипы (транзит)

Ресурс не предоставляет электронные версии произведений, а занимается лишь коллекционированием и каталогизацией ссылок, присылаемых и публикуемых на форуме нашими читателями. Если вы являетесь правообладателем какого-либо представленного материала и не желаете чтобы ссылка на него находилась в нашем каталоге, свяжитесь с нами и мы незамедлительно удалим её. Файлы для обмена на трекере предоставлены пользователями сайта, и администрация не несёт ответственности за их содержание. Просьба не заливать файлы, защищенные авторскими правами, а также файлы нелегального содержания!
cron