Принц Египта / The Prince of Egypt (1998) WEBDLRip

 
 Статистика раздачи 
Размер: 2.91 ГБ   |  Зарегистрирован: 20 апр 2015, 22:41   |   .torrent скачан: 0 раз
Сидеров: 1  [ 0 байт/сек ]     Личеров: 0  [ 0 байт/сек ]  
  

Принц Египта / The Prince of Egypt (1998) WEBDLRip

Сообщение Thistoll » 20 апр 2015, 22:41

Принц Египта / The Prince of Egypt (1998)

Год выпуска: 1998
Производство: США / DreamWorks Animation
Жанр: Мультфильм, Мюзикл, Драма, Приключения, Семейный, История

Описание фильма:
Эта история случилась на заре цивилизации в Древнем Египте. Стремительный и величавый Нил вынес на берег перед дворцом фараона корзину с младенцем. Могущественный правитель усыновил крошечного мальчика и дал ему имя Моисей.
Шли годы… Моисей и его брат Рамзес росли вместе. Но придет день, когда один из братьев станет владыкой величайшей империи на земле, а другой — святым… Противоборство героев навсегда изменит их судьбы и историю человечества.

Режиссер: Бренда Чепмен, Стив Хикнер, Саймон Уэллс
Актеры: Вэл Килмер, Рэйф Файнс, Мишель Пфайффер, Сандра Буллок, Джефф Голдблюм, Дэнни Гловер, Патрик Стюарт, Хелен Миррен, Стив Мартин, Мартин Шорт, Офра Хаза

Продолжительность: 01:38:41
Качество видео: WEBDLRip
Перевод: Профессиональный (Дублированный), Профессиональный (Многоголосый закадровый), Профессиональный (Двухголосый закадровый), Авторский (Одноголосый закадровый)
Субтитры: Вшитые (Отключаемые)
Язык субтитров: Русский, Английский (Отдельным файлом)



Видеокодек: Xvid
Битрейт видео: ~1912 Кбит/сек
Размер кадра: 720x400
Аудио #1: AC3 1.0, 192 Кбит/сек - Профессиональный (Дублированный) - по заказу Первого канала
Аудио #2: AC3 2.0, 192 Кбит/сек - Профессиональный (Многоголосый закадровый) - "Премьер Мультимедиа" (Отдельным файлом)
Аудио #3: AC3 5.1, 448 Кбит/сек - Профессиональный (Двухголосый закадровый) (Отдельным файлом)
Аудио #4: AC3 2.0, 192 Кбит/сек - Профессиональный (Двухголосый закадровый) - Людмила Ильина и Вадим Андреев (Отдельным файлом)
Аудио #5: AC3 5.1, 448 Кбит/сек - Авторский (Одноголосый закадровый) - Сергей Визгунов (Отдельным файлом)
Аудио #6: AC3 2.0, 192 Кбит/сек - Авторский (Одноголосый закадровый) - Николай "Антонов" (Отдельным файлом)
Аудио #7: AC3 2.0, 192 Кбит/сек - Профессиональный (Многоголосый закадровый) К1 (Украинский) (Отдельным файлом)
Аудио #8: AC3 2.0, 192 Кбит/сек - Оригинальная звуковая дорожка (ENG) (Отдельным файлом)
Код:
Код: Выделить всё
Общее
Формат                                   : AVI
Формат/Информация                        : Audio Video Interleave
Размер файла                             : 1,46 Гбайт
Продолжительность                        : 1 ч. 38 м.
Общий поток                              : 2113 Кбит/сек
Программа кодирования                    : VirtualDubMod 1.5.10.3 | [url=http://www.virtualdub-fr.org]www.virtualdub-fr.org[/url] || (build 2550/release)
Библиотека кодирования                   : VirtualDubMod build 2550/release

Видео
Идентификатор                            : 0
Формат                                   : MPEG-4 Visual
Профиль формата                          : Advanced [email protected]
Параметр BVOP формата                    : 2
Параметр QPel формата                    : Нет
Параметр GMC формата                     : Без точки перехода
Параметр матрицы формата                 : Выборочная
Идентификатор кодека                     : XVID
Идентификатор кодека/Подсказка           : XviD
Продолжительность                        : 1 ч. 38 м.
Битрейт                                  : 1912 Кбит/сек
Ширина                                   : 720 пикселей
Высота                                   : 400 пикселей
Соотношение сторон                       : 16:9
Частота кадров                           : 23,976 кадра/сек
Цветовое пространство                    : YUV
Субдискретизация насыщенности            : 4:2:0
Битовая глубина                          : 8 бит
Тип развёртки                            : Прогрессивная
Метод сжатия                             : С потерями
Бит/(Пиксели*Кадры)                      : 0.277
Размер потока                            : 1,32 Гбайт (90%)
Библиотека кодирования                   : XviD 65

Аудио
Идентификатор                            : 1
Формат                                   : AC-3
Формат/Информация                        : Audio Coding 3
Расширение режима                        : CM (complete main)
Параметр Endianness формата              : Big
Идентификатор кодека                     : 2000
Продолжительность                        : 1 ч. 38 м.
Вид битрейта                             : Постоянный
Битрейт                                  : 192 Кбит/сек
Каналы                                   : 1 канал
Расположение каналов                     : Front: C
Частота                                  : 48,0 КГц
Битовая глубина                          : 16 бит
Метод сжатия                             : С потерями
Размер потока                            : 136 Мбайт (9%)
Выравнивание                             : Разделение по промежуткам
Продолжительность промежутка             : 42  мс. (1,00 видеокадр)
Время предзагрузки промежутка            : 500  мс.
Скриншоты:







Время раздачи:
10:00-24:00
 
Не забывайте говорить Спасибо. Не уходите с раздачи!   
Торрент: Зарегистрирован [20 апр 2015, 22:41] Для скачивания .torrent
необходима регистрация
Или скачать с помощью
MediaGet
Статус:
Проверен
 
.torrent скачан: 0 раз
Хэш: aaa7478223541ca7854c00247665ad8b483dd9f9
Размер: 2.91 ГБ (3 127 530 152 байт)
Стать Автором раздачи
 
 
Раздал: 6.67 ГБ
Скачал: 302.5 МБ
Ратио: 22.576
Сообщения: 374198
Зарегистрирован: 17 апр 2014, 11:05


  • Похожие торренты
    Ответы
    Просмотры
    Последнее сообщение

Вернуться в Зарубежные мультфильмы

Кто сейчас на конференции

Сейчас эту тему просматривают: нет зарегистрированных пользователей и гости: 1

Ресурс не предоставляет электронные версии произведений, а занимается лишь коллекционированием и каталогизацией ссылок, присылаемых и публикуемых на форуме нашими читателями. Если вы являетесь правообладателем какого-либо представленного материала и не желаете чтобы ссылка на него находилась в нашем каталоге, свяжитесь с нами и мы незамедлительно удалим её. Файлы для обмена на трекере предоставлены пользователями сайта, и администрация не несёт ответственности за их содержание. Просьба не заливать файлы, защищенные авторскими правами, а также файлы нелегального содержания!