Кости / Bones (2014) WEB-DLRip [H.264] (Сезон 10, серии 1-14 из 22) BaibaKo [MP4|720x400]

 
 Статистика раздачи 
Размер: 7.98 ГБ   |  Зарегистрирован: 20 апр 2015, 07:25   |   .torrent скачан: 0 раз
Сидеров: 1  [ 0 байт/сек ]     Личеров: 0  [ 0 байт/сек ]  
  

Кости / Bones (2014) WEB-DLRip [H.264] (Сезон 10, серии 1-14 из 22) BaibaKo [MP4|720x400]

Сообщение Thistoll » 20 апр 2015, 07:25

Кости / Bones (2014) WEB-DLRip [H.264] (Сезон 10, серии 1-14 из 22) BaibaKo
«To Unravel A Murder, You Have To Strip It To The Bone»

Производство: США
Жанр: Драма, детектив

Режиссер: Иэн Тойнтон, Франсуа Вель
Актеры: Эмили Дешанель, Дэвид Бореаназ, Микаэла Конлин, Тамара Тэйлор, Томас Джозеф Тайн, Джон Фрэнсис Дэйли и др.

Описание:
Сериал посвящён раскрытию преступлений, которые расследует специальный агент ФБР Сили Бут с помощью команды антропологов из института Джефферсона под руководством доктора Темперанс Бреннан.

Заговор в высших эшелонах власти продолжает сеять смерть. Доктор Бреннан и агент Бут с командой узнают всё больше данных, которые затрагивают очень влиятельных людей. Сильные мира сего пытаются уничтожить все зацепки и не остановятся ни перед чем, чтобы прекратить расследование…

Сэмпл

Продолжительность: ~ 00:44:00 серия
Качество видео: WEB-DLRip
Перевод: Многоголосый закадровый, профессиональный - BaibaKo
Автор перевода: Наталья Черненко
Озвучка: Лира Грим, Светлана Доманова, Татьяна Оболевич, Артемий Мирон и Алексей Кузнецов
Монтаж: Виталий Ткаченко

Видео: AVC/H.264, 720x400 (16:9), ~1536 Кбит/сек
Аудио #1: AAC, 2 канала, 192 Кбит/сек - русский (многоголосый закадровый, BaibaKo)
Аудио #2: AAC, 2 канала, 192 Кбит/сек - английский (оригинальный)
Код:
Код: Выделить всё
Полное имя                               : M:\Bones_s10_WEB-DLRip_x264_BaibaKo_[NNM-CLUB]\Bones.s10e01.WEB-DLRip.x264.Rus.Eng.BaibaKo.tv.mp4
Формат                                   : MPEG-4
Профиль формата                          : Base Media
Идентификатор кодека                     : isom
Размер файла                             : 603 Мбайт
Продолжительность                        : 43 м.
Режим общего битрейта                    : Переменный
Общий поток                              : 1920 Кбит/сек
Дата кодирования                         : UTC 2014-09-27 16:25:14
Дата пометки                             : UTC 2014-09-27 16:25:14

Видео
Идентификатор                            : 1
Формат                                   : AVC
Формат/Информация                        : Advanced Video Codec
Профиль формата                          :
Параметр CABAC формата                   : Нет
Параметр ReFrames формата                : 3 кадра
Идентификатор кодека                     : avc1
Идентификатор кодека/Информация          : Advanced Video Coding
Продолжительность                        : 43 м.
Битрейт                                  : 1536 Кбит/сек
Максимальный битрейт                     : 9349 Кбит/сек
Ширина                                   : 720 пикселей
Высота                                   : 400 пикселей
Соотношение сторон                       : 16:9
Режим частоты кадров                     : Переменный
Частота кадров                           : 23,976 кадра/сек
Минимальная частота кадров               : 23,974 кадра/сек
Максимальная частота кадров              : 23,981 кадра/сек
Цветовое пространство                    : YUV
Субдискретизация насыщенности            : 4:2:0
Битовая глубина                          : 8 бит
Тип развёртки                            : Прогрессивная
Бит/(Пиксели*Кадры)                      : 0.222
Размер потока                            : 482 Мбайт (80%)
Библиотека кодирования                   : x264 core 130 r2273 b3065e6
Настройки программы                      : cabac=0 / ref=3 / deblock=1:0:0 / analyse=0x1:0x111 / me=hex / subme=7 / psy=1 / psy_rd=1.00:0.00 / mixed_ref=1 / me_range=16 / chroma_me=1 / trellis=1 / 8x8dct=0 / cqm=0 / deadzone=21,11 / fast_pskip=1 / chroma_qp_offset=-2 / threads=12 / lookahead_threads=2 / sliced_threads=0 / nr=0 / decimate=1 / interlaced=0 / bluray_compat=0 / constrained_intra=0 / bframes=0 / weightp=0 / keyint=240 / keyint_min=24 / scenecut=40 / intra_refresh=0 / rc_lookahead=40 / rc=2pass / mbtree=1 / bitrate=1536 / ratetol=1.0 / qcomp=0.60 / qpmin=0 / qpmax=69 / qpstep=4 / cplxblur=20.0 / qblur=0.5 / ip_ratio=1.40 / aq=1:1.00
Дата кодирования                         : UTC 2014-09-26 10:50:14
Дата пометки                             : UTC 2014-09-27 16:25:28
Основные цвета                           : BT.709
Характеристики трансфера                 : BT.709
Коэффициенты матрицы                     : BT.709

Аудио #1
Идентификатор                            : 2
Формат                                   : AAC
Формат/Информация                        : Advanced Audio Codec
Профиль формата                          : LC
Идентификатор кодека                     : 67
Продолжительность                        : 43 м.
Вид битрейта                             : Переменный
Битрейт                                  : 192 Кбит/сек
Максимальный битрейт                     : 197 Кбит/сек
Каналы                                   : 2 канала
Расположение каналов                     : Front: L R
Частота                                  : 48,0 КГц
Метод сжатия                             : С потерями
Размер потока                            : 59,4 Мбайт (10%)
Язык                                     : Russian
Дата кодирования                         : UTC 2014-09-27 16:25:22
Дата пометки                             : UTC 2014-09-27 16:25:28

Аудио #2
Идентификатор                            : 3
Формат                                   : AAC
Формат/Информация                        : Advanced Audio Codec
Профиль формата                          : LC
Идентификатор кодека                     : 67
Продолжительность                        : 43 м.
Вид битрейта                             : Переменный
Битрейт                                  : 192 Кбит/сек
Максимальный битрейт                     : 196 Кбит/сек
Каналы                                   : 2 канала
Расположение каналов                     : Front: L R
Частота                                  : 48,0 КГц
Метод сжатия                             : С потерями
Размер потока                            : 59,4 Мбайт (10%)
Язык                                     : English
Дата кодирования                         : UTC 2014-09-27 16:25:25
Дата пометки                             : UTC 2014-09-27 16:25:28
01. The Conspiracy in the Corpse / Заговор в трупе
02. The Lance To The Heart / Ланцет в сердце
03. Полезная терапия / The Purging Of The Pundit
04. The Geek In The Guck / Геймер в грязи
05. The Corpse At The Convention / Труп на конвенте
06. The Lost Love In The Foreign Land / Потерянная любовь в чужой земле
07. The Money Maker On The Merry Go-R / Трейдер на карусели
08. The Puzzler In The Pit / Составитель кроссвордов в скважине
09. The Mutilation of the Master Manipulator / Расчленение мастера манипуляций
10. The 200th In The 10th / Двухсотка в десятке
11. The Psychic In The Soup / Суп из медиума
12. The Teacher In The Books / Учитель в книгах
Внимание! Раздача ведётся путём добавления новых серий; при каждом добавлении создаётся новый торрент.
Чтобы начать докачку новой серии, пользователям необходимо сделать следующее:
1. Остановить скачивание;
2. Удалить старый торрент у себя из клиента (старые серии удалять не надо);
3. Скачать новый торрент и запустить его у себя в клиенте вместо старого, при этом указать клиенту путь в старую папку куда и должно происходить скачивание новых серий. Ваш клиент при этом должен произвести хеширование (проверку) старой папки и будет докачивать только те серии, которых у вас ещё нет. Старые серии при этом не удаляются, а продолжают раздаваться! Eсли вы уже удалили старые серии, то предотвратить повторную закачку старых серий можно, отжав галочку в соответствующих местах при запуске нового торрента.
Скриншоты




Время раздачи:
24/7 - круглосуточно
(до первых 5-ти сидов - потом по возможности)
 
Не забывайте говорить Спасибо. Не уходите с раздачи!   
Торрент: Зарегистрирован [20 апр 2015, 07:25] Для скачивания .torrent
необходима регистрация
Или скачать с помощью
MediaGet
Статус:
Проверен
 
.torrent скачан: 0 раз
Хэш: 70a0b198b17689567bd1605d204a3f76830a5eea
Размер: 7.98 ГБ (8 563 440 127 байт)
Стать Автором раздачи
 
 
Раздал: 6.67 ГБ
Скачал: 302.5 МБ
Ратио: 22.576
Сообщения: 374198
Зарегистрирован: 17 апр 2014, 11:05


  • Похожие торренты
    Ответы
    Просмотры
    Последнее сообщение

Вернуться в Видео для мобильных устройств

Ресурс не предоставляет электронные версии произведений, а занимается лишь коллекционированием и каталогизацией ссылок, присылаемых и публикуемых на форуме нашими читателями. Если вы являетесь правообладателем какого-либо представленного материала и не желаете чтобы ссылка на него находилась в нашем каталоге, свяжитесь с нами и мы незамедлительно удалим её. Файлы для обмена на трекере предоставлены пользователями сайта, и администрация не несёт ответственности за их содержание. Просьба не заливать файлы, защищенные авторскими правами, а также файлы нелегального содержания!
cron