VA - Весенний марафон № 165 / Видеоклипы (Весенние Зарубежные Хиты) (2015) WEBRip [H.264/1080p-LQ]

 
 Статистика раздачи 
Размер: 3.13 ГБ   |  Зарегистрирован: 20 апр 2015, 07:23   |   .torrent скачан: 1 раз
Сидеров: 1  [ 0 байт/сек ]     Личеров: 0  [ 0 байт/сек ]  
  

VA - Весенний марафон № 165 / Видеоклипы (Весенние Зарубежные Хиты) (2015) WEBRip [H.264/1080p-LQ]

Сообщение Thistoll » 20 апр 2015, 07:23

VA - Весенний марафон № 165 / (Весенние Зарубежные Хиты) (2015) WEBRip

Год выпуска: 2015
Жанр: Pop, Dance, Latino, Country, Indie, Soul, Chill Out
Контейнер: MP4
Кол-во клипов: 25
Продолжительность: 01:34:35

Описание:
Весенние (18.04.2015) поп. новинки зарубежной эстрады. Не пропустите, держите новые треки.

Видеокодек: AVC/H.264
Битрейт видео: 4.496 ~ 4.109 kbps avg, 0.087 - 0.081 bit.pixel
Размер кадра: 1920x1080 (16:9), 25.000 fps
Качество видео: WEBRip
Аудиокодек: AAC, 2 ch
Битрейт аудио: 106 - 152 Kbps avg
1. Amalia feat. Eli - Prizonieri (Official Video) (00:03:42)
2. Annely Cole ft. Hevito - Bamboleo (Official Video) (00:03:23)
3. ASU Studio - Saka Boom (Official Video) (00:03:17)
4. Atim - Serás a Dona (Official Video) (00:04:23)
5. Avril Lavigne - Fly for Special Olympics (Official Video) (00:03:07)
6. Conjure One - Sleep (Official Video) (00:05:05)
7. Dasoul - Prometo Amarte (Official Video) (00:03:30)
8. Eelke Kleijn - Celebrate Life (Official Video) (00:03:15)
9. Ella Eyre - Together (Official Video) (00:03:39)
10. Enigma - Between Generations (Official Video) (00:04:35)
11. Estela Martin ft. Young Johnson - One in a Million (Official Video) (00:03:52)
12. Europe - The Final Countdown (Basslouder Video Edit) (00:04:27)
13. Five Knives - Savages (Official Video) (00:04:29)
14. Grupo Extra - Si Fueras Mia (Official Video) (00:05:09)
15. Kat Graham - 1991 (Official Video) (00:03:17)
16. Katja Glieson - Look At Us (Official Video) (00:03:11)
17. Little Big Town - Girl Crush (Official Video) (00:03:26)
18. Maria Hazell - Killing All My Darlings (Official Video) (00:03:31)
19. Maya - I dont Wanna (Official Video) (00:04:00)
20. Natalie Page - You're For Me (Official Video) (00:03:05)
21. Rascal Flatts - Riot (Official Video) (00:03:52)
22. Tha Groove Junkeez feat. Voice JLuv - It's You (Official Video) (00:03:39)
23. Tomas The Latin Boy - Bailalo (Official Video) (00:05:07)
24. Two ft. Kaya - Angel ( Official Video) (00:04:04)
25. Vanello and Martin Blix - Vagabondo (Official Video) (00:04:47)
Код:
Код: Выделить всё
Общее
Полное имя                       : E:\VA - Весенний марафон № 165 (Весенние Зарубежные Хиты)\Amalia feat. Eli - Prizonieri (Official Video).mp4
Формат                           : MPEG-4
Профиль формата                  : Base Media
Идентификатор кодека             : isom
Размер файла                     : 120 Мбайт
Продолжительность                : 3 м. 42 с.
Общий поток                      : 4526 Кбит/сек
Дата кодирования                 : UTC 2015-04-15 07:07:41
Дата пометки                     : UTC 2015-04-15 07:07:41
Программа кодирования            : Lavf54.63.104

Видео
Идентификатор                    : 1
Формат                           : AVC
Формат/Информация                : Advanced Video Codec
Профиль формата                  :
Параметр CABAC формата           : Да
Параметр ReFrames формата        : 1 кадр
Идентификатор кодека             : avc1
Идентификатор кодека/Информация  : Advanced Video Coding
Продолжительность                : 3 м. 42 с.
Вид битрейта                     : Переменный
Битрейт                          : 4496 Кбит/сек
Ширина                           : 1920 пикс.
Высота                           : 1080 пикс.
Соотношение сторон               : 16:9
Режим частоты кадров             : Постоянный
Частота кадров                   : 25,000 кадр/сек
Цветовое пространство            : YUV
Подвыборка цветности             : 4:2:0
Битовая глубина                  : 8 бит
Тип развёртки                    : Прогрессивная
Бит/(Пиксели*Кадры)              : 0.087
Размер потока                    : 116 Мбайт (97%)
Библиотека кодирования           : x264 core 129
Настройки программы              : cabac=1 / ref=1 / deblock=1:0:0 / analyse=0x1:0x131 / me=dia / subme=2 / psy=1 / psy_rd=1.00:0.00 / mixed_ref=0 / me_range=16 / chroma_me=1 / trellis=0 / 8x8dct=0 / cqm=0 / deadzone=21,11 / fast_pskip=1 / chroma_qp_offset=0 / threads=2 / lookahead_threads=1 / sliced_threads=0 / nr=0 / decimate=1 / interlaced=0 / bluray_compat=0 / constrained_intra=0 / bframes=0 / weightp=2 / keyint=250 / keyint_min=25 / scenecut=40 / intra_refresh=0 / rc_lookahead=40 / rc=abr / mbtree=1 / bitrate=4496 / ratetol=1.0 / qcomp=0.60 / qpmin=10 / qpmax=51 / qpstep=4 / ip_ratio=1.41 / aq=1:1.00
Дата кодирования                 : UTC 2015-04-15 07:07:41
Дата пометки                     : UTC 2015-04-15 07:07:41

Аудио
Идентификатор                    : 2
Формат                           : AAC
Формат/Информация                : Advanced Audio Codec
Профиль формата                  : LC
Идентификатор кодека             : 40
Продолжительность                : 3 м. 41 с.
Вид битрейта                     : Переменный
Битрейт                          : 152 Кбит/сек
Максимальный битрейт             : 176,4 Кбит/сек
Каналы                           : 2 канала
Расположение каналов             : Front: L R
Частота                          : 44,1 КГц
Метод сжатия                     : С потерями
Размер потока                    : 4,02 Мбайт (3%)
Дата кодирования                 : UTC 2015-04-15 07:07:41
Дата пометки                     : UTC 2015-04-15 07:07:41
Общее
Полное имя                       : E:\VA - Весенний марафон № 165 (Весенние Зарубежные Хиты)\Annely Cole ft. Hevito - Bamboleo (Official Video).mp4
Формат                           : MPEG-4
Профиль формата                  : Base Media
Идентификатор кодека             : isom
Размер файла                     : 112 Мбайт
Продолжительность                : 3 м. 23 с.
Общий поток                      : 4615 Кбит/сек
Дата кодирования                 : UTC 2015-04-13 23:27:36
Дата пометки                     : UTC 2015-04-13 23:27:36
Программа кодирования            : Lavf54.63.104

Видео
Идентификатор                    : 1
Формат                           : AVC
Формат/Информация                : Advanced Video Codec
Профиль формата                  :
Параметр CABAC формата           : Да
Параметр ReFrames формата        : 1 кадр
Идентификатор кодека             : avc1
Идентификатор кодека/Информация  : Advanced Video Coding
Продолжительность                : 3 м. 23 с.
Вид битрейта                     : Переменный
Битрейт                          : 4496 Кбит/сек
Ширина                           : 1920 пикс.
Высота                           : 1080 пикс.
Соотношение сторон               : 16:9
Режим частоты кадров             : Постоянный
Частота кадров                   : 25,000 кадр/сек
Цветовое пространство            : YUV
Подвыборка цветности             : 4:2:0
Битовая глубина                  : 8 бит
Тип развёртки                    : Прогрессивная
Бит/(Пиксели*Кадры)              : 0.087
Размер потока                    : 108 Мбайт (97%)
Библиотека кодирования           : x264 core 129
Настройки программы              : cabac=1 / ref=1 / deblock=1:0:0 / analyse=0x1:0x131 / me=dia / subme=2 / psy=1 / psy_rd=1.00:0.00 / mixed_ref=0 / me_range=16 / chroma_me=1 / trellis=0 / 8x8dct=0 / cqm=0 / deadzone=21,11 / fast_pskip=1 / chroma_qp_offset=0 / threads=2 / lookahead_threads=1 / sliced_threads=0 / nr=0 / decimate=1 / interlaced=0 / bluray_compat=0 / constrained_intra=0 / bframes=0 / weightp=2 / keyint=250 / keyint_min=25 / scenecut=40 / intra_refresh=0 / rc_lookahead=40 / rc=abr / mbtree=1 / bitrate=4496 / ratetol=1.0 / qcomp=0.60 / qpmin=10 / qpmax=51 / qpstep=4 / ip_ratio=1.41 / aq=1:1.00
Дата кодирования                 : UTC 2015-04-13 23:27:36
Дата пометки                     : UTC 2015-04-13 23:27:36

Аудио
Идентификатор                    : 2
Формат                           : AAC
Формат/Информация                : Advanced Audio Codec
Профиль формата                  : LC
Идентификатор кодека             : 40
Продолжительность                : 3 м. 23 с.
Вид битрейта                     : Переменный
Битрейт                          : 152 Кбит/сек
Максимальный битрейт             : 176,4 Кбит/сек
Каналы                           : 2 канала
Расположение каналов             : Front: L R
Частота                          : 44,1 КГц
Метод сжатия                     : С потерями
Размер потока                    : 3,67 Мбайт (3%)
Дата кодирования                 : UTC 2015-04-13 23:27:36
Дата пометки                     : UTC 2015-04-13 23:27:36
Общее
Полное имя                       : E:\VA - Весенний марафон № 165 (Весенние Зарубежные Хиты)\ASU Studio - Saka Boom (Official Video).mp4
Формат                           : MPEG-4
Профиль формата                  : Base Media
Идентификатор кодека             : isom
Размер файла                     : 112 Мбайт
Продолжительность                : 3 м. 17 с.
Общий поток                      : 4746 Кбит/сек
Дата кодирования                 : UTC 2015-02-20 02:09:36
Дата пометки                     : UTC 2015-02-20 02:09:36
Программа кодирования            : Lavf54.63.104

Видео
Идентификатор                    : 1
Формат                           : AVC
Формат/Информация                : Advanced Video Codec
Профиль формата                  :
Параметр CABAC формата           : Да
Параметр ReFrames формата        : 1 кадр
Идентификатор кодека             : avc1
Идентификатор кодека/Информация  : Advanced Video Coding
Продолжительность                : 3 м. 17 с.
Вид битрейта                     : Переменный
Битрейт                          : 4496 Кбит/сек
Ширина                           : 1920 пикс.
Высота                           : 1080 пикс.
Соотношение сторон               : 16:9
Режим частоты кадров             : Постоянный
Частота кадров                   : 25,000 кадр/сек
Цветовое пространство            : YUV
Подвыборка цветности             : 4:2:0
Битовая глубина                  : 8 бит
Тип развёртки                    : Прогрессивная
Бит/(Пиксели*Кадры)              : 0.087
Размер потока                    : 108 Мбайт (97%)
Библиотека кодирования           : x264 core 129
Настройки программы              : cabac=1 / ref=1 / deblock=1:0:0 / analyse=0x1:0x131 / me=dia / subme=2 / psy=1 / psy_rd=1.00:0.00 / mixed_ref=0 / me_range=16 / chroma_me=1 / trellis=0 / 8x8dct=0 / cqm=0 / deadzone=21,11 / fast_pskip=1 / chroma_qp_offset=0 / threads=2 / lookahead_threads=1 / sliced_threads=0 / nr=0 / decimate=1 / interlaced=0 / bluray_compat=0 / constrained_intra=0 / bframes=0 / weightp=2 / keyint=250 / keyint_min=25 / scenecut=40 / intra_refresh=0 / rc_lookahead=40 / rc=abr / mbtree=1 / bitrate=4496 / ratetol=1.0 / qcomp=0.60 / qpmin=10 / qpmax=51 / qpstep=4 / ip_ratio=1.41 / aq=1:1.00
Дата кодирования                 : UTC 2015-02-20 02:09:36
Дата пометки                     : UTC 2015-02-20 02:09:36

Аудио
Идентификатор                    : 2
Формат                           : AAC
Формат/Информация                : Advanced Audio Codec
Профиль формата                  : LC
Идентификатор кодека             : 40
Продолжительность                : 3 м. 17 с.
Вид битрейта                     : Переменный
Битрейт                          : 151 Кбит/сек
Максимальный битрейт             : 176,4 Кбит/сек
Каналы                           : 2 канала
Расположение каналов             : Front: L R
Частота                          : 44,1 КГц
Метод сжатия                     : С потерями
Размер потока                    : 3,55 Мбайт (3%)
Дата кодирования                 : UTC 2015-02-20 02:09:36
Дата пометки                     : UTC 2015-02-20 02:09:36
Общее
Полное имя                       : E:\VA - Весенний марафон № 165 (Весенние Зарубежные Хиты)\Atim - Serás a Dona (Official Video).mp4
Формат                           : MPEG-4
Профиль формата                  : Base Media
Идентификатор кодека             : isom
Размер файла                     : 145 Мбайт
Продолжительность                : 4 м. 23 с.
Общий поток                      : 4622 Кбит/сек
Дата кодирования                 : UTC 2015-04-15 17:31:50
Дата пометки                     : UTC 2015-04-15 17:31:50
Программа кодирования            : Lavf54.63.104

Видео
Идентификатор                    : 1
Формат                           : AVC
Формат/Информация                : Advanced Video Codec
Профиль формата                  :
Параметр CABAC формата           : Да
Параметр ReFrames формата        : 1 кадр
Идентификатор кодека             : avc1
Идентификатор кодека/Информация  : Advanced Video Coding
Продолжительность                : 4 м. 23 с.
Вид битрейта                     : Переменный
Битрейт                          : 4496 Кбит/сек
Ширина                           : 1920 пикс.
Высота                           : 1080 пикс.
Соотношение сторон               : 16:9
Режим частоты кадров             : Постоянный
Частота кадров                   : 25,000 кадр/сек
Цветовое пространство            : YUV
Подвыборка цветности             : 4:2:0
Битовая глубина                  : 8 бит
Тип развёртки                    : Прогрессивная
Бит/(Пиксели*Кадры)              : 0.087
Размер потока                    : 140 Мбайт (97%)
Библиотека кодирования           : x264 core 129
Настройки программы              : cabac=1 / ref=1 / deblock=1:0:0 / analyse=0x1:0x131 / me=dia / subme=2 / psy=1 / psy_rd=1.00:0.00 / mixed_ref=0 / me_range=16 / chroma_me=1 / trellis=0 / 8x8dct=0 / cqm=0 / deadzone=21,11 / fast_pskip=1 / chroma_qp_offset=0 / threads=2 / lookahead_threads=1 / sliced_threads=0 / nr=0 / decimate=1 / interlaced=0 / bluray_compat=0 / constrained_intra=0 / bframes=0 / weightp=2 / keyint=250 / keyint_min=25 / scenecut=40 / intra_refresh=0 / rc_lookahead=40 / rc=abr / mbtree=1 / bitrate=4496 / ratetol=1.0 / qcomp=0.60 / qpmin=10 / qpmax=51 / qpstep=4 / ip_ratio=1.41 / aq=1:1.00
Дата кодирования                 : UTC 2015-04-15 17:31:50
Дата пометки                     : UTC 2015-04-15 17:31:50

Аудио
Идентификатор                    : 2
Формат                           : AAC
Формат/Информация                : Advanced Audio Codec
Профиль формата                  : LC
Идентификатор кодека             : 40
Продолжительность                : 4 м. 23 с.
Вид битрейта                     : Переменный
Битрейт                          : 151 Кбит/сек
Максимальный битрейт             : 176,4 Кбит/сек
Каналы                           : 2 канала
Расположение каналов             : Front: L R
Частота                          : 44,1 КГц
Метод сжатия                     : С потерями
Размер потока                    : 4,75 Мбайт (3%)
Дата кодирования                 : UTC 2015-04-15 17:31:50
Дата пометки                     : UTC 2015-04-15 17:31:50
Общее
Полное имя                       : E:\VA - Весенний марафон № 165 (Весенние Зарубежные Хиты)\Avril Lavigne - Fly for Special Olympics (Official Video).mp4
Формат                           : MPEG-4
Профиль формата                  : Base Media
Идентификатор кодека             : isom
Размер файла                     : 95,3 Мбайт
Продолжительность                : 3 м. 7 с.
Общий поток                      : 4264 Кбит/сек
Дата кодирования                 : UTC 2015-04-15 19:38:20
Дата пометки                     : UTC 2015-04-15 19:38:20
Программа кодирования            : Lavf54.63.104

Видео
Идентификатор                    : 1
Формат                           : AVC
Формат/Информация                : Advanced Video Codec
Профиль формата                  :
Параметр CABAC формата           : Да
Параметр ReFrames формата        : 1 кадр
Идентификатор кодека             : avc1
Идентификатор кодека/Информация  : Advanced Video Coding
Продолжительность                : 3 м. 7 с.
Вид битрейта                     : Переменный
Битрейт                          : 4109 Кбит/сек
Номинальный битрейт              : 4496 Кбит/сек
Ширина                           : 1920 пикс.
Высота                           : 1080 пикс.
Соотношение сторон               : 16:9
Режим частоты кадров             : Постоянный
Частота кадров                   : 25,000 кадр/сек
Цветовое пространство            : YUV
Подвыборка цветности             : 4:2:0
Битовая глубина                  : 8 бит
Тип развёртки                    : Прогрессивная
Бит/(Пиксели*Кадры)              : 0.079
Размер потока                    : 91,8 Мбайт (96%)
Библиотека кодирования           : x264 core 129
Настройки программы              : cabac=1 / ref=1 / deblock=1:0:0 / analyse=0x1:0x131 / me=dia / subme=2 / psy=1 / psy_rd=1.00:0.00 / mixed_ref=0 / me_range=16 / chroma_me=1 / trellis=0 / 8x8dct=0 / cqm=0 / deadzone=21,11 / fast_pskip=1 / chroma_qp_offset=0 / threads=2 / lookahead_threads=1 / sliced_threads=0 / nr=0 / decimate=1 / interlaced=0 / bluray_compat=0 / constrained_intra=0 / bframes=0 / weightp=2 / keyint=250 / keyint_min=25 / scenecut=40 / intra_refresh=0 / rc_lookahead=40 / rc=abr / mbtree=1 / bitrate=4496 / ratetol=1.0 / qcomp=0.60 / qpmin=10 / qpmax=51 / qpstep=4 / ip_ratio=1.41 / aq=1:1.00
Дата кодирования                 : UTC 2015-04-15 19:38:20
Дата пометки                     : UTC 2015-04-15 19:38:20

Аудио
Идентификатор                    : 2
Формат                           : AAC
Формат/Информация                : Advanced Audio Codec
Профиль формата                  : LC
Идентификатор кодека             : 40
Продолжительность                : 3 м. 7 с.
Вид битрейта                     : Переменный
Битрейт                          : 150 Кбит/сек
Максимальный битрейт             : 176,4 Кбит/сек
Каналы                           : 2 канала
Расположение каналов             : Front: L R
Частота                          : 44,1 КГц
Метод сжатия                     : С потерями
Размер потока                    : 3,36 Мбайт (4%)
Дата кодирования                 : UTC 2015-04-15 19:38:20
Дата пометки                     : UTC 2015-04-15 19:38:20
Общее
Полное имя                       : E:\VA - Весенний марафон № 165 (Весенние Зарубежные Хиты)\Conjure One - Sleep (Official Video).mp4
Формат                           : MPEG-4
Профиль формата                  : Base Media
Идентификатор кодека             : isom
Размер файла                     : 166 Мбайт
Продолжительность                : 5 м. 5 с.
Общий поток                      : 4557 Кбит/сек
Дата кодирования                 : UTC 2015-04-07 07:58:25
Дата пометки                     : UTC 2015-04-07 07:58:25
Программа кодирования            : Lavf54.63.104

Видео
Идентификатор                    : 1
Формат                           : AVC
Формат/Информация                : Advanced Video Codec
Профиль формата                  :
Параметр CABAC формата           : Да
Параметр ReFrames формата        : 1 кадр
Идентификатор кодека             : avc1
Идентификатор кодека/Информация  : Advanced Video Coding
Продолжительность                : 5 м. 5 с.
Вид битрейта                     : Переменный
Битрейт                          : 4496 Кбит/сек
Ширина                           : 1920 пикс.
Высота                           : 1080 пикс.
Соотношение сторон               : 16:9
Режим частоты кадров             : Постоянный
Частота кадров                   : 25,000 кадр/сек
Цветовое пространство            : YUV
Подвыборка цветности             : 4:2:0
Битовая глубина                  : 8 бит
Тип развёртки                    : Прогрессивная
Бит/(Пиксели*Кадры)              : 0.087
Размер потока                    : 160 Мбайт (97%)
Библиотека кодирования           : x264 core 129
Настройки программы              : cabac=1 / ref=1 / deblock=1:0:0 / analyse=0x1:0x131 / me=dia / subme=2 / psy=1 / psy_rd=1.00:0.00 / mixed_ref=0 / me_range=16 / chroma_me=1 / trellis=0 / 8x8dct=0 / cqm=0 / deadzone=21,11 / fast_pskip=1 / chroma_qp_offset=0 / threads=2 / lookahead_threads=1 / sliced_threads=0 / nr=0 / decimate=1 / interlaced=0 / bluray_compat=0 / constrained_intra=0 / bframes=0 / weightp=2 / keyint=250 / keyint_min=25 / scenecut=40 / intra_refresh=0 / rc_lookahead=40 / rc=abr / mbtree=1 / bitrate=4496 / ratetol=1.0 / qcomp=0.60 / qpmin=10 / qpmax=51 / qpstep=4 / ip_ratio=1.41 / aq=1:1.00
Дата кодирования                 : UTC 2015-04-07 07:58:25
Дата пометки                     : UTC 2015-04-07 07:58:25

Аудио
Идентификатор                    : 2
Формат                           : AAC
Формат/Информация                : Advanced Audio Codec
Профиль формата                  : LC
Идентификатор кодека             : 40
Продолжительность                : 5 м. 5 с.
Вид битрейта                     : Переменный
Битрейт                          : 150 Кбит/сек
Максимальный битрейт             : 176,4 Кбит/сек
Каналы                           : 2 канала
Расположение каналов             : Front: L R
Частота                          : 44,1 КГц
Метод сжатия                     : С потерями
Размер потока                    : 5,45 Мбайт (3%)
Дата кодирования                 : UTC 2015-04-07 07:58:25
Дата пометки                     : UTC 2015-04-07 07:58:25
Общее
Полное имя                       : E:\VA - Весенний марафон № 165 (Весенние Зарубежные Хиты)\Dasoul - Prometo Amarte (Official Video).mp4
Формат                           : MPEG-4
Профиль формата                  : Base Media
Идентификатор кодека             : isom
Размер файла                     : 116 Мбайт
Продолжительность                : 3 м. 30 с.
Общий поток                      : 4596 Кбит/сек
Дата кодирования                 : UTC 2015-02-18 05:57:58
Дата пометки                     : UTC 2015-02-18 05:57:58
Программа кодирования            : Lavf54.63.104

Видео
Идентификатор                    : 1
Формат                           : AVC
Формат/Информация                : Advanced Video Codec
Профиль формата                  :
Параметр CABAC формата           : Да
Параметр ReFrames формата        : 1 кадр
Идентификатор кодека             : avc1
Идентификатор кодека/Информация  : Advanced Video Coding
Продолжительность                : 3 м. 30 с.
Вид битрейта                     : Переменный
Битрейт                          : 4496 Кбит/сек
Ширина                           : 1920 пикс.
Высота                           : 1080 пикс.
Соотношение сторон               : 16:9
Режим частоты кадров             : Постоянный
Частота кадров                   : 25,000 кадр/сек
Цветовое пространство            : YUV
Подвыборка цветности             : 4:2:0
Битовая глубина                  : 8 бит
Тип развёртки                    : Прогрессивная
Бит/(Пиксели*Кадры)              : 0.087
Размер потока                    : 112 Мбайт (97%)
Библиотека кодирования           : x264 core 129
Настройки программы              : cabac=1 / ref=1 / deblock=1:0:0 / analyse=0x1:0x131 / me=dia / subme=2 / psy=1 / psy_rd=1.00:0.00 / mixed_ref=0 / me_range=16 / chroma_me=1 / trellis=0 / 8x8dct=0 / cqm=0 / deadzone=21,11 / fast_pskip=1 / chroma_qp_offset=0 / threads=2 / lookahead_threads=1 / sliced_threads=0 / nr=0 / decimate=1 / interlaced=0 / bluray_compat=0 / constrained_intra=0 / bframes=0 / weightp=2 / keyint=250 / keyint_min=25 / scenecut=40 / intra_refresh=0 / rc_lookahead=40 / rc=abr / mbtree=1 / bitrate=4496 / ratetol=1.0 / qcomp=0.60 / qpmin=10 / qpmax=51 / qpstep=4 / ip_ratio=1.41 / aq=1:1.00
Дата кодирования                 : UTC 2015-02-18 05:57:58
Дата пометки                     : UTC 2015-02-18 05:57:58

Аудио
Идентификатор                    : 2
Формат                           : AAC
Формат/Информация                : Advanced Audio Codec
Профиль формата                  : LC
Идентификатор кодека             : 40
Продолжительность                : 3 м. 30 с.
Вид битрейта                     : Переменный
Битрейт                          : 152 Кбит/сек
Максимальный битрейт             : 176,4 Кбит/сек
Каналы                           : 2 канала
Расположение каналов             : Front: L R
Частота                          : 44,1 КГц
Метод сжатия                     : С потерями
Размер потока                    : 3,81 Мбайт (3%)
Дата кодирования                 : UTC 2015-02-18 05:57:58
Дата пометки                     : UTC 2015-02-18 05:57:58
Общее
Полное имя                       : E:\VA - Весенний марафон № 165 (Весенние Зарубежные Хиты)\Eelke Kleijn - Celebrate Life (Official Video).mp4
Формат                           : MPEG-4
Профиль формата                  : Base Media
Идентификатор кодека             : isom
Размер файла                     : 107 Мбайт
Продолжительность                : 3 м. 15 с.
Общий поток                      : 4600 Кбит/сек
Дата кодирования                 : UTC 2015-04-13 07:41:45
Дата пометки                     : UTC 2015-04-13 07:41:45
Программа кодирования            : Lavf54.63.104

Видео
Идентификатор                    : 1
Формат                           : AVC
Формат/Информация                : Advanced Video Codec
Профиль формата                  :
Параметр CABAC формата           : Да
Параметр ReFrames формата        : 1 кадр
Идентификатор кодека             : avc1
Идентификатор кодека/Информация  : Advanced Video Coding
Продолжительность                : 3 м. 15 с.
Вид битрейта                     : Переменный
Битрейт                          : 4496 Кбит/сек
Ширина                           : 1920 пикс.
Высота                           : 1080 пикс.
Соотношение сторон               : 16:9
Режим частоты кадров             : Постоянный
Частота кадров                   : 25,000 кадр/сек
Цветовое пространство            : YUV
Подвыборка цветности             : 4:2:0
Битовая глубина                  : 8 бит
Тип развёртки                    : Прогрессивная
Бит/(Пиксели*Кадры)              : 0.087
Размер потока                    : 104 Мбайт (97%)
Библиотека кодирования           : x264 core 129
Настройки программы              : cabac=1 / ref=1 / deblock=1:0:0 / analyse=0x1:0x131 / me=dia / subme=2 / psy=1 / psy_rd=1.00:0.00 / mixed_ref=0 / me_range=16 / chroma_me=1 / trellis=0 / 8x8dct=0 / cqm=0 / deadzone=21,11 / fast_pskip=1 / chroma_qp_offset=0 / threads=2 / lookahead_threads=1 / sliced_threads=0 / nr=0 / decimate=1 / interlaced=0 / bluray_compat=0 / constrained_intra=0 / bframes=0 / weightp=2 / keyint=250 / keyint_min=25 / scenecut=40 / intra_refresh=0 / rc_lookahead=40 / rc=abr / mbtree=1 / bitrate=4496 / ratetol=1.0 / qcomp=0.60 / qpmin=10 / qpmax=51 / qpstep=4 / ip_ratio=1.41 / aq=1:1.00
Дата кодирования                 : UTC 2015-04-13 07:41:45
Дата пометки                     : UTC 2015-04-13 07:41:45

Аудио
Идентификатор                    : 2
Формат                           : AAC
Формат/Информация                : Advanced Audio Codec
Профиль формата                  : LC
Идентификатор кодека             : 40
Продолжительность                : 3 м. 15 с.
Вид битрейта                     : Переменный
Битрейт                          : 152 Кбит/сек
Максимальный битрейт             : 176,4 Кбит/сек
Каналы                           : 2 канала
Расположение каналов             : Front: L R
Частота                          : 44,1 КГц
Метод сжатия                     : С потерями
Размер потока                    : 3,54 Мбайт (3%)
Дата кодирования                 : UTC 2015-04-13 07:41:45
Дата пометки                     : UTC 2015-04-13 07:41:45
Общее
Полное имя                       : E:\VA - Весенний марафон № 165 (Весенние Зарубежные Хиты)\Ella Eyre - Together (Official Video).mp4
Формат                           : MPEG-4
Профиль формата                  : Base Media
Идентификатор кодека             : isom
Размер файла                     : 123 Мбайт
Продолжительность                : 3 м. 38 с.
Общий поток                      : 4718 Кбит/сек
Дата кодирования                 : UTC 2015-04-14 10:13:02
Дата пометки                     : UTC 2015-04-14 10:13:02
Программа кодирования            : Lavf54.63.104

Видео
Идентификатор                    : 1
Формат                           : AVC
Формат/Информация                : Advanced Video Codec
Профиль формата                  :
Параметр CABAC формата           : Да
Параметр ReFrames формата        : 1 кадр
Идентификатор кодека             : avc1
Идентификатор кодека/Информация  : Advanced Video Coding
Продолжительность                : 3 м. 38 с.
Вид битрейта                     : Переменный
Битрейт                          : 4496 Кбит/сек
Ширина                           : 1920 пикс.
Высота                           : 1080 пикс.
Соотношение сторон               : 16:9
Режим частоты кадров             : Постоянный
Частота кадров                   : 25,000 кадр/сек
Цветовое пространство            : YUV
Подвыборка цветности             : 4:2:0
Битовая глубина                  : 8 бит
Тип развёртки                    : Прогрессивная
Бит/(Пиксели*Кадры)              : 0.087
Размер потока                    : 119 Мбайт (97%)
Библиотека кодирования           : x264 core 129
Настройки программы              : cabac=1 / ref=1 / deblock=1:0:0 / analyse=0x1:0x131 / me=dia / subme=2 / psy=1 / psy_rd=1.00:0.00 / mixed_ref=0 / me_range=16 / chroma_me=1 / trellis=0 / 8x8dct=0 / cqm=0 / deadzone=21,11 / fast_pskip=1 / chroma_qp_offset=0 / threads=2 / lookahead_threads=1 / sliced_threads=0 / nr=0 / decimate=1 / interlaced=0 / bluray_compat=0 / constrained_intra=0 / bframes=0 / weightp=2 / keyint=250 / keyint_min=25 / scenecut=40 / intra_refresh=0 / rc_lookahead=40 / rc=abr / mbtree=1 / bitrate=4496 / ratetol=1.0 / qcomp=0.60 / qpmin=10 / qpmax=51 / qpstep=4 / ip_ratio=1.41 / aq=1:1.00
Дата кодирования                 : UTC 2015-04-14 10:13:02
Дата пометки                     : UTC 2015-04-14 10:13:02

Аудио
Идентификатор                    : 2
Формат                           : AAC
Формат/Информация                : Advanced Audio Codec
Профиль формата                  : LC
Идентификатор кодека             : 40
Продолжительность                : 3 м. 38 с.
Вид битрейта                     : Переменный
Битрейт                          : 147 Кбит/сек
Максимальный битрейт             : 176,4 Кбит/сек
Каналы                           : 2 канала
Расположение каналов             : Front: L R
Частота                          : 44,1 КГц
Метод сжатия                     : С потерями
Размер потока                    : 3,84 Мбайт (3%)
Дата кодирования                 : UTC 2015-04-14 10:13:02
Дата пометки                     : UTC 2015-04-14 10:13:02
Общее
Полное имя                       : E:\VA - Весенний марафон № 165 (Весенние Зарубежные Хиты)\Enigma - Between Generations (Official Video).mp4
Формат                           : MPEG-4
Профиль формата                  : Base Media
Идентификатор кодека             : isom
Размер файла                     : 150 Мбайт
Продолжительность                : 4 м. 35 с.
Общий поток                      : 4586 Кбит/сек
Дата кодирования                 : UTC 2014-12-13 13:53:41
Дата пометки                     : UTC 2014-12-13 13:53:41
Программа кодирования            : Lavf54.63.104

Видео
Идентификатор                    : 1
Формат                           : AVC
Формат/Информация                : Advanced Video Codec
Профиль формата                  :
Параметр CABAC формата           : Да
Параметр ReFrames формата        : 1 кадр
Идентификатор кодека             : avc1
Идентификатор кодека/Информация  : Advanced Video Coding
Продолжительность                : 4 м. 35 с.
Вид битрейта                     : Переменный
Битрейт                          : 4496 Кбит/сек
Ширина                           : 1920 пикс.
Высота                           : 1080 пикс.
Соотношение сторон               : 16:9
Режим частоты кадров             : Постоянный
Частота кадров                   : 25,000 кадр/сек
Цветовое пространство            : YUV
Подвыборка цветности             : 4:2:0
Битовая глубина                  : 8 бит
Тип развёртки                    : Прогрессивная
Бит/(Пиксели*Кадры)              : 0.087
Размер потока                    : 145 Мбайт (97%)
Библиотека кодирования           : x264 core 129
Настройки программы              : cabac=1 / ref=1 / deblock=1:0:0 / analyse=0x1:0x131 / me=dia / subme=2 / psy=1 / psy_rd=1.00:0.00 / mixed_ref=0 / me_range=16 / chroma_me=1 / trellis=0 / 8x8dct=0 / cqm=0 / deadzone=21,11 / fast_pskip=1 / chroma_qp_offset=0 / threads=2 / lookahead_threads=1 / sliced_threads=0 / nr=0 / decimate=1 / interlaced=0 / bluray_compat=0 / constrained_intra=0 / bframes=0 / weightp=2 / keyint=250 / keyint_min=25 / scenecut=40 / intra_refresh=0 / rc_lookahead=40 / rc=abr / mbtree=1 / bitrate=4496 / ratetol=1.0 / qcomp=0.60 / qpmin=10 / qpmax=51 / qpstep=4 / ip_ratio=1.41 / aq=1:1.00
Дата кодирования                 : UTC 2014-12-13 13:53:41
Дата пометки                     : UTC 2014-12-13 13:53:41

Аудио
Идентификатор                    : 2
Формат                           : AAC
Формат/Информация                : Advanced Audio Codec
Профиль формата                  : LC
Идентификатор кодека             : 40
Продолжительность                : 4 м. 35 с.
Вид битрейта                     : Переменный
Битрейт                          : 150 Кбит/сек
Максимальный битрейт             : 176,4 Кбит/сек
Каналы                           : 2 канала
Расположение каналов             : Front: L R
Частота                          : 44,1 КГц
Метод сжатия                     : С потерями
Размер потока                    : 4,92 Мбайт (3%)
Дата кодирования                 : UTC 2014-12-13 13:53:41
Дата пометки                     : UTC 2014-12-13 13:53:41
Общее
Полное имя                       : E:\VA - Весенний марафон № 165 (Весенние Зарубежные Хиты)\Estela Martin ft. Young Johnson - One in a Million (Official Video).mp4
Формат                           : MPEG-4
Профиль формата                  : Base Media
Идентификатор кодека             : isom
Размер файла                     : 125 Мбайт
Продолжительность                : 3 м. 52 с.
Общий поток                      : 4512 Кбит/сек
Дата кодирования                 : UTC 2015-04-14 07:33:50
Дата пометки                     : UTC 2015-04-14 07:33:50
Программа кодирования            : Lavf54.63.104

Видео
Идентификатор                    : 1
Формат                           : AVC
Формат/Информация                : Advanced Video Codec
Профиль формата                  :
Параметр CABAC формата           : Да
Параметр ReFrames формата        : 1 кадр
Идентификатор кодека             : avc1
Идентификатор кодека/Информация  : Advanced Video Coding
Продолжительность                : 3 м. 52 с.
Вид битрейта                     : Переменный
Битрейт                          : 4496 Кбит/сек
Ширина                           : 1920 пикс.
Высота                           : 1080 пикс.
Соотношение сторон               : 16:9
Режим частоты кадров             : Постоянный
Частота кадров                   : 25,000 кадр/сек
Цветовое пространство            : YUV
Подвыборка цветности             : 4:2:0
Битовая глубина                  : 8 бит
Тип развёртки                    : Прогрессивная
Бит/(Пиксели*Кадры)              : 0.087
Размер потока                    : 120 Мбайт (97%)
Библиотека кодирования           : x264 core 129
Настройки программы              : cabac=1 / ref=1 / deblock=1:0:0 / analyse=0x1:0x131 / me=dia / subme=2 / psy=1 / psy_rd=1.00:0.00 / mixed_ref=0 / me_range=16 / chroma_me=1 / trellis=0 / 8x8dct=0 / cqm=0 / deadzone=21,11 / fast_pskip=1 / chroma_qp_offset=0 / threads=2 / lookahead_threads=1 / sliced_threads=0 / nr=0 / decimate=1 / interlaced=0 / bluray_compat=0 / constrained_intra=0 / bframes=0 / weightp=2 / keyint=250 / keyint_min=25 / scenecut=40 / intra_refresh=0 / rc_lookahead=40 / rc=abr / mbtree=1 / bitrate=4496 / ratetol=1.0 / qcomp=0.60 / qpmin=10 / qpmax=51 / qpstep=4 / ip_ratio=1.41 / aq=1:1.00
Дата кодирования                 : UTC 2015-04-14 07:33:50
Дата пометки                     : UTC 2015-04-14 07:33:50

Аудио
Идентификатор                    : 2
Формат                           : AAC
Формат/Информация                : Advanced Audio Codec
Профиль формата                  : LC
Идентификатор кодека             : 40
Продолжительность                : 3 м. 51 с.
Вид битрейта                     : Переменный
Битрейт                          : 152 Кбит/сек
Максимальный битрейт             : 176,4 Кбит/сек
Каналы                           : 2 канала
Расположение каналов             : Front: L R
Частота                          : 44,1 КГц
Метод сжатия                     : С потерями
Размер потока                    : 4,20 Мбайт (3%)
Дата кодирования                 : UTC 2015-04-14 07:33:50
Дата пометки                     : UTC 2015-04-14 07:33:50
Общее
Полное имя                       : E:\VA - Весенний марафон № 165 (Весенние Зарубежные Хиты)\Europe - The Final Countdown (Basslouder Video Edit).mp4
Формат                           : MPEG-4
Профиль формата                  : Base Media
Идентификатор кодека             : isom
Размер файла                     : 145 Мбайт
Продолжительность                : 4 м. 27 с.
Общий поток                      : 4562 Кбит/сек
Дата кодирования                 : UTC 2015-04-16 09:07:31
Дата пометки                     : UTC 2015-04-16 09:07:31
Программа кодирования            : Lavf54.63.104

Видео
Идентификатор                    : 1
Формат                           : AVC
Формат/Информация                : Advanced Video Codec
Профиль формата                  :
Параметр CABAC формата           : Да
Параметр ReFrames формата        : 1 кадр
Идентификатор кодека             : avc1
Идентификатор кодека/Информация  : Advanced Video Coding
Продолжительность                : 4 м. 27 с.
Вид битрейта                     : Переменный
Битрейт                          : 4496 Кбит/сек
Ширина                           : 1920 пикс.
Высота                           : 1080 пикс.
Соотношение сторон               : 16:9
Режим частоты кадров             : Постоянный
Частота кадров                   : 25,000 кадр/сек
Цветовое пространство            : YUV
Подвыборка цветности             : 4:2:0
Битовая глубина                  : 8 бит
Тип развёртки                    : Прогрессивная
Бит/(Пиксели*Кадры)              : 0.087
Размер потока                    : 140 Мбайт (97%)
Библиотека кодирования           : x264 core 129
Настройки программы              : cabac=1 / ref=1 / deblock=1:0:0 / analyse=0x1:0x131 / me=dia / subme=2 / psy=1 / psy_rd=1.00:0.00 / mixed_ref=0 / me_range=16 / chroma_me=1 / trellis=0 / 8x8dct=0 / cqm=0 / deadzone=21,11 / fast_pskip=1 / chroma_qp_offset=0 / threads=2 / lookahead_threads=1 / sliced_threads=0 / nr=0 / decimate=1 / interlaced=0 / bluray_compat=0 / constrained_intra=0 / bframes=0 / weightp=2 / keyint=250 / keyint_min=25 / scenecut=40 / intra_refresh=0 / rc_lookahead=40 / rc=abr / mbtree=1 / bitrate=4496 / ratetol=1.0 / qcomp=0.60 / qpmin=10 / qpmax=51 / qpstep=4 / ip_ratio=1.41 / aq=1:1.00
Дата кодирования                 : UTC 2015-04-16 09:07:31
Дата пометки                     : UTC 2015-04-16 09:07:31

Аудио
Идентификатор                    : 2
Формат                           : AAC
Формат/Информация                : Advanced Audio Codec
Профиль формата                  : LC
Идентификатор кодека             : 40
Продолжительность                : 4 м. 27 с.
Вид битрейта                     : Переменный
Битрейт                          : 152 Кбит/сек
Максимальный битрейт             : 176,4 Кбит/сек
Каналы                           : 2 канала
Расположение каналов             : Front: L R
Частота                          : 44,1 КГц
Метод сжатия                     : С потерями
Размер потока                    : 4,84 Мбайт (3%)
Дата кодирования                 : UTC 2015-04-16 09:07:31
Дата пометки                     : UTC 2015-04-16 09:07:31
Общее
Полное имя                       : E:\VA - Весенний марафон № 165 (Весенние Зарубежные Хиты)\Five Knives - Savages (Official Video).mp4
Формат                           : MPEG-4
Профиль формата                  : Base Media
Идентификатор кодека             : isom
Размер файла                     : 139 Мбайт
Продолжительность                : 4 м. 28 с.
Общий поток                      : 4342 Кбит/сек
Программа кодирования            : Lavf54.63.104

Видео
Идентификатор                    : 1
Формат                           : AVC
Формат/Информация                : Advanced Video Codec
Профиль формата                  :
Параметр CABAC формата           : Да
Параметр ReFrames формата        : 1 кадр
Идентификатор кодека             : avc1
Идентификатор кодека/Информация  : Advanced Video Coding
Продолжительность                : 4 м. 28 с.
Вид битрейта                     : Переменный
Битрейт                          : 4185 Кбит/сек
Номинальный битрейт              : 4496 Кбит/сек
Ширина                           : 1920 пикс.
Высота                           : 1080 пикс.
Соотношение сторон               : 16:9
Режим частоты кадров             : Постоянный
Частота кадров                   : 25,000 кадр/сек
Цветовое пространство            : YUV
Подвыборка цветности             : 4:2:0
Битовая глубина                  : 8 бит
Тип развёртки                    : Прогрессивная
Бит/(Пиксели*Кадры)              : 0.081
Размер потока                    : 134 Мбайт (96%)
Библиотека кодирования           : x264 core 129
Настройки программы              : cabac=1 / ref=1 / deblock=1:0:0 / analyse=0x1:0x131 / me=dia / subme=2 / psy=1 / psy_rd=1.00:0.00 / mixed_ref=0 / me_range=16 / chroma_me=1 / trellis=0 / 8x8dct=0 / cqm=0 / deadzone=21,11 / fast_pskip=1 / chroma_qp_offset=0 / threads=2 / lookahead_threads=1 / sliced_threads=0 / nr=0 / decimate=1 / interlaced=0 / bluray_compat=0 / constrained_intra=0 / bframes=0 / weightp=2 / keyint=250 / keyint_min=25 / scenecut=40 / intra_refresh=0 / rc_lookahead=40 / rc=abr / mbtree=1 / bitrate=4496 / ratetol=1.0 / qcomp=0.60 / qpmin=10 / qpmax=51 / qpstep=4 / ip_ratio=1.41 / aq=1:1.00

Аудио
Идентификатор                    : 2
Формат                           : AAC
Формат/Информация                : Advanced Audio Codec
Профиль формата                  : LC
Идентификатор кодека             : 40
Продолжительность                : 4 м. 28 с.
Вид битрейта                     : Переменный
Битрейт                          : 152 Кбит/сек
Максимальный битрейт             : 176,4 Кбит/сек
Каналы                           : 2 канала
Расположение каналов             : Front: L R
Частота                          : 44,1 КГц
Метод сжатия                     : С потерями
Размер потока                    : 4,86 Мбайт (3%)
Общее
Полное имя                       : E:\VA - Весенний марафон № 165 (Весенние Зарубежные Хиты)\Grupo Extra - Si Fueras Mia (Official Video).mp4
Формат                           : MPEG-4
Профиль формата                  : Base Media
Идентификатор кодека             : isom
Размер файла                     : 157 Мбайт
Продолжительность                : 5 м. 8 с.
Общий поток                      : 4266 Кбит/сек
Дата кодирования                 : UTC 2015-04-17 11:27:19
Дата пометки                     : UTC 2015-04-17 11:27:19
Программа кодирования            : Lavf54.63.104

Видео
Идентификатор                    : 1
Формат                           : AVC
Формат/Информация                : Advanced Video Codec
Профиль формата                  :
Параметр CABAC формата           : Да
Параметр ReFrames формата        : 1 кадр
Идентификатор кодека             : avc1
Идентификатор кодека/Информация  : Advanced Video Coding
Продолжительность                : 5 м. 8 с.
Вид битрейта                     : Переменный
Битрейт                          : 4118 Кбит/сек
Номинальный битрейт              : 4496 Кбит/сек
Ширина                           : 1920 пикс.
Высота                           : 1080 пикс.
Соотношение сторон               : 16:9
Режим частоты кадров             : Постоянный
Частота кадров                   : 25,000 кадр/сек
Цветовое пространство            : YUV
Подвыборка цветности             : 4:2:0
Битовая глубина                  : 8 бит
Тип развёртки                    : Прогрессивная
Бит/(Пиксели*Кадры)              : 0.079
Размер потока                    : 152 Мбайт (97%)
Библиотека кодирования           : x264 core 129
Настройки программы              : cabac=1 / ref=1 / deblock=1:0:0 / analyse=0x1:0x131 / me=dia / subme=2 / psy=1 / psy_rd=1.00:0.00 / mixed_ref=0 / me_range=16 / chroma_me=1 / trellis=0 / 8x8dct=0 / cqm=0 / deadzone=21,11 / fast_pskip=1 / chroma_qp_offset=0 / threads=2 / lookahead_threads=1 / sliced_threads=0 / nr=0 / decimate=1 / interlaced=0 / bluray_compat=0 / constrained_intra=0 / bframes=0 / weightp=2 / keyint=250 / keyint_min=25 / scenecut=40 / intra_refresh=0 / rc_lookahead=40 / rc=abr / mbtree=1 / bitrate=4496 / ratetol=1.0 / qcomp=0.60 / qpmin=10 / qpmax=51 / qpstep=4 / ip_ratio=1.41 / aq=1:1.00
Дата кодирования                 : UTC 2015-04-17 11:27:19
Дата пометки                     : UTC 2015-04-17 11:27:19

Аудио
Идентификатор                    : 2
Формат                           : AAC
Формат/Информация                : Advanced Audio Codec
Профиль формата                  : LC
Идентификатор кодека             : 40
Продолжительность                : 5 м. 8 с.
Вид битрейта                     : Переменный
Битрейт                          : 144 Кбит/сек
Максимальный битрейт             : 176,4 Кбит/сек
Каналы                           : 2 канала
Расположение каналов             : Front: L R
Частота                          : 44,1 КГц
Метод сжатия                     : С потерями
Размер потока                    : 5,25 Мбайт (3%)
Дата кодирования                 : UTC 2015-04-17 11:27:19
Дата пометки                     : UTC 2015-04-17 11:27:19
Общее
Полное имя                       : E:\VA - Весенний марафон № 165 (Весенние Зарубежные Хиты)\Kat Graham - 1991 (Official Video).mp4
Формат                           : MPEG-4
Профиль формата                  : Base Media
Идентификатор кодека             : isom
Размер файла                     : 110 Мбайт
Продолжительность                : 3 м. 17 с.
Общий поток                      : 4658 Кбит/сек
Дата кодирования                 : UTC 2015-04-15 10:38:30
Дата пометки                     : UTC 2015-04-15 10:38:30
Программа кодирования            : Lavf54.63.104

Видео
Идентификатор                    : 1
Формат                           : AVC
Формат/Информация                : Advanced Video Codec
Профиль формата                  :
Параметр CABAC формата           : Да
Параметр ReFrames формата        : 1 кадр
Идентификатор кодека             : avc1
Идентификатор кодека/Информация  : Advanced Video Coding
Продолжительность                : 3 м. 17 с.
Вид битрейта                     : Переменный
Битрейт                          : 4496 Кбит/сек
Ширина                           : 1920 пикс.
Высота                           : 1080 пикс.
Соотношение сторон               : 16:9
Режим частоты кадров             : Постоянный
Частота кадров                   : 25,000 кадр/сек
Цветовое пространство            : YUV
Подвыборка цветности             : 4:2:0
Битовая глубина                  : 8 бит
Тип развёртки                    : Прогрессивная
Бит/(Пиксели*Кадры)              : 0.087
Размер потока                    : 106 Мбайт (97%)
Библиотека кодирования           : x264 core 129
Настройки программы              : cabac=1 / ref=1 / deblock=1:0:0 / analyse=0x1:0x131 / me=dia / subme=2 / psy=1 / psy_rd=1.00:0.00 / mixed_ref=0 / me_range=16 / chroma_me=1 / trellis=0 / 8x8dct=0 / cqm=0 / deadzone=21,11 / fast_pskip=1 / chroma_qp_offset=0 / threads=2 / lookahead_threads=1 / sliced_threads=0 / nr=0 / decimate=1 / interlaced=0 / bluray_compat=0 / constrained_intra=0 / bframes=0 / weightp=2 / keyint=250 / keyint_min=25 / scenecut=40 / intra_refresh=0 / rc_lookahead=40 / rc=abr / mbtree=1 / bitrate=4496 / ratetol=1.0 / qcomp=0.60 / qpmin=10 / qpmax=51 / qpstep=4 / ip_ratio=1.41 / aq=1:1.00
Дата кодирования                 : UTC 2015-04-15 10:38:30
Дата пометки                     : UTC 2015-04-15 10:38:30

Аудио
Идентификатор                    : 2
Формат                           : AAC
Формат/Информация                : Advanced Audio Codec
Профиль формата                  : LC
Идентификатор кодека             : 40
Продолжительность                : 3 м. 17 с.
Вид битрейта                     : Переменный
Битрейт                          : 150 Кбит/сек
Максимальный битрейт             : 176,4 Кбит/сек
Каналы                           : 2 канала
Расположение каналов             : Front: L R
Частота                          : 44,1 КГц
Метод сжатия                     : С потерями
Размер потока                    : 3,53 Мбайт (3%)
Дата кодирования                 : UTC 2015-04-15 10:38:30
Дата пометки                     : UTC 2015-04-15 10:38:30
Общее
Полное имя                       : E:\VA - Весенний марафон № 165 (Весенние Зарубежные Хиты)\Katja Glieson - Look At Us (Official Video).mp4
Формат                           : MPEG-4
Профиль формата                  : Base Media
Идентификатор кодека             : isom
Размер файла                     : 108 Мбайт
Продолжительность                : 3 м. 11 с.
Общий поток                      : 4741 Кбит/сек
Дата кодирования                 : UTC 2015-04-01 11:25:58
Дата пометки                     : UTC 2015-04-01 11:25:58
Программа кодирования            : Lavf54.63.104

Видео
Идентификатор                    : 1
Формат                           : AVC
Формат/Информация                : Advanced Video Codec
Профиль формата                  :
Параметр CABAC формата           : Да
Параметр ReFrames формата        : 1 кадр
Идентификатор кодека             : avc1
Идентификатор кодека/Информация  : Advanced Video Coding
Продолжительность                : 3 м. 11 с.
Вид битрейта                     : Переменный
Битрейт                          : 4496 Кбит/сек
Ширина                           : 1920 пикс.
Высота                           : 1080 пикс.
Соотношение сторон               : 16:9
Режим частоты кадров             : Постоянный
Частота кадров                   : 25,000 кадр/сек
Цветовое пространство            : YUV
Подвыборка цветности             : 4:2:0
Битовая глубина                  : 8 бит
Тип развёртки                    : Прогрессивная
Бит/(Пиксели*Кадры)              : 0.087
Размер потока                    : 105 Мбайт (97%)
Библиотека кодирования           : x264 core 129
Настройки программы              : cabac=1 / ref=1 / deblock=1:0:0 / analyse=0x1:0x131 / me=dia / subme=2 / psy=1 / psy_rd=1.00:0.00 / mixed_ref=0 / me_range=16 / chroma_me=1 / trellis=0 / 8x8dct=0 / cqm=0 / deadzone=21,11 / fast_pskip=1 / chroma_qp_offset=0 / threads=2 / lookahead_threads=1 / sliced_threads=0 / nr=0 / decimate=1 / interlaced=0 / bluray_compat=0 / constrained_intra=0 / bframes=0 / weightp=2 / keyint=250 / keyint_min=25 / scenecut=40 / intra_refresh=0 / rc_lookahead=40 / rc=abr / mbtree=1 / bitrate=4496 / ratetol=1.0 / qcomp=0.60 / qpmin=10 / qpmax=51 / qpstep=4 / ip_ratio=1.41 / aq=1:1.00
Дата кодирования                 : UTC 2015-04-01 11:25:58
Дата пометки                     : UTC 2015-04-01 11:25:58

Аудио
Идентификатор                    : 2
Формат                           : AAC
Формат/Информация                : Advanced Audio Codec
Профиль формата                  : LC
Идентификатор кодека             : 40
Продолжительность                : 3 м. 11 с.
Вид битрейта                     : Переменный
Битрейт                          : 152 Кбит/сек
Максимальный битрейт             : 176,4 Кбит/сек
Каналы                           : 2 канала
Расположение каналов             : Front: L R
Частота                          : 44,1 КГц
Метод сжатия                     : С потерями
Размер потока                    : 3,47 Мбайт (3%)
Дата кодирования                 : UTC 2015-04-01 11:25:58
Дата пометки                     : UTC 2015-04-01 11:25:58
Общее
Полное имя                       : E:\VA - Весенний марафон № 165 (Весенние Зарубежные Хиты)\Little Big Town - Girl Crush (Official Video).mp4
Формат                           : MPEG-4
Профиль формата                  : Base Media
Идентификатор кодека             : isom
Размер файла                     : 109 Мбайт
Продолжительность                : 3 м. 26 с.
Общий поток                      : 4443 Кбит/сек
Дата кодирования                 : UTC 2015-04-06 16:56:31
Дата пометки                     : UTC 2015-04-06 16:56:31
Программа кодирования            : Lavf54.63.104

Видео
Идентификатор                    : 1
Формат                           : AVC
Формат/Информация                : Advanced Video Codec
Профиль формата                  :
Параметр CABAC формата           : Да
Параметр ReFrames формата        : 1 кадр
Идентификатор кодека             : avc1
Идентификатор кодека/Информация  : Advanced Video Coding
Продолжительность                : 3 м. 26 с.
Вид битрейта                     : Переменный
Битрейт                          : 4496 Кбит/сек
Ширина                           : 1920 пикс.
Высота                           : 1080 пикс.
Соотношение сторон               : 16:9
Режим частоты кадров             : Постоянный
Частота кадров                   : 25,000 кадр/сек
Цветовое пространство            : YUV
Подвыборка цветности             : 4:2:0
Битовая глубина                  : 8 бит
Тип развёртки                    : Прогрессивная
Бит/(Пиксели*Кадры)              : 0.087
Размер потока                    : 106 Мбайт (97%)
Библиотека кодирования           : x264 core 129
Настройки программы              : cabac=1 / ref=1 / deblock=1:0:0 / analyse=0x1:0x131 / me=dia / subme=2 / psy=1 / psy_rd=1.00:0.00 / mixed_ref=0 / me_range=16 / chroma_me=1 / trellis=0 / 8x8dct=0 / cqm=0 / deadzone=21,11 / fast_pskip=1 / chroma_qp_offset=0 / threads=2 / lookahead_threads=1 / sliced_threads=0 / nr=0 / decimate=1 / interlaced=0 / bluray_compat=0 / constrained_intra=0 / bframes=0 / weightp=2 / keyint=250 / keyint_min=25 / scenecut=40 / intra_refresh=0 / rc_lookahead=40 / rc=abr / mbtree=1 / bitrate=4496 / ratetol=1.0 / qcomp=0.60 / qpmin=10 / qpmax=51 / qpstep=4 / ip_ratio=1.41 / aq=1:1.00
Дата кодирования                 : UTC 2015-04-06 16:56:31
Дата пометки                     : UTC 2015-04-06 16:56:31

Аудио
Идентификатор                    : 2
Формат                           : AAC
Формат/Информация                : Advanced Audio Codec
Профиль формата                  : LC
Идентификатор кодека             : 40
Продолжительность                : 3 м. 26 с.
Вид битрейта                     : Переменный
Битрейт                          : 144 Кбит/сек
Максимальный битрейт             : 176,4 Кбит/сек
Каналы                           : 2 канала
Расположение каналов             : Front: L R
Частота                          : 44,1 КГц
Метод сжатия                     : С потерями
Размер потока                    : 3,52 Мбайт (3%)
Дата кодирования                 : UTC 2015-04-06 16:56:31
Дата пометки                     : UTC 2015-04-06 16:56:31
Общее
Полное имя                       : E:\VA - Весенний марафон № 165 (Весенние Зарубежные Хиты)\Maria Hazell - Killing All My Darlings (Official Video).mp4
Формат                           : MPEG-4
Профиль формата                  : Base Media
Идентификатор кодека             : isom
Размер файла                     : 118 Мбайт
Продолжительность                : 3 м. 31 с.
Общий поток                      : 4691 Кбит/сек
Дата кодирования                 : UTC 2015-04-17 08:36:56
Дата пометки                     : UTC 2015-04-17 08:36:56
Программа кодирования            : Lavf54.63.104

Видео
Идентификатор                    : 1
Формат                           : AVC
Формат/Информация                : Advanced Video Codec
Профиль формата                  :
Параметр CABAC формата           : Да
Параметр ReFrames формата        : 1 кадр
Идентификатор кодека             : avc1
Идентификатор кодека/Информация  : Advanced Video Coding
Продолжительность                : 3 м. 31 с.
Вид битрейта                     : Переменный
Битрейт                          : 4496 Кбит/сек
Ширина                           : 1920 пикс.
Высота                           : 1080 пикс.
Соотношение сторон               : 16:9
Режим частоты кадров             : Постоянный
Частота кадров                   : 25,000 кадр/сек
Цветовое пространство            : YUV
Подвыборка цветности             : 4:2:0
Битовая глубина                  : 8 бит
Тип развёртки                    : Прогрессивная
Бит/(Пиксели*Кадры)              : 0.087
Размер потока                    : 114 Мбайт (97%)
Библиотека кодирования           : x264 core 129
Настройки программы              : cabac=1 / ref=1 / deblock=1:0:0 / analyse=0x1:0x131 / me=dia / subme=2 / psy=1 / psy_rd=1.00:0.00 / mixed_ref=0 / me_range=16 / chroma_me=1 / trellis=0 / 8x8dct=0 / cqm=0 / deadzone=21,11 / fast_pskip=1 / chroma_qp_offset=0 / threads=2 / lookahead_threads=1 / sliced_threads=0 / nr=0 / decimate=1 / interlaced=0 / bluray_compat=0 / constrained_intra=0 / bframes=0 / weightp=2 / keyint=250 / keyint_min=25 / scenecut=40 / intra_refresh=0 / rc_lookahead=40 / rc=abr / mbtree=1 / bitrate=4496 / ratetol=1.0 / qcomp=0.60 / qpmin=10 / qpmax=51 / qpstep=4 / ip_ratio=1.41 / aq=1:1.00
Дата кодирования                 : UTC 2015-04-17 08:36:56
Дата пометки                     : UTC 2015-04-17 08:36:56

Аудио
Идентификатор                    : 2
Формат                           : AAC
Формат/Информация                : Advanced Audio Codec
Профиль формата                  : LC
Идентификатор кодека             : 40
Продолжительность                : 3 м. 31 с.
Вид битрейта                     : Переменный
Битрейт                          : 151 Кбит/сек
Максимальный битрейт             : 176,4 Кбит/сек
Каналы                           : 2 канала
Расположение каналов             : Front: L R
Частота                          : 44,1 КГц
Метод сжатия                     : С потерями
Размер потока                    : 3,80 Мбайт (3%)
Дата кодирования                 : UTC 2015-04-17 08:36:56
Дата пометки                     : UTC 2015-04-17 08:36:56
Общее
Полное имя                       : E:\VA - Весенний марафон № 165 (Весенние Зарубежные Хиты)\Maya - I dont Wanna (Official Video).mp4
Формат                           : MPEG-4
Профиль формата                  : Base Media
Идентификатор кодека             : isom
Размер файла                     : 131 Мбайт
Продолжительность                : 4 м. 0 с.
Общий поток                      : 4583 Кбит/сек
Дата кодирования                 : UTC 2015-04-15 15:19:25
Дата пометки                     : UTC 2015-04-15 15:19:25
Программа кодирования            : Lavf54.63.104

Видео
Идентификатор                    : 1
Формат                           : AVC
Формат/Информация                : Advanced Video Codec
Профиль формата                  :
Параметр CABAC формата           : Да
Параметр ReFrames формата        : 1 кадр
Идентификатор кодека             : avc1
Идентификатор кодека/Информация  : Advanced Video Coding
Продолжительность                : 4 м. 0 с.
Вид битрейта                     : Переменный
Битрейт                          : 4496 Кбит/сек
Ширина                           : 1920 пикс.
Высота                           : 1080 пикс.
Соотношение сторон               : 16:9
Режим частоты кадров             : Постоянный
Частота кадров                   : 25,000 кадр/сек
Цветовое пространство            : YUV
Подвыборка цветности             : 4:2:0
Битовая глубина                  : 8 бит
Тип развёртки                    : Прогрессивная
Бит/(Пиксели*Кадры)              : 0.087
Размер потока                    : 127 Мбайт (97%)
Библиотека кодирования           : x264 core 129
Настройки программы              : cabac=1 / ref=1 / deblock=1:0:0 / analyse=0x1:0x131 / me=dia / subme=2 / psy=1 / psy_rd=1.00:0.00 / mixed_ref=0 / me_range=16 / chroma_me=1 / trellis=0 / 8x8dct=0 / cqm=0 / deadzone=21,11 / fast_pskip=1 / chroma_qp_offset=0 / threads=2 / lookahead_threads=1 / sliced_threads=0 / nr=0 / decimate=1 / interlaced=0 / bluray_compat=0 / constrained_intra=0 / bframes=0 / weightp=2 / keyint=250 / keyint_min=25 / scenecut=40 / intra_refresh=0 / rc_lookahead=40 / rc=abr / mbtree=1 / bitrate=4496 / ratetol=1.0 / qcomp=0.60 / qpmin=10 / qpmax=51 / qpstep=4 / ip_ratio=1.41 / aq=1:1.00
Дата кодирования                 : UTC 2015-04-15 15:19:25
Дата пометки                     : UTC 2015-04-15 15:19:25

Аудио
Идентификатор                    : 2
Формат                           : AAC
Формат/Информация                : Advanced Audio Codec
Профиль формата                  : LC
Идентификатор кодека             : 40
Продолжительность                : 4 м. 0 с.
Вид битрейта                     : Переменный
Битрейт                          : 152 Кбит/сек
Максимальный битрейт             : 176,4 Кбит/сек
Каналы                           : 2 канала
Расположение каналов             : Front: L R
Частота                          : 44,1 КГц
Метод сжатия                     : С потерями
Размер потока                    : 4,36 Мбайт (3%)
Дата кодирования                 : UTC 2015-04-15 15:19:25
Дата пометки                     : UTC 2015-04-15 15:19:25
Общее
Полное имя                       : E:\VA - Весенний марафон № 165 (Весенние Зарубежные Хиты)\Natalie Page - You're For Me (Official Video).mp4
Формат                           : MPEG-4
Профиль формата                  : Base Media
Идентификатор кодека             : isom
Размер файла                     : 106 Мбайт
Продолжительность                : 3 м. 5 с.
Общий поток                      : 4799 Кбит/сек
Дата кодирования                 : UTC 2015-03-25 17:06:04
Дата пометки                     : UTC 2015-03-25 17:06:04
Программа кодирования            : Lavf54.63.104

Видео
Идентификатор                    : 1
Формат                           : AVC
Формат/Информация                : Advanced Video Codec
Профиль формата                  :
Параметр CABAC формата           : Да
Параметр ReFrames формата        : 1 кадр
Идентификатор кодека             : avc1
Идентификатор кодека/Информация  : Advanced Video Coding
Продолжительность                : 3 м. 5 с.
Вид битрейта                     : Переменный
Битрейт                          : 4496 Кбит/сек
Ширина                           : 1920 пикс.
Высота                           : 1080 пикс.
Соотношение сторон               : 16:9
Режим частоты кадров             : Постоянный
Частота кадров                   : 25,000 кадр/сек
Цветовое пространство            : YUV
Подвыборка цветности             : 4:2:0
Битовая глубина                  : 8 бит
Тип развёртки                    : Прогрессивная
Бит/(Пиксели*Кадры)              : 0.087
Размер потока                    : 104 Мбайт (98%)
Библиотека кодирования           : x264 core 129
Настройки программы              : cabac=1 / ref=1 / deblock=1:0:0 / analyse=0x1:0x131 / me=dia / subme=2 / psy=1 / psy_rd=1.00:0.00 / mixed_ref=0 / me_range=16 / chroma_me=1 / trellis=0 / 8x8dct=0 / cqm=0 / deadzone=21,11 / fast_pskip=1 / chroma_qp_offset=0 / threads=2 / lookahead_threads=1 / sliced_threads=0 / nr=0 / decimate=1 / interlaced=0 / bluray_compat=0 / constrained_intra=0 / bframes=0 / weightp=2 / keyint=250 / keyint_min=25 / scenecut=40 / intra_refresh=0 / rc_lookahead=40 / rc=abr / mbtree=1 / bitrate=4496 / ratetol=1.0 / qcomp=0.60 / qpmin=10 / qpmax=51 / qpstep=4 / ip_ratio=1.41 / aq=1:1.00
Дата кодирования                 : UTC 2015-03-25 17:06:04
Дата пометки                     : UTC 2015-03-25 17:06:04

Аудио
Идентификатор                    : 2
Формат                           : AAC
Формат/Информация                : Advanced Audio Codec
Профиль формата                  : LC
Идентификатор кодека             : 40
Продолжительность                : 3 м. 5 с.
Вид битрейта                     : Переменный
Битрейт                          : 106 Кбит/сек
Максимальный битрейт             : 176,4 Кбит/сек
Каналы                           : 2 канала
Расположение каналов             : Front: L R
Частота                          : 44,1 КГц
Метод сжатия                     : С потерями
Размер потока                    : 2,35 Мбайт (2%)
Дата кодирования                 : UTC 2015-03-25 17:06:04
Дата пометки                     : UTC 2015-03-25 17:06:04
Общее
Полное имя                       : E:\VA - Весенний марафон № 165 (Весенние Зарубежные Хиты)\Rascal Flatts - Riot (Official Video).mp4
Формат                           : MPEG-4
Профиль формата                  : Base Media
Идентификатор кодека             : isom
Размер файла                     : 124 Мбайт
Продолжительность                : 3 м. 52 с.
Общий поток                      : 4465 Кбит/сек
Дата кодирования                 : UTC 2015-04-09 16:27:25
Дата пометки                     : UTC 2015-04-09 16:27:25
Программа кодирования            : Lavf54.63.104

Видео
Идентификатор                    : 1
Формат                           : AVC
Формат/Информация                : Advanced Video Codec
Профиль формата                  :
Параметр CABAC формата           : Да
Параметр ReFrames формата        : 1 кадр
Идентификатор кодека             : avc1
Идентификатор кодека/Информация  : Advanced Video Coding
Продолжительность                : 3 м. 52 с.
Вид битрейта                     : Переменный
Битрейт                          : 4496 Кбит/сек
Ширина                           : 1920 пикс.
Высота                           : 1080 пикс.
Соотношение сторон               : 16:9
Режим частоты кадров             : Постоянный
Частота кадров                   : 25,000 кадр/сек
Цветовое пространство            : YUV
Подвыборка цветности             : 4:2:0
Битовая глубина                  : 8 бит
Тип развёртки                    : Прогрессивная
Бит/(Пиксели*Кадры)              : 0.087
Размер потока                    : 119 Мбайт (97%)
Библиотека кодирования           : x264 core 129
Настройки программы              : cabac=1 / ref=1 / deblock=1:0:0 / analyse=0x1:0x131 / me=dia / subme=2 / psy=1 / psy_rd=1.00:0.00 / mixed_ref=0 / me_range=16 / chroma_me=1 / trellis=0 / 8x8dct=0 / cqm=0 / deadzone=21,11 / fast_pskip=1 / chroma_qp_offset=0 / threads=2 / lookahead_threads=1 / sliced_threads=0 / nr=0 / decimate=1 / interlaced=0 / bluray_compat=0 / constrained_intra=0 / bframes=0 / weightp=2 / keyint=250 / keyint_min=25 / scenecut=40 / intra_refresh=0 / rc_lookahead=40 / rc=abr / mbtree=1 / bitrate=4496 / ratetol=1.0 / qcomp=0.60 / qpmin=10 / qpmax=51 / qpstep=4 / ip_ratio=1.41 / aq=1:1.00
Дата кодирования                 : UTC 2015-04-09 16:27:25
Дата пометки                     : UTC 2015-04-09 16:27:25

Аудио
Идентификатор                    : 2
Формат                           : AAC
Формат/Информация                : Advanced Audio Codec
Профиль формата                  : LC
Идентификатор кодека             : 40
Продолжительность                : 3 м. 52 с.
Вид битрейта                     : Переменный
Битрейт                          : 144 Кбит/сек
Максимальный битрейт             : 176,4 Кбит/сек
Каналы                           : 2 канала
Расположение каналов             : Front: L R
Частота                          : 44,1 КГц
Метод сжатия                     : С потерями
Размер потока                    : 4,03 Мбайт (3%)
Дата кодирования                 : UTC 2015-04-09 16:27:25
Дата пометки                     : UTC 2015-04-09 16:27:25
Общее
Полное имя                       : E:\VA - Весенний марафон № 165 (Весенние Зарубежные Хиты)\Tha Groove Junkeez feat. Voice JLuv - It's You (Official Video).mp4
Формат                           : MPEG-4
Профиль формата                  : Base Media
Идентификатор кодека             : isom
Размер файла                     : 126 Мбайт
Продолжительность                : 3 м. 38 с.
Общий поток                      : 4831 Кбит/сек
Дата кодирования                 : UTC 2015-04-16 05:26:47
Дата пометки                     : UTC 2015-04-16 05:26:47
Программа кодирования            : Lavf54.63.104

Видео
Идентификатор                    : 1
Формат                           : AVC
Формат/Информация                : Advanced Video Codec
Профиль формата                  :
Параметр CABAC формата           : Да
Параметр ReFrames формата        : 1 кадр
Идентификатор кодека             : avc1
Идентификатор кодека/Информация  : Advanced Video Coding
Продолжительность                : 3 м. 38 с.
Вид битрейта                     : Переменный
Битрейт                          : 4496 Кбит/сек
Ширина                           : 1920 пикс.
Высота                           : 1080 пикс.
Соотношение сторон               : 16:9
Режим частоты кадров             : Постоянный
Частота кадров                   : 25,000 кадр/сек
Цветовое пространство            : YUV
Подвыборка цветности             : 4:2:0
Битовая глубина                  : 8 бит
Тип развёртки                    : Прогрессивная
Бит/(Пиксели*Кадры)              : 0.087
Размер потока                    : 122 Мбайт (97%)
Библиотека кодирования           : x264 core 129
Настройки программы              : cabac=1 / ref=1 / deblock=1:0:0 / analyse=0x1:0x131 / me=dia / subme=2 / psy=1 / psy_rd=1.00:0.00 / mixed_ref=0 / me_range=16 / chroma_me=1 / trellis=0 / 8x8dct=0 / cqm=0 / deadzone=21,11 / fast_pskip=1 / chroma_qp_offset=0 / threads=2 / lookahead_threads=1 / sliced_threads=0 / nr=0 / decimate=1 / interlaced=0 / bluray_compat=0 / constrained_intra=0 / bframes=0 / weightp=2 / keyint=250 / keyint_min=25 / scenecut=40 / intra_refresh=0 / rc_lookahead=40 / rc=abr / mbtree=1 / bitrate=4496 / ratetol=1.0 / qcomp=0.60 / qpmin=10 / qpmax=51 / qpstep=4 / ip_ratio=1.41 / aq=1:1.00
Дата кодирования                 : UTC 2015-04-16 05:26:47
Дата пометки                     : UTC 2015-04-16 05:26:47

Аудио
Идентификатор                    : 2
Формат                           : AAC
Формат/Информация                : Advanced Audio Codec
Профиль формата                  : LC
Идентификатор кодека             : 40
Продолжительность                : 3 м. 38 с.
Вид битрейта                     : Переменный
Битрейт                          : 152 Кбит/сек
Максимальный битрейт             : 176,4 Кбит/сек
Каналы                           : 2 канала
Расположение каналов             : Front: L R
Частота                          : 44,1 КГц
Метод сжатия                     : С потерями
Размер потока                    : 3,96 Мбайт (3%)
Дата кодирования                 : UTC 2015-04-16 05:26:47
Дата пометки                     : UTC 2015-04-16 05:26:47
Общее
Полное имя                       : E:\VA - Весенний марафон № 165 (Весенние Зарубежные Хиты)\Tomas The Latin Boy - Bailalo (Official Video).mp4
Формат                           : MPEG-4
Профиль формата                  : Base Media
Идентификатор кодека             : isom
Размер файла                     : 168 Мбайт
Продолжительность                : 5 м. 7 с.
Общий поток                      : 4596 Кбит/сек
Дата кодирования                 : UTC 2015-04-09 05:57:07
Дата пометки                     : UTC 2015-04-09 05:57:07
Программа кодирования            : Lavf54.63.104

Видео
Идентификатор                    : 1
Формат                           : AVC
Формат/Информация                : Advanced Video Codec
Профиль формата                  :
Параметр CABAC формата           : Да
Параметр ReFrames формата        : 1 кадр
Идентификатор кодека             : avc1
Идентификатор кодека/Информация  : Advanced Video Coding
Продолжительность                : 5 м. 7 с.
Вид битрейта                     : Переменный
Битрейт                          : 4496 Кбит/сек
Ширина                           : 1920 пикс.
Высота                           : 1080 пикс.
Соотношение сторон               : 16:9
Режим частоты кадров             : Постоянный
Частота кадров                   : 25,000 кадр/сек
Цветовое пространство            : YUV
Подвыборка цветности             : 4:2:0
Битовая глубина                  : 8 бит
Тип развёртки                    : Прогрессивная
Бит/(Пиксели*Кадры)              : 0.087
Размер потока                    : 163 Мбайт (97%)
Библиотека кодирования           : x264 core 129
Настройки программы              : cabac=1 / ref=1 / deblock=1:0:0 / analyse=0x1:0x131 / me=dia / subme=2 / psy=1 / psy_rd=1.00:0.00 / mixed_ref=0 / me_range=16 / chroma_me=1 / trellis=0 / 8x8dct=0 / cqm=0 / deadzone=21,11 / fast_pskip=1 / chroma_qp_offset=0 / threads=2 / lookahead_threads=1 / sliced_threads=0 / nr=0 / decimate=1 / interlaced=0 / bluray_compat=0 / constrained_intra=0 / bframes=0 / weightp=2 / keyint=250 / keyint_min=25 / scenecut=40 / intra_refresh=0 / rc_lookahead=40 / rc=abr / mbtree=1 / bitrate=4496 / ratetol=1.0 / qcomp=0.60 / qpmin=10 / qpmax=51 / qpstep=4 / ip_ratio=1.41 / aq=1:1.00
Дата кодирования                 : UTC 2015-04-09 05:57:07
Дата пометки                     : UTC 2015-04-09 05:57:07

Аудио
Идентификатор                    : 2
Формат                           : AAC
Формат/Информация                : Advanced Audio Codec
Профиль формата                  : LC
Идентификатор кодека             : 40
Продолжительность                : 5 м. 7 с.
Вид битрейта                     : Переменный
Битрейт                          : 149 Кбит/сек
Максимальный битрейт             : 176,4 Кбит/сек
Каналы                           : 2 канала
Расположение каналов             : Front: L R
Частота                          : 44,1 КГц
Метод сжатия                     : С потерями
Размер потока                    : 5,44 Мбайт (3%)
Дата кодирования                 : UTC 2015-04-09 05:57:07
Дата пометки                     : UTC 2015-04-09 05:57:07
Общее
Полное имя                       : E:\VA - Весенний марафон № 165 (Весенние Зарубежные Хиты)\Two ft. Kaya - Angel ( Official Video).mp4
Формат                           : MPEG-4
Профиль формата                  : Base Media
Идентификатор кодека             : isom
Размер файла                     : 134 Мбайт
Продолжительность                : 4 м. 4 с.
Общий поток                      : 4592 Кбит/сек
Дата кодирования                 : UTC 2015-04-16 08:33:07
Дата пометки                     : UTC 2015-04-16 08:33:07
Программа кодирования            : Lavf54.63.104

Видео
Идентификатор                    : 1
Формат                           : AVC
Формат/Информация                : Advanced Video Codec
Профиль формата                  :
Параметр CABAC формата           : Да
Параметр ReFrames формата        : 1 кадр
Идентификатор кодека             : avc1
Идентификатор кодека/Информация  : Advanced Video Coding
Продолжительность                : 4 м. 4 с.
Вид битрейта                     : Переменный
Битрейт                          : 4496 Кбит/сек
Ширина                           : 1920 пикс.
Высота                           : 1080 пикс.
Соотношение сторон               : 16:9
Режим частоты кадров             : Постоянный
Частота кадров                   : 25,000 кадр/сек
Цветовое пространство            : YUV
Подвыборка цветности             : 4:2:0
Битовая глубина                  : 8 бит
Тип развёртки                    : Прогрессивная
Бит/(Пиксели*Кадры)              : 0.087
Размер потока                    : 129 Мбайт (97%)
Библиотека кодирования           : x264 core 129
Настройки программы              : cabac=1 / ref=1 / deblock=1:0:0 / analyse=0x1:0x131 / me=dia / subme=2 / psy=1 / psy_rd=1.00:0.00 / mixed_ref=0 / me_range=16 / chroma_me=1 / trellis=0 / 8x8dct=0 / cqm=0 / deadzone=21,11 / fast_pskip=1 / chroma_qp_offset=0 / threads=2 / lookahead_threads=1 / sliced_threads=0 / nr=0 / decimate=1 / interlaced=0 / bluray_compat=0 / constrained_intra=0 / bframes=0 / weightp=2 / keyint=250 / keyint_min=25 / scenecut=40 / intra_refresh=0 / rc_lookahead=40 / rc=abr / mbtree=1 / bitrate=4496 / ratetol=1.0 / qcomp=0.60 / qpmin=10 / qpmax=51 / qpstep=4 / ip_ratio=1.41 / aq=1:1.00
Дата кодирования                 : UTC 2015-04-16 08:33:07
Дата пометки                     : UTC 2015-04-16 08:33:07

Аудио
Идентификатор                    : 2
Формат                           : AAC
Формат/Информация                : Advanced Audio Codec
Профиль формата                  : LC
Идентификатор кодека             : 40
Продолжительность                : 4 м. 4 с.
Вид битрейта                     : Переменный
Битрейт                          : 152 Кбит/сек
Максимальный битрейт             : 176,4 Кбит/сек
Каналы                           : 2 канала
Расположение каналов             : Front: L R
Частота                          : 44,1 КГц
Метод сжатия                     : С потерями
Размер потока                    : 4,42 Мбайт (3%)
Дата кодирования                 : UTC 2015-04-16 08:33:07
Дата пометки                     : UTC 2015-04-16 08:33:07
Общее
Полное имя                       : E:\VA - Весенний марафон № 165 (Весенние Зарубежные Хиты)\Vanello and Martin Blix - Vagabondo (Official Video).mp4
Формат                           : MPEG-4
Профиль формата                  : Base Media
Идентификатор кодека             : isom
Размер файла                     : 154 Мбайт
Продолжительность                : 4 м. 47 с.
Общий поток                      : 4495 Кбит/сек
Дата кодирования                 : UTC 2015-04-04 13:53:17
Дата пометки                     : UTC 2015-04-04 13:53:17
Программа кодирования            : Lavf54.63.104

Видео
Идентификатор                    : 1
Формат                           : AVC
Формат/Информация                : Advanced Video Codec
Профиль формата                  :
Параметр CABAC формата           : Да
Параметр ReFrames формата        : 1 кадр
Идентификатор кодека             : avc1
Идентификатор кодека/Информация  : Advanced Video Coding
Продолжительность                : 4 м. 47 с.
Вид битрейта                     : Переменный
Битрейт                          : 4496 Кбит/сек
Ширина                           : 1920 пикс.
Высота                           : 1080 пикс.
Соотношение сторон               : 16:9
Режим частоты кадров             : Постоянный
Частота кадров                   : 25,000 кадр/сек
Цветовое пространство            : YUV
Подвыборка цветности             : 4:2:0
Битовая глубина                  : 8 бит
Тип развёртки                    : Прогрессивная
Бит/(Пиксели*Кадры)              : 0.087
Размер потока                    : 149 Мбайт (97%)
Библиотека кодирования           : x264 core 129
Настройки программы              : cabac=1 / ref=1 / deblock=1:0:0 / analyse=0x1:0x131 / me=dia / subme=2 / psy=1 / psy_rd=1.00:0.00 / mixed_ref=0 / me_range=16 / chroma_me=1 / trellis=0 / 8x8dct=0 / cqm=0 / deadzone=21,11 / fast_pskip=1 / chroma_qp_offset=0 / threads=2 / lookahead_threads=1 / sliced_threads=0 / nr=0 / decimate=1 / interlaced=0 / bluray_compat=0 / constrained_intra=0 / bframes=0 / weightp=2 / keyint=250 / keyint_min=25 / scenecut=40 / intra_refresh=0 / rc_lookahead=40 / rc=abr / mbtree=1 / bitrate=4496 / ratetol=1.0 / qcomp=0.60 / qpmin=10 / qpmax=51 / qpstep=4 / ip_ratio=1.41 / aq=1:1.00
Дата кодирования                 : UTC 2015-04-04 13:53:17
Дата пометки                     : UTC 2015-04-04 13:53:17

Аудио
Идентификатор                    : 2
Формат                           : AAC
Формат/Информация                : Advanced Audio Codec
Профиль формата                  : LC
Идентификатор кодека             : 40
Продолжительность                : 4 м. 47 с.
Вид битрейта                     : Переменный
Битрейт                          : 150 Кбит/сек
Максимальный битрейт             : 176,4 Кбит/сек
Каналы                           : 2 канала
Расположение каналов             : Front: L R
Частота                          : 44,1 КГц
Метод сжатия                     : С потерями
Размер потока                    : 5,16 Мбайт (3%)
Дата кодирования                 : UTC 2015-04-04 13:53:17
Дата пометки                     : UTC 2015-04-04 13:53:17

Скриншоты:


Хорошего настроения

Время раздачи:
24/7 - до 5 скачавших, далее по возможности.
 
Не забывайте говорить Спасибо. Не уходите с раздачи!   
Торрент: Зарегистрирован [20 апр 2015, 07:23] Скачать торрент
Скачать торрент
[ Размер 18.49 КБ / Просмотров 21 ]
Статус:
Проверен
 
.torrent скачан: 1 раз
Хэш: 48c897f62143a3e93493b8c1051ac46bc49f5b28
Размер: 3.13 ГБ (3 356 725 630 байт)
Стать Автором раздачи
 
 
Раздал: 6.67 ГБ
Скачал: 302.5 МБ
Ратио: 22.576
Сообщения: 374198
Зарегистрирован: 17 апр 2014, 11:05


  • Похожие торренты
    Ответы
    Просмотры
    Последнее сообщение

Вернуться в Музыкальные клипы (транзит)

Ресурс не предоставляет электронные версии произведений, а занимается лишь коллекционированием и каталогизацией ссылок, присылаемых и публикуемых на форуме нашими читателями. Если вы являетесь правообладателем какого-либо представленного материала и не желаете чтобы ссылка на него находилась в нашем каталоге, свяжитесь с нами и мы незамедлительно удалим её. Файлы для обмена на трекере предоставлены пользователями сайта, и администрация не несёт ответственности за их содержание. Просьба не заливать файлы, защищенные авторскими правами, а также файлы нелегального содержания!
cron