Потерянный рай / Escobar: Paradise Lost (2014) BDRip [H.264] [MP4|854x362]

 
 Статистика раздачи 
Размер: 1.54 ГБ   |  Зарегистрирован: 18 апр 2015, 15:36   |   .torrent скачан: 0 раз
Сидеров: 1  [ 0 байт/сек ]     Личеров: 1  [ 0 байт/сек ]  
  

Потерянный рай / Escobar: Paradise Lost (2014) BDRip [H.264] [MP4|854x362]

Сообщение Thistoll » 18 апр 2015, 15:36

Потерянный рай (Escobar: Paradise Lost) (2014) BDRip

«Добро пожаловать в семью»

Производство: France, Spain, Belgium, Panama / Chapter 2, Jaguar Films, Nexus Factory
Жанр: Криминал, Триллер, Драма

Описание:
Молодой серфер Ник приезжает к своему брату в Колумбию, где по уши влюбляется в местную девушку по имени Мария и купается в счастье ровно до тех пор, пока Мария не знакомит его со своим дядей — знаменитым наркобароном Пабло Эскобаром.

Режиссер: Андреа Ди Стефано
Продюсер: Дмитрий Рассам, Бенисио Дель Торо, М.А. Фаура и др.
Актеры: Бенисио Дель Торо, Джош Хатчерсон, Клаудия Траисак, Брэйди Корбет, Карлос Бардем, Ана Жирардо, Мике Морено, Лаура Лондоньо, Россана Урибе, Лорен Зимски

Продолжительность: 01:59:30
Перевод: многоголосый закадровый, профессиональный (официальный)

Дата мировой премьеры: 6 сентября 2014
Формат: MP4
Качество видео: BDRip
Видеокодек: AVC/H.264
Битрейт видео: ~1650 kb/s
Размер кадра: 854x362
Аудиокодек: AAC
Битрейт аудио: 192 kb/s 2.0 VBR LC
Код:
Код: Выделить всё
General
Complete name               : F:\Потерянный рай.2014.BDRip.NNM-Club.mp4
Format                      : MPEG-4
Format profile              : Base Media
Codec ID                    : isom
File size                   : 1.54 GiB
Duration                    : 1h 59mn
Overall bit rate mode       : Variable
Overall bit rate            : 1 844 Kbps
Encoded date                : UTC 2015-04-18 05:06:11
Tagged date                 : UTC 2015-04-18 05:06:11

Video
ID                          : 1
Format                      : AVC
Format/Info                 : Advanced Video Codec
Format profile              :
Format settings, CABAC      : Yes
Format settings, ReFrames   : 8 frames
Codec ID                    : avc1
Codec ID/Info               : Advanced Video Coding
Duration                    : 1h 59mn
Bit rate                    : 1 650 Kbps
Maximum bit rate            : 10.9 Mbps
Width                       : 854 pixels
Height                      : 362 pixels
Display aspect ratio        : 2.35:1
Frame rate mode             : Constant
Frame rate                  : 24.000 fps
Color space                 : YUV
Chroma subsampling          : 4:2:0
Bit depth                   : 8 bits
Scan type                   : Progressive
Bits/(Pixel*Frame)          : 0.222
Stream size                 : 1.38 GiB (89%)
Writing library             : x264 core 146 r2538 121396c
Encoding settings           : cabac=1 / ref=8 / deblock=1:0:0 / analyse=0x3:0x133 / me=umh / subme=10 / psy=1 / psy_rd=1.00:0.00 / mixed_ref=1 / me_range=64 / chroma_me=1 / trellis=2 / 8x8dct=1 / cqm=0 / deadzone=21,11 / fast_pskip=0 / chroma_qp_offset=-2 / threads=3 / lookahead_threads=1 / sliced_threads=0 / nr=0 / decimate=1 / interlaced=0 / bluray_compat=0 / constrained_intra=0 / bframes=6 / b_pyramid=2 / b_adapt=2 / b_bias=0 / direct=3 / weightb=1 / open_gop=0 / weightp=2 / keyint=240 / keyint_min=24 / scenecut=40 / intra_refresh=0 / rc_lookahead=60 / rc=2pass / mbtree=0 / bitrate=1650 / ratetol=1.0 / qcomp=0.60 / qpmin=10 / qpmax=51 / qpstep=4 / cplxblur=20.0 / qblur=0.5 / vbv_maxrate=20000 / vbv_bufsize=25000 / nal_hrd=none / filler=0 / ip_ratio=1.40 / pb_ratio=1.30 / aq=1:1.00
Encoded date                : UTC 2015-04-18 05:06:11
Tagged date                 : UTC 2015-04-18 05:07:23

Audio
ID                          : 2
Format                      : AAC
Format/Info                 : Advanced Audio Codec
Format profile              : LC
Codec ID                    : 40
Duration                    : 1h 59mn
Bit rate mode               : Variable
Bit rate                    : 192 Kbps
Maximum bit rate            : 200 Kbps
Channel(s)                  : 2 channels
Channel positions           : Front: L R
Sampling rate               : 48.0 KHz
Compression mode            : Lossy
Stream size                 : 164 MiB (10%)
Title                       : MVO
Language                    : Russian
Encoded date                : UTC 2015-04-18 05:07:04
Tagged date                 : UTC 2015-04-18 05:07:23


Код:
Код: Выделить всё
x264 [info]: profile High, level 4.1
x264 [info]: frame I:1354  Avg QP:16.14  size: 46260
x264 [info]: frame P:35279 Avg QP:18.16  size: 18225
x264 [info]: frame B:135335 Avg QP:19.94  size:  5706
x264 [info]: consecutive B-frames:  1.7%  1.8%  6.2% 16.1% 15.3% 46.9% 12.0%
x264 [info]: mb I  I16..4:  6.2% 72.6% 21.2%
x264 [info]: mb P  I16..4:  1.0% 11.6%  1.9%  P16..4: 34.1% 24.4% 18.2%  1.0%  0.3%    skip: 7.5%
x264 [info]: mb B  I16..4:  0.1%  0.8%  0.2%  B16..8: 38.6% 14.0%  4.8%  direct: 6.1%  skip:35.4%  L0:44.2% L1:44.4% BI:11.4%
x264 [info]: 8x8 transform intra:77.8% inter:59.4%
x264 [info]: direct mvs  spatial:98.8% temporal:1.2%
x264 [info]: coded y,uvDC,uvAC intra: 87.5% 83.0% 62.8% inter: 27.9% 16.5% 2.7%
x264 [info]: i16 v,h,dc,p: 55% 12% 11% 22%
x264 [info]: i8 v,h,dc,ddl,ddr,vr,hd,vl,hu:  9% 11% 11%  9% 13% 12% 12% 11% 12%
x264 [info]: i4 v,h,dc,ddl,ddr,vr,hd,vl,hu: 11% 11%  5%  9% 14% 14% 13% 11% 13%
x264 [info]: i8c dc,h,v,p: 43% 24% 18% 15%
x264 [info]: Weighted P-Frames: Y:5.0% UV:2.4%
x264 [info]: ref P L0: 49.8%  9.3% 15.9%  8.0%  6.0%  4.7%  3.7%  2.2%  0.2%  0.0%
x264 [info]: ref B L0: 73.3% 12.7%  6.4%  3.4%  2.4%  1.2%  0.5%
x264 [info]: ref B L1: 93.2%  6.8%
x264 [info]: kb/s:1649.99

Скриншоты



Время раздачи: Круглосуточно, до первых 10-и скачавших
Приятного просмотра!
 
Не забывайте говорить Спасибо. Не уходите с раздачи!   
Торрент: Зарегистрирован [18 апр 2015, 15:36] Для скачивания .torrent
необходима регистрация
Или скачать с помощью
MediaGet
Статус:
Проверен
 
.torrent скачан: 0 раз
Хэш: 0ad25b182ef4c76f06524c7690b7d8e5fa6a8876
Размер: 1.54 ГБ (1 653 184 767 байт)
Стать Автором раздачи
 
 
Раздал: 6.67 ГБ
Скачал: 302.5 МБ
Ратио: 22.576
Сообщения: 374198
Зарегистрирован: 17 апр 2014, 11:05


  • Похожие торренты
    Ответы
    Просмотры
    Последнее сообщение

Вернуться в Видео для мобильных устройств

Ресурс не предоставляет электронные версии произведений, а занимается лишь коллекционированием и каталогизацией ссылок, присылаемых и публикуемых на форуме нашими читателями. Если вы являетесь правообладателем какого-либо представленного материала и не желаете чтобы ссылка на него находилась в нашем каталоге, свяжитесь с нами и мы незамедлительно удалим её. Файлы для обмена на трекере предоставлены пользователями сайта, и администрация не несёт ответственности за их содержание. Просьба не заливать файлы, защищенные авторскими правами, а также файлы нелегального содержания!
cron