Скорпион / Scorpion (2014) WEB-DLRip [H.264] (Сезон 1, серии 1-21 из 22) BaibaKo [MP4|720x400]

 
 Статистика раздачи 
Размер: 11.62 ГБ   |  Зарегистрирован: 18 апр 2015, 02:29   |   .torrent скачан: 0 раз
Сидеров: 1  [ 0 байт/сек ]     Личеров: 1  [ 0 байт/сек ]  
  

Скорпион / Scorpion (2014) WEB-DLRip [H.264] (Сезон 1, серии 1-21 из 22) BaibaKo [MP4|720x400]

Сообщение Thistoll » 18 апр 2015, 02:29

Скорпион / Scorpion (2014) WEB-DLRip [H.264] (Сезон 1, серии 1-21 из 22) BaibaKo
«This team is pure genius»

Производство: США
Жанр: боевик, драма

Режиссер: Гэри Фледер, Дуайт Х. Литтл, Бобби Рот
Актеры: Элиес Габел, Кэтрин МакФи, Эри Стидэм, Эдди Кэй Томас, Джейдин Вонг, Эмили Робинсон, Роберт Патрик, Рис Риос и др.

Описание:
Сюжет основан на реальных событиях. Это история об эксцентричном гении и его группе вундеркиндов. Они являются аналитическим центром, работающим на службу национальной безопасности, и их задача — разбираться со сложными угрозами современности ...

Сэмпл

Продолжительность: ~ 00:42:00 серия
Качество видео: WEB-DLRip
Перевод: Многоголосый закадровый, профессиональный - BaibaKo
Автор перевода: Татьяна Saavick
Озвучка: Anna_Smile, Юлия Котурбаш, Андрей Корзаченко, Виталий Ткаченко и Олекса Мельник
Монтаж: Виталий Ткаченко

Видео: AVC/H.264, 720x400 (16:9), ~1536 Кбит/сек
Аудио #1: AAC, 2 канала, 192 Кбит/сек - русский (многоголосый закадровый, BaibaKo)
Аудио #2: AAC, 2 канала, 192 Кбит/сек - английский (оригинальный)
Код:
Код: Выделить всё
Полное имя                               : D:\Scorpion_s1_WEB-DLRip_x264_BaibaKo_[NNM-CLUB]\Scorpion.s01e01.WEB-DLRip.x264.Rus.Eng.BaibaKo.tv.mp4
Формат                                   : MPEG-4
Профиль формата                          : Base Media
Идентификатор кодека                     : isom
Размер файла                             : 570 Мбайт
Продолжительность                        : 41 м.
Режим общего битрейта                    : Переменный
Общий поток                              : 1919 Кбит/сек
Дата кодирования                         : UTC 2014-09-24 01:28:08
Дата пометки                             : UTC 2014-09-24 01:28:08

Видео
Идентификатор                            : 1
Формат                                   : AVC
Формат/Информация                        : Advanced Video Codec
Профиль формата                          :
Параметр CABAC формата                   : Нет
Параметр ReFrames формата                : 3 кадра
Идентификатор кодека                     : avc1
Идентификатор кодека/Информация          : Advanced Video Coding
Продолжительность                        : 41 м.
Битрейт                                  : 1536 Кбит/сек
Максимальный битрейт                     : 7338 Кбит/сек
Ширина                                   : 720 пикселей
Высота                                   : 400 пикселей
Соотношение сторон                       : 16:9
Режим частоты кадров                     : Переменный
Частота кадров                           : 23,976 кадра/сек
Минимальная частота кадров               : 23,974 кадра/сек
Максимальная частота кадров              : 23,981 кадра/сек
Цветовое пространство                    : YUV
Субдискретизация насыщенности            : 4:2:0
Битовая глубина                          : 8 бит
Тип развёртки                            : Прогрессивная
Бит/(Пиксели*Кадры)                      : 0.222
Размер потока                            : 456 Мбайт (80%)
Библиотека кодирования                   : x264 core 130 r2273 b3065e6
Настройки программы                      : cabac=0 / ref=3 / deblock=1:0:0 / analyse=0x1:0x111 / me=hex / subme=7 / psy=1 / psy_rd=1.00:0.00 / mixed_ref=1 / me_range=16 / chroma_me=1 / trellis=1 / 8x8dct=0 / cqm=0 / deadzone=21,11 / fast_pskip=1 / chroma_qp_offset=-2 / threads=12 / lookahead_threads=2 / sliced_threads=0 / nr=0 / decimate=1 / interlaced=0 / bluray_compat=0 / constrained_intra=0 / bframes=0 / weightp=0 / keyint=240 / keyint_min=24 / scenecut=40 / intra_refresh=0 / rc_lookahead=40 / rc=2pass / mbtree=1 / bitrate=1536 / ratetol=1.0 / qcomp=0.60 / qpmin=0 / qpmax=69 / qpstep=4 / cplxblur=20.0 / qblur=0.5 / ip_ratio=1.40 / aq=1:1.00
Дата кодирования                         : UTC 2014-09-23 09:28:46
Дата пометки                             : UTC 2014-09-24 01:28:55
Основные цвета                           : BT.709
Характеристики трансфера                 : BT.709
Коэффициенты матрицы                     : BT.709

Аудио #1
Идентификатор                            : 2
Формат                                   : AAC
Формат/Информация                        : Advanced Audio Codec
Профиль формата                          : LC
Идентификатор кодека                     : 67
Продолжительность                        : 41 м.
Вид битрейта                             : Переменный
Битрейт                                  : 192 Кбит/сек
Максимальный битрейт                     : 196 Кбит/сек
Каналы                                   : 2 канала
Расположение каналов                     : Front: L R
Частота                                  : 48,0 КГц
Метод сжатия                             : С потерями
Размер потока                            : 56,2 Мбайт (10%)
Язык                                     : Russian
Дата кодирования                         : UTC 2014-09-24 01:28:48
Дата пометки                             : UTC 2014-09-24 01:28:55

Аудио #2
Идентификатор                            : 3
Формат                                   : AAC
Формат/Информация                        : Advanced Audio Codec
Профиль формата                          : LC
Идентификатор кодека                     : 67
Продолжительность                        : 41 м.
Вид битрейта                             : Переменный
Битрейт                                  : 192 Кбит/сек
Максимальный битрейт                     : 195 Кбит/сек
Каналы                                   : 2 канала
Расположение каналов                     : Front: L R
Частота                                  : 48,0 КГц
Метод сжатия                             : С потерями
Размер потока                            : 56,2 Мбайт (10%)
Язык                                     : English
Дата кодирования                         : UTC 2014-09-24 01:28:52
Дата пометки                             : UTC 2014-09-24 01:28:55
01 - Пилот / Pilot
02 - Единственная неудача / Single Point of Failure
03 - Циклон / A Cyclone
04 - Ловкость рук / Shorthanded
05 - Плутоний навсегда / Plutonium Is Forever
06 - Истинное я / True Colors
07 - День отца / Father's Day
08 - Рискованный бизнес / Risky Business
09 - Преступный элемент / Rogue Element
10 - Талисманы / Talismans
11 - Возмездие / Revenge
12 - Домино / Dominoes
13 - Смертельная игра / Kill Screen
14 - Шарады / Charades
15 - Незабудки / Forget Me Nots
16 - Корабль любви / Love Boat
17 - На юг / Going South
18 - Однажды укушенный боится и ужа / Once Bitten, Twice Die
19 - Огонь юных сердец / Young Hearts Spark Fire
20 - Перекрестки / Crossroads
Внимание! Раздача ведётся путём добавления новых серий; при каждом добавлении создаётся новый торрент.
Чтобы начать докачку новой серии, пользователям необходимо сделать следующее:
1. Остановить скачивание;
2. Удалить старый торрент у себя из клиента (старые серии удалять не надо);
3. Скачать новый торрент и запустить его у себя в клиенте вместо старого, при этом указать клиенту путь в старую папку куда и должно происходить скачивание новых серий. Ваш клиент при этом должен произвести хеширование (проверку) старой папки и будет докачивать только те серии, которых у вас ещё нет. Старые серии при этом не удаляются, а продолжают раздаваться! Eсли вы уже удалили старые серии, то предотвратить повторную закачку старых серий можно, отжав галочку в соответствующих местах при запуске нового торрента.

Скриншоты:




Время раздачи:
24/7 - круглосуточно
(до первых 5-ти сидов - потом по возможности)
 
Не забывайте говорить Спасибо. Не уходите с раздачи!   
Торрент: Зарегистрирован [18 апр 2015, 02:29] Для скачивания .torrent
необходима регистрация
Или скачать с помощью
MediaGet
Статус:
Проверен
 
.torrent скачан: 0 раз
Хэш: 9f36685c0b0456c09e3426e08b4ccb2513b0648d
Размер: 11.62 ГБ (12 475 966 500 байт)
Стать Автором раздачи
 
 
Раздал: 6.67 ГБ
Скачал: 302.5 МБ
Ратио: 22.576
Сообщения: 374198
Зарегистрирован: 17 апр 2014, 11:05


  • Похожие торренты
    Ответы
    Просмотры
    Последнее сообщение

Вернуться в Видео для мобильных устройств

Ресурс не предоставляет электронные версии произведений, а занимается лишь коллекционированием и каталогизацией ссылок, присылаемых и публикуемых на форуме нашими читателями. Если вы являетесь правообладателем какого-либо представленного материала и не желаете чтобы ссылка на него находилась в нашем каталоге, свяжитесь с нами и мы незамедлительно удалим её. Файлы для обмена на трекере предоставлены пользователями сайта, и администрация не несёт ответственности за их содержание. Просьба не заливать файлы, защищенные авторскими правами, а также файлы нелегального содержания!
cron