Доктор Айболит (1984-1985) DVDRip [H.264] (серии 1-7 из 7) [MP4|480х360]

 
 Статистика раздачи 
Размер: 398.78 МБ   |  Зарегистрирован: 17 апр 2015, 14:12   |   .torrent скачан: 0 раз
Сидеров: 1  [ 0 байт/сек ]     Личеров: 0  [ 0 байт/сек ]  
  

Доктор Айболит (1984-1985) DVDRip [H.264] (серии 1-7 из 7) [MP4|480х360]

Сообщение Thistoll » 17 апр 2015, 14:12

Доктор Айболит (1984-1985) DVDRip

Производство: CCCP
Жанр: Анимация, Приключения, Музыкальный

Режиссер: Давид Черкасский
Роли озвучивали Георгий Кишко, Семен Фарада, Мария Миронова, Зиновий Гердт, Людмила Иванова, Людмила Ларина, Зоя Пыльнова, Всеволод Абдулов, Евгений Паперный, Ю. Врублевский

Описание:
Доктор Айболит вместе со своими друзьями-животными переживает самые невероятные приключения...



Продолжительность: ~00:10:00
Качество видео: DVDRip

Видео: AVC/H.264, at ~679 Kbps, 480 x 360 (4:3)
Аудио: AAC ~128 Kbps, 2 channels
Код:
Код: Выделить всё
General
Complete name                            : Доктор Айболит (1984 - 1985)\Доктор Аиболит 01.  Доктор Айболит и его звери.mp4
Format                                   : MPEG-4
Format profile                           : Base Media
Codec ID                                 : isom
File size                                : 56.4 MiB
Duration                                 : 9mn 40s
Overall bit rate mode                    : Variable
Overall bit rate                         : 815 Kbps
Movie name                               : Доктор Аиболит 01. Доктор Айболит и его звери [NoNaMe Club]
ContentType                              : Short Film
Encoded date                             : UTC 2015-04-14 19:56:31
Tagged date                              : UTC 2015-04-14 19:56:32
Comment                                  : [rip by alien.09]

Video
ID                                       : 1
Format                                   : AVC
Format/Info                              : Advanced Video Codec
Format profile                           :
Format settings, CABAC                   : Yes
Format settings, ReFrames                : 3 frames
Codec ID                                 : avc1
Codec ID/Info                            : Advanced Video Coding
Duration                                 : 9mn 40s
Bit rate                                 : 679 Kbps
Maximum bit rate                         : 2 983 Kbps
Width                                    : 480 pixels
Height                                   : 360 pixels
Display aspect ratio                     : 4:3
Frame rate mode                          : Constant
Frame rate                               : 25.000 fps
Color space                              : YUV
Chroma subsampling                       : 4:2:0
Bit depth                                : 8 bits
Scan type                                : Progressive
Bits/(Pixel*Frame)                       : 0.157
Stream size                              : 47.1 MiB (83%)
Writing library                          : x264 core 116 r2019M 9cc407d
Encoding settings                        : cabac=1 / ref=3 / deblock=1:0:0 / analyse=0x1:0x131 / me=hex / subme=7 / psy=1 / psy_rd=1.00:0.20 / mixed_ref=1 / me_range=16 / chroma_me=1 / trellis=1 / 8x8dct=0 / cqm=0 / deadzone=21,11 / fast_pskip=1 / chroma_qp_offset=-3 / threads=12 / sliced_threads=0 / nr=0 / decimate=1 / interlaced=0 / bluray_compat=0 / constrained_intra=0 / bframes=3 / b_pyramid=0 / b_adapt=2 / b_bias=0 / direct=3 / weightb=1 / open_gop=0 / weightp=0 / keyint=250 / keyint_min=25 / scenecut=40 / intra_refresh=0 / rc_lookahead=40 / rc=2pass / mbtree=1 / bitrate=679 / ratetol=1.0 / qcomp=0.60 / qpmin=10 / qpmax=51 / qpstep=4 / cplxblur=20.0 / qblur=0.5 / vbv_maxrate=5000 / vbv_bufsize=1835 / nal_hrd=none / ip_ratio=1.40 / aq=1:1.00
Language                                 : Russian
Encoded date                             : UTC 2015-04-14 19:56:31
Tagged date                              : UTC 2015-04-14 19:56:32

Audio
ID                                       : 2
Format                                   : AAC
Format/Info                              : Advanced Audio Codec
Format profile                           : LC
Codec ID                                 : 40
Duration                                 : 9mn 40s
Bit rate mode                            : Variable
Bit rate                                 : 128 Kbps
Maximum bit rate                         : 173 Kbps
Channel(s)                               : 2 channels
Channel positions                        : Front: L R
Sampling rate                            : 48.0 KHz
Compression mode                         : Lossy
Stream size                              : 8.85 MiB (16%)
Language                                 : Russian
Encoded date                             : UTC 2015-04-14 19:56:31
Tagged date                              : UTC 2015-04-14 19:56:32

Скриншоты:



Время раздачи: 24/7 до трёх скачавших
 
Не забывайте говорить Спасибо. Не уходите с раздачи!   
Торрент: Зарегистрирован [17 апр 2015, 14:12] Для скачивания .torrent
необходима регистрация
Или скачать с помощью
MediaGet
Статус:
Проверен
 
.torrent скачан: 0 раз
Хэш: d3ef846e187c059f985aaf88d52cd1e62bc53be3
Размер: 398.78 МБ (418 149 264 байт)
Стать Автором раздачи
 
 
Раздал: 6.67 ГБ
Скачал: 302.5 МБ
Ратио: 22.576
Сообщения: 374198
Зарегистрирован: 17 апр 2014, 11:05


  • Похожие торренты
    Ответы
    Просмотры
    Последнее сообщение

Вернуться в Видео для мобильных устройств

Ресурс не предоставляет электронные версии произведений, а занимается лишь коллекционированием и каталогизацией ссылок, присылаемых и публикуемых на форуме нашими читателями. Если вы являетесь правообладателем какого-либо представленного материала и не желаете чтобы ссылка на него находилась в нашем каталоге, свяжитесь с нами и мы незамедлительно удалим её. Файлы для обмена на трекере предоставлены пользователями сайта, и администрация не несёт ответственности за их содержание. Просьба не заливать файлы, защищенные авторскими правами, а также файлы нелегального содержания!
cron