Evanescence / Evanescence - My heart is broken (2012) HDTVRip

 
 Статистика раздачи 
Размер: 95.06 МБ   |  Зарегистрирован: 14 апр 2015, 23:28   |   .torrent скачан: 0 раз
Сидеров: 1  [ 0 байт/сек ]     Личеров: 0  [ 0 байт/сек ]  
  

Evanescence / Evanescence - My heart is broken (2012) HDTVRip

Сообщение Thistoll » 14 апр 2015, 23:28

Evanescence / Evanescence - My heart is broken (2012) HDTVRip

Производство: Wind Up Records
Год выпуска: 2012
Жанр: Gothic Rock

Режиссер: Dean Karr

Описание:
Клип на песню "My heart is broken" из альбома "Evanescence".

Продолжительность: 3:47
Качество видео: HDTVRip

Видеокодек: AVC/H.264
Битрейт видео: ~3358
Размер кадра: 1920х1080
Аудиокодек: AC3 2.0
Битрейт аудио: 152
Код:
Код: Выделить всё
Format                         : MPEG-4
Format profile                 : Base Media / Version 2
Codec ID                       : mp42
File size                      : 95.1 MiB
Duration                       : 3mn 47s
Overall bit rate mode          : Variable
Overall bit rate               : 3 499 Kbps
Encoded date                   : UTC 2012-01-12 02:20:15
Tagged date                    : UTC 2012-01-12 02:20:15
gsst                           : 0
gstd                           : 227973
gssd                           : BADC23043HH1327606361715235
gshh                           : o-o.preferred.svo01s01.v18.lscache5.c.youtube.com

Video
ID                             : 1
Format                         : AVC
Format/Info                    : Advanced Video Codec
Format profile                 :
Format settings, CABAC         : Yes
Format settings, ReFrames      : 1 frame
Format settings, GOP           : M=1, N=24
Codec ID                       : avc1
Codec ID/Info                  : Advanced Video Coding
Duration                       : 3mn 47s
Bit rate                       : 3 344 Kbps
Maximum bit rate               : 7 710 Kbps
Width                          : 1 920 pixels
Height                         : 1 080 pixels
Display aspect ratio           : 16:9
Frame rate mode                : Constant
Frame rate                     : 23.976 fps
Color space                    : YUV
Chroma subsampling             : 4:2:0
Bit depth                      : 8 bits
Scan type                      : Progressive
Bits/(Pixel*Frame)             : 0.067
Stream size                    : 90.9 MiB (96%)
Tagged date                    : UTC 2012-01-12 02:20:15

Audio
ID                             : 2
Format                         : AAC
Format/Info                    : Advanced Audio Codec
Format profile                 : LC
Codec ID                       : 40
Duration                       : 3mn 47s
Bit rate mode                  : Variable
Bit rate                       : 152 Kbps
Maximum bit rate               : 185 Kbps
Channel(s)                     : 2 channels
Channel positions              : Front: L R
Sampling rate                  : 44.1 KHz
Compression mode               : Lossy
Stream size                    : 4.12 MiB (4%)
Title                          : IsoMedia File Produced by Google, 5-11-2011
Encoded date                   : UTC 2012-01-12 02:20:15
Tagged date                    : UTC 2012-01-12 02:20:15

Скриншоты:



Время раздачи: с 18:00-21:00 (пн-пт); по возможности (сб,вс)
 
Не забывайте говорить Спасибо. Не уходите с раздачи!   
Торрент: Зарегистрирован [14 апр 2015, 23:28] Скачать торрент
Скачать торрент
[ Размер 15.6 КБ / Просмотров 7 ]
Статус:
Проверен
 
.torrent скачан: 0 раз
Хэш: 0e912e65638f35dc5501f3e78e9990d762e579db
Размер: 95.06 МБ (99 680 239 байт)
Стать Автором раздачи
 
 
Раздал: 6.67 ГБ
Скачал: 302.5 МБ
Ратио: 22.576
Сообщения: 374198
Зарегистрирован: 17 апр 2014, 11:05


  • Похожие торренты
    Ответы
    Просмотры
    Последнее сообщение

Вернуться в Музыкальные клипы (транзит)

Ресурс не предоставляет электронные версии произведений, а занимается лишь коллекционированием и каталогизацией ссылок, присылаемых и публикуемых на форуме нашими читателями. Если вы являетесь правообладателем какого-либо представленного материала и не желаете чтобы ссылка на него находилась в нашем каталоге, свяжитесь с нами и мы незамедлительно удалим её. Файлы для обмена на трекере предоставлены пользователями сайта, и администрация не несёт ответственности за их содержание. Просьба не заливать файлы, защищенные авторскими правами, а также файлы нелегального содержания!
cron