Геном неандертальцев / Decoding Neanderthals (2013) HDTVRip [H.264]

 
 Статистика раздачи 
Размер: 1.13 ГБ   |  Зарегистрирован: 13 апр 2015, 22:48   |   .torrent скачан: 3 раз
Сидеров: 1  [ 0 байт/сек ]     Личеров: 0  [ 0 байт/сек ]  
  

Геном неандертальцев / Decoding Neanderthals (2013) HDTVRip [H.264]

Сообщение Thistoll » 13 апр 2015, 22:48

Геном неандертальцев / Decoding Neanderthals (2013) HDTVRip [H.264]

Телекомпания: США, WGBH Educational Foundation, NOVA
Жанр: Документальный

Участники: Сванте Паабе (Svante Paabe), Фредерик Кулидж (Frederick Coolidge), Мэтин Эрен (Metin Eren), Эд Грин (Ed Green)

Описание:
Сложившиеся представления о неандертальцах как о диких обитателях пещер - ошибочны. Последние открытия в археологии и генетике по-новому раскрывают традиционный образ неандертальца. Специалисты расшифровали геном неандертальца и установили, что он являлся важным инструментом выживания современных людей.



Продолжительность: 00:52:09
Качество видео: HDTVRip

Перевод: Двуголосый закадровый, профессиональный

Видеокодек: AVC/H.264
Битрейт видео: ~2651 kbps (29,97 fps)
Размер кадра: [email protected] (16:9)
Аудио 1: AC3 2.0, 192 kbps 48 kHz, Русский
Аудио 2: AC3 2.0, 192 kbps 48 kHz, Английский
Код:
Код: Выделить всё
I:\Torrent_Download\Decoding_Neanderthals_2013_HDTVRip.mkv
   General
      Unique ID : 153023944369963885227311477681652719322 (0x731F56F46B3B283B4BFE9D96322B5EDA)
      Complete name : I:\Torrent_Download\Decoding_Neanderthals_2013_HDTVRip.mkv
      Format : Matroska
      File size : 1.13 GiB
      Duration : 52mn 9s
      Overall bit rate : 3 097 Kbps
      Writing application : Lavf55.7.100
      Writing library : Lavf55.7.100
   Video #1
      ID : 1
      Format : AVC
      Format/Info : Advanced Video Codec
      Format profile :
      Format settings, CABAC : Yes
      Format settings, ReFrames : 3 frames
      Codec ID : V_MPEG4/ISO/AVC
      Duration : 52mn 9s
      Bit rate : 2 651 Kbps
      Width : 720 pixels
      Height : 480 pixels
      Display aspect ratio : 16:9
      Original display aspect ratio : 16:9
      Frame rate mode : Variable
      Frame rate : 29.970 fps
      Standard : NTSC
      Color space : YUV
      Chroma subsampling : 4:2:0
      Bit depth : 8 bits
      Scan type : Progressive
      Bits/(Pixel*Frame) : 0.256
      Stream size : 989 MiB (86%)
      Title : Main video
      Language : English / un
   Audio #2
      ID : 2
      Format : AC-3
      Format/Info : Audio Coding 3
      Mode extension : CM (complete main)
      Codec ID : A_AC3
      Duration : 52mn 9s
      Bit rate mode : Constant
      Bit rate : 192 Kbps
      Channel(s) : 2 channels
      Channel positions : Front: L R
      Sampling rate : 48.0 KHz
      Bit depth : 16 bits
      Compression mode : Lossy
      Stream size : 71.6 MiB (6%)
      Title : Russian
      Language : English / Russian
   Audio #3
      ID : 3
      Format : AC-3
      Format/Info : Audio Coding 3
      Mode extension : CM (complete main)
      Codec ID : A_AC3
      Duration : 52mn 9s
      Bit rate mode : Constant
      Bit rate : 192 Kbps
      Channel(s) : 2 channels
      Channel positions : Front: L R
      Sampling rate : 48.0 KHz
      Bit depth : 16 bits
      Compression mode : Lossy
      Stream size : 71.6 MiB (6%)
      Title : English
      Language : English / English

Скриншоты:


Время раздачи: круглосуточно
 
Не забывайте говорить Спасибо. Не уходите с раздачи!   
Торрент: Зарегистрирован [13 апр 2015, 22:48] Для скачивания .torrent
необходима регистрация
Или скачать с помощью
MediaGet
Статус:
Проверен
 
.torrent скачан: 3 раз
Хэш: 9d96ee13b71210231791bbae6853b960ddffc701
Размер: 1.13 ГБ (1 211 278 574 байт)
Стать Автором раздачи
 
 
Раздал: 6.67 ГБ
Скачал: 302.5 МБ
Ратио: 22.576
Сообщения: 374284
Зарегистрирован: 17 апр 2014, 11:05


  • Похожие торренты
    Ответы
    Просмотры
    Последнее сообщение

Вернуться в Доисторический мир

Кто сейчас на конференции

Сейчас эту тему просматривают: нет зарегистрированных пользователей и гости: 1

Ресурс не предоставляет электронные версии произведений, а занимается лишь коллекционированием и каталогизацией ссылок, присылаемых и публикуемых на форуме нашими читателями. Если вы являетесь правообладателем какого-либо представленного материала и не желаете чтобы ссылка на него находилась в нашем каталоге, свяжитесь с нами и мы незамедлительно удалим её. Файлы для обмена на трекере предоставлены пользователями сайта, и администрация не несёт ответственности за их содержание. Просьба не заливать файлы, защищенные авторскими правами, а также файлы нелегального содержания!