Заложница 3 / Taken 3 (Theatrical Cut) (2014) BDRip [H.264] [MP4|854x358]

 
 Статистика раздачи 
Размер: 1.37 ГБ   |  Зарегистрирован: 13 апр 2015, 11:09   |   .torrent скачан: 0 раз
Сидеров: 1  [ 0 байт/сек ]     Личеров: 1  [ 0 байт/сек ]  
  

Заложница 3 / Taken 3 (Theatrical Cut) (2014) BDRip [H.264] [MP4|854x358]

Сообщение Thistoll » 13 апр 2015, 11:09

Заложница 3 (Taken 3) (2014) BDRip

«Это конец»

Производство: Франция
Жанр: боевик, триллер

Описание фильма:
Жизнь бывшего правительственного агента Брайана Миллса рушится, когда его обвиняют в убийстве, которого он не совершал. Преследуемый опытным инспектором полиции, Миллс пытается отследить настоящего убийцу…

Режиссер: Оливье Мегатон
Продюсер: Люк Бессон, Мишель Мандавилль
Актеры: Лиам Нисон, Мэгги Грэйс, Форест Уитакер, Сэм Спруэлл, Фамке Янссен, Дюгрей Скотт, Дон Харви, Дилан Бруно, Лиленд Орсер, Дэвид Уоршофски

Продолжительность: 01:48:57
Перевод: Дублированный (iTunes)

Дата мировой премьеры: 16 декабря 2014
Дата российской премьеры: 15 января 2015
Дата выхода DVD/Blu-Ray релиза: 23 апреля 2015
Формат: MP4
Качество видео: BDRip
Видеокодек: AVC/H.264
Битрейт видео: ~1600 kb/s
Размер кадра: 854x358
Аудиокодек: AAC
Битрейт аудио: 192 kb/s 2.0 VBR LC
Код:
Код: Выделить всё
General
Complete name               : F:\Заложница 3.2014.BDRip.NNM-Club.mp4
Format                      : MPEG-4
Format profile              : Base Media
Codec ID                    : isom
File size                   : 1.37 GiB
Duration                    : 1h 48mn
Overall bit rate mode       : Variable
Overall bit rate            : 1 795 Kbps
Encoded date                : UTC 2015-04-13 05:44:03
Tagged date                 : UTC 2015-04-13 05:44:03

Video
ID                          : 1
Format                      : AVC
Format/Info                 : Advanced Video Codec
Format profile              :
Format settings, CABAC      : Yes
Format settings, ReFrames   : 9 frames
Codec ID                    : avc1
Codec ID/Info               : Advanced Video Coding
Duration                    : 1h 48mn
Bit rate                    : 1 600 Kbps
Maximum bit rate            : 4 366 Kbps
Width                       : 854 pixels
Height                      : 358 pixels
Display aspect ratio        : 2.40:1
Frame rate mode             : Constant
Frame rate                  : 23.976 fps
Color space                 : YUV
Chroma subsampling          : 4:2:0
Bit depth                   : 8 bits
Scan type                   : Progressive
Bits/(Pixel*Frame)          : 0.218
Stream size                 : 1.22 GiB (89%)
Writing library             : x264 core 146 r2538 121396c
Encoding settings           : cabac=1 / ref=9 / deblock=1:-2:-2 / analyse=0x3:0x133 / me=umh / subme=10 / psy=1 / psy_rd=1.00:0.00 / mixed_ref=1 / me_range=48 / chroma_me=1 / trellis=2 / 8x8dct=1 / cqm=0 / deadzone=21,11 / fast_pskip=0 / chroma_qp_offset=-2 / threads=3 / lookahead_threads=1 / sliced_threads=0 / nr=0 / decimate=1 / interlaced=0 / bluray_compat=0 / constrained_intra=0 / bframes=6 / b_pyramid=2 / b_adapt=2 / b_bias=0 / direct=3 / weightb=1 / open_gop=0 / weightp=2 / keyint=240 / keyint_min=23 / scenecut=40 / intra_refresh=0 / rc_lookahead=60 / rc=2pass / mbtree=0 / bitrate=1600 / ratetol=1.0 / qcomp=0.60 / qpmin=10 / qpmax=51 / qpstep=4 / cplxblur=20.0 / qblur=0.5 / vbv_maxrate=37500 / vbv_bufsize=45000 / nal_hrd=none / filler=0 / ip_ratio=1.40 / pb_ratio=1.30 / aq=1:1.00
Encoded date                : UTC 2015-04-13 05:44:03
Tagged date                 : UTC 2015-04-13 05:45:09

Audio
ID                          : 2
Format                      : AAC
Format/Info                 : Advanced Audio Codec
Format profile              : LC
Codec ID                    : 40
Duration                    : 1h 48mn
Bit rate mode               : Variable
Bit rate                    : 192 Kbps
Maximum bit rate            : 199 Kbps
Channel(s)                  : 2 channels
Channel positions           : Front: L R
Sampling rate               : 48.0 KHz
Compression mode            : Lossy
Stream size                 : 150 MiB (11%)
Title                       : DUB [iTunes]
Language                    : Russian
Encoded date                : UTC 2015-04-13 05:44:51
Tagged date                 : UTC 2015-04-13 05:45:09


Код:
Код: Выделить всё
[info]: 854x358p 0:0 @ 24000/1001 fps (cfr)
[info]: using cpu capabilities: MMX2 SSE2 SSE3 Cache64
[info]: profile High, level 4.1
[info]: frame I:2903  Avg QP:18.37  size: 43763
[info]: frame P:38084 Avg QP:21.13  size: 15189
[info]: frame B:115748 Avg QP:23.56  size:  5199
[info]: consecutive B-frames:  4.3%  4.5%  9.9% 26.8% 19.1% 28.5%  6.8%
[info]: mb I  I16..4:  4.9% 74.6% 20.6%
[info]: mb P  I16..4:  1.9% 14.7%  2.9%  P16..4: 37.1% 21.6% 14.5%  0.8%  0.2%    skip: 6.2%
[info]: mb B  I16..4:  0.1%  1.1%  0.3%  B16..8: 43.6% 12.1%  3.4%  direct: 5.8%  skip:33.6%  L0:42.6% L1:45.9% BI:11.6%
[info]: 8x8 transform intra:74.8% inter:64.0%
[info]: direct mvs  spatial:98.8% temporal:1.2%
[info]: coded y,uvDC,uvAC intra: 81.5% 79.5% 54.1% inter: 26.0% 18.5% 2.3%
[info]: i16 v,h,dc,p: 31% 25%  7% 37%
[info]: i8 v,h,dc,ddl,ddr,vr,hd,vl,hu: 14% 12%  8%  9% 12% 11% 12% 10% 12%
[info]: i4 v,h,dc,ddl,ddr,vr,hd,vl,hu: 14% 13%  4%  9% 13% 12% 13%  9% 12%
[info]: i8c dc,h,v,p: 35% 28% 20% 17%
[info]: Weighted P-Frames: Y:4.5% UV:2.7%
[info]: ref P L0: 55.1%  8.9% 16.3%  7.0%  4.7%  3.2%  2.4%  1.3%  0.9%  0.1%  0.0%
[info]: ref B L0: 74.9% 13.8%  5.5%  2.5%  1.6%  1.1%  0.5%  0.2%
[info]: ref B L1: 92.7%  7.3%
[info]: kb/s:1599.85
*** Все сцены драк Лиам Нисон исполнил самостоятельно.

*** В фильме «Заложница» (2007) Брайан Миллс говорит похитителям по телефону, что именно он будет делать, и с чем они столкнулись, на что они отвечают: «Удачи». А в фильме «Заложница 3» (2014) наоборот – Франк Доцлер говорит Брайану, что именно он будет делать, и с чем столкнулся Брайан, на что Брайан отвечает: «Удачи».

*** В фильме на 33-й минуте в полицейском профайле Ким указан рост 6`4» (193 см), на самом деле рост актрисы Мэгги Грэйс составляет всего 5`9» (175 см).
*** Когда Меланков разговаривает по телефону в своем доме, он держит телефон перевернутым.

*** В сцене, когда Стюарт садится в машину, он садится в Mercedes-Benz S500 W221, в следующем же кадре видно, что он едет на Mercedes-Benz S500, но кузов уже W222.

*** Брайан звонит Ким после того, как ему удается сбежать от полиции, и когда он вешает трубку, слышен гудок на линии Ким. У Ким iPhone, который не издает такого гудка при завершении звонка.

*** Когда Миллс пытает Стюарта Сент-Джона, он обвиняет Миллса в том, что тот спал с его женой. В оригинальной версии слышно, что он в этом моменте произносит слово «screwing», но по его губам видно, что на самом деле он говорит «fucking».

*** В сцене, когда Брайан пытает Стюарта, погружая его под воду, следы от воды на футболке Стюарта меняются при смене кадра.

*** В начале фильма, когда Брайана преследует полиция, ему удается уйти от погони, спустившись под грузовик, а затем в канализацию. При этом он полностью погружается под воду. Однако, когда он вылезает из канализации, его рубашка мокрая только до воротника.

*** Когда Миллс угоняет полицейскую машину, она получает повреждения спереди и сзади. Но позже можно заметить, что эти повреждения исчезают.

*** Пилоты реактивного самолета запрашивают взлет с полосы 2. В следующем же кадре показывают вылет с полосы 5L.

*** Porsche врезается в переднее шасси самолета, однако в последующих сценах на машине не видно никаких повреждений.

*** В сцене, когда Брайан заходит в лифт небоскрёба, он берёт дефибриллятор и вырубает им двух охранников, направив на каждого отдельный электрод. Дефибриллятор не сработает на человеке если на нём лишь один электрод, а не два.

*** В фильме на 33:19 минуте указана модель машины Ленор AUDI A8 Spyder — на самом деле модель машины — AUDI R8 Spyder.

*** Когда Брайан встречается с дочерью в туалете, нам показывают кадр сверху. Мы видим стандартную узкую кабинку, 14 плиток кафеля в ширину. Нет никаких окон. В следующих кадрах, когда показывают разговор отца и дочери, кабинка становится очень широкой, и в стене появляется окно.

*** В финальной сцене у разбившегося самолёта (1:34:12), когда Дюгрей Скотт, держа за волосы, вытаскивает дочь главного героя, видно как он держит дуло пистолета у её головы — то над головой, то на уровне её уха, в следующем же кадре, когда дочь вырывается ударив его локтём, мы видим, что дуло пистолета находится чуть впереди дочери и ниже подбородка.
Скриншоты



Время раздачи: Круглосуточно, до первых 10-и скачавших
Приятного просмотра!
 
Не забывайте говорить Спасибо. Не уходите с раздачи!   
Торрент: Зарегистрирован [13 апр 2015, 11:09] Для скачивания .torrent
необходима регистрация
Или скачать с помощью
MediaGet
Статус:
Проверен
 
.torrent скачан: 0 раз
Хэш: c3f6c161f504d925dca31f323717f3edebb93ece
Размер: 1.37 ГБ (1 467 331 006 байт)
Стать Автором раздачи
 
 
Раздал: 6.67 ГБ
Скачал: 302.5 МБ
Ратио: 22.576
Сообщения: 374198
Зарегистрирован: 17 апр 2014, 11:05


  • Похожие торренты
    Ответы
    Просмотры
    Последнее сообщение

Вернуться в Видео для мобильных устройств

Ресурс не предоставляет электронные версии произведений, а занимается лишь коллекционированием и каталогизацией ссылок, присылаемых и публикуемых на форуме нашими читателями. Если вы являетесь правообладателем какого-либо представленного материала и не желаете чтобы ссылка на него находилась в нашем каталоге, свяжитесь с нами и мы незамедлительно удалим её. Файлы для обмена на трекере предоставлены пользователями сайта, и администрация не несёт ответственности за их содержание. Просьба не заливать файлы, защищенные авторскими правами, а также файлы нелегального содержания!
cron