Sirenia / Sirenia - Once My Light (2015) HDTVRip

 
 Статистика раздачи 
Размер: 144.12 МБ   |  Зарегистрирован: 10 апр 2015, 23:37   |   .torrent скачан: 0 раз
Сидеров: 1  [ 0 байт/сек ]     Личеров: 0  [ 0 байт/сек ]  
  

Sirenia / Sirenia - Once My Light (2015) HDTVRip

Сообщение Thistoll » 10 апр 2015, 23:37

Sirenia / Sirenia - Once My Light (2015) HDTVRip

Производство: Napalm Records
Жанр: Symphonic Gothic Metal

Описание:
Новый клип группы Sirenia.

Продолжительность: 6:05
Качество видео: HDTVRip

Видеокодек: AVC/H.264
Битрейт видео: ~3176
Размер кадра: 1920х1080
Аудиокодек: AAC 2.0
Битрейт аудио: 125
Код:
Код: Выделить всё
Format                         : MPEG-4
Format profile                 : Base Media
Codec ID                       : isom
File size                      : 144 MiB
Duration                       : 6mn 5s
Overall bit rate mode          : Variable
Overall bit rate               : 3 305 Kbps
Encoded date                   : UTC 2015-04-07 08:32:28
Tagged date                    : UTC 2015-04-07 08:32:28

Video
ID                             : 1
Format                         : AVC
Format/Info                    : Advanced Video Codec
Format profile                 :
Format settings, CABAC         : Yes
Format settings, ReFrames      : 2 frames
Codec ID                       : avc1
Codec ID/Info                  : Advanced Video Coding
Duration                       : 6mn 5s
Bit rate                       : 3 176 Kbps
Width                          : 1 920 pixels
Height                         : 1 080 pixels
Display aspect ratio           : 16:9
Frame rate mode                : Constant
Frame rate                     : 25.000 fps
Color space                    : YUV
Chroma subsampling             : 4:2:0
Bit depth                      : 8 bits
Scan type                      : Progressive
Bits/(Pixel*Frame)             : 0.061
Stream size                    : 138 MiB (96%)
Encoded date                   : UTC 2015-04-07 08:32:28
Tagged date                    : UTC 2015-04-07 08:32:28

Audio
ID                             : 2
Format                         : AAC
Format/Info                    : Advanced Audio Codec
Format profile                 : LC
Codec ID                       : 40
Duration                       : 6mn 5s
Bit rate mode                  : Variable
Bit rate                       : 126 Kbps
Channel(s)                     : 2 channels
Channel positions              : Front: L R
Sampling rate                  : 44.1 KHz
Compression mode               : Lossy
Delay relative to video        : -3s 600ms
Stream size                    : 5.48 MiB (4%)
Encoded date                   : UTC 2015-04-07 08:30:28
Tagged date                    : UTC 2015-04-07 08:30:28

Скриншоты:





Время раздачи: с 18:00 до 21:00 (пн-пт); по возможности (сб/вс)
 
Не забывайте говорить Спасибо. Не уходите с раздачи!   
Торрент: Зарегистрирован [10 апр 2015, 23:37] Скачать торрент
Скачать торрент
[ Размер 11.93 КБ / Просмотров 14 ]
Статус:
Проверен
 
.torrent скачан: 0 раз
Хэш: 58ea6fea08f72fb1a058de1548dfaf9192c175ed
Размер: 144.12 МБ (151 116 257 байт)
Стать Автором раздачи
 
 
Раздал: 6.67 ГБ
Скачал: 302.5 МБ
Ратио: 22.576
Сообщения: 374198
Зарегистрирован: 17 апр 2014, 11:05


  • Похожие торренты
    Ответы
    Просмотры
    Последнее сообщение

Вернуться в Музыкальные клипы (транзит)

Ресурс не предоставляет электронные версии произведений, а занимается лишь коллекционированием и каталогизацией ссылок, присылаемых и публикуемых на форуме нашими читателями. Если вы являетесь правообладателем какого-либо представленного материала и не желаете чтобы ссылка на него находилась в нашем каталоге, свяжитесь с нами и мы незамедлительно удалим её. Файлы для обмена на трекере предоставлены пользователями сайта, и администрация не несёт ответственности за их содержание. Просьба не заливать файлы, защищенные авторскими правами, а также файлы нелегального содержания!
cron