Mc Doni feat. Натали - Ты такой (2015) HDTVRip [H.264/1080p]

 
 Статистика раздачи 
Размер: 216.08 МБ   |  Зарегистрирован: 09 апр 2015, 23:08   |   .torrent скачан: 0 раз
Сидеров: 1  [ 0 байт/сек ]     Личеров: 0  [ 0 байт/сек ]  
  

Mc Doni feat. Натали - Ты такой (2015) HDTVRip [H.264/1080p]

Сообщение Thistoll » 09 апр 2015, 23:08

Mc Doni feat. Натали - Ты такой (2015) HDTVRip [H.264/1080p]

Исполнитель: Mc Doni, Натали
Год выпуска: 2015
Жанр: Pop
Продолжительность: 00:03:34

Описание: Премьера клипа МС Doni и Натали - Ты Такой!

Качество видео: HDTVRip [1080p]
Видеокодек: MPEG-4 AVC/H.264
Битрейт видео: ~ 8109 Кбит/с
Размер кадра: 1920x1080 (16:9), 25,000 кадров/с
Аудиокодек: AAC, 2 ch, stereo
Битрейт аудио: 317 Кбит/с
Код:
Код: Выделить всё
Общее
Полное имя                               : Mc Doni feat. Натали - Ты такой.mp4
Формат                                   : MPEG-4
Профиль формата                          : Base Media / Version 2
Идентификатор кодека                     : mp42
Размер файла                             : 216 Мбайт
Продолжительность                        : 3 м. 34 с.
Режим общего битрейта                    : Переменный
Общий поток                              : 8431 Кбит/сек

Видео
Идентификатор                            : 1
Формат                                   : AVC
Формат/Информация                        : Advanced Video Codec
Профиль формата                          :
Параметр CABAC формата                   : Да
Параметр ReFrames формата                : 3 кадра
Идентификатор кодека                     : avc1
Идентификатор кодека/Информация          : Advanced Video Coding
Продолжительность                        : 3 м. 34 с.
Продолжительность оригинала              : 3 м. 35 с.
Битрейт                                  : 8109 Кбит/сек
Ширина                                   : 1920 пикселей
Высота                                   : 1080 пикселей
Соотношение сторон                       : 16:9
Режим частоты кадров                     : Постоянный
Частота кадров                           : 25,000 кадров/сек
Стандарт вещания                         : PAL
Цветовое пространство                    : YUV
Субдискретизация насыщенности            : 4:2:0
Битовая глубина                          : 8 бит
Тип развёртки                            : Прогрессивная
Бит/(Пиксели*Кадры)                      : 0.156
Размер потока                            : 208 Мбайт (96%)
Размер потока оригинала                  : 208 Мбайт (96%)
Язык                                     : English
Основные цвета                           : BT.709
Характеристики трансфера                 : BT.709
Коэффициенты матрицы                     : BT.709
colour_range                             : Limited
mdhd_Duration                            : 214960

Аудио
Идентификатор                            : 2
Формат                                   : AAC
Формат/Информация                        : Advanced Audio Codec
Профиль формата                          : LC
Идентификатор кодека                     : 40
Продолжительность                        : 3 м. 34 с.
Продолжительность оригинала              : 3 м. 34 с.
Вид битрейта                             : Переменный
Битрейт                                  : 317 Кбит/сек
Каналы                                   : 2 канала
Расположение каналов                     : Front: L R
Частота                                  : 48,0 КГц
Метод сжатия                             : С потерями
Размер потока                            : 8,13 Мбайт (4%)
Размер потока оригинала                  : 8,13 Мбайт (4%)
Язык                                     : English
mdhd_Duration                            : 214997

Скриншоты:

 
Не забывайте говорить Спасибо. Не уходите с раздачи!   
Торрент: Зарегистрирован [09 апр 2015, 23:08] Скачать торрент
Скачать торрент
[ Размер 17.61 КБ / Просмотров 26 ]
Статус:
Проверен
 
.torrent скачан: 0 раз
Хэш: 0365d1b7732228f9ac5579773feaa5d3648d3f73
Размер: 216.08 МБ (226 576 146 байт)
Стать Автором раздачи
 
 
Раздал: 6.67 ГБ
Скачал: 302.5 МБ
Ратио: 22.576
Сообщения: 374198
Зарегистрирован: 17 апр 2014, 11:05


  • Похожие торренты
    Ответы
    Просмотры
    Последнее сообщение

Вернуться в Музыкальные клипы (транзит)

Ресурс не предоставляет электронные версии произведений, а занимается лишь коллекционированием и каталогизацией ссылок, присылаемых и публикуемых на форуме нашими читателями. Если вы являетесь правообладателем какого-либо представленного материала и не желаете чтобы ссылка на него находилась в нашем каталоге, свяжитесь с нами и мы незамедлительно удалим её. Файлы для обмена на трекере предоставлены пользователями сайта, и администрация не несёт ответственности за их содержание. Просьба не заливать файлы, защищенные авторскими правами, а также файлы нелегального содержания!
cron