INXS - Gold - The videos / INXS - Gold - The videos (2007) DVDRip [H.264]

 
 Статистика раздачи 
Размер: 1.14 ГБ   |  Зарегистрирован: 07 апр 2015, 10:09   |   .torrent скачан: 0 раз
Сидеров: 1  [ 0 байт/сек ]     Личеров: 0  [ 0 байт/сек ]  
  

INXS - Gold - The videos / INXS - Gold - The videos (2007) DVDRip [H.264]

Сообщение Thistoll » 07 апр 2015, 10:09

INXS - Gold - The videos (2007) DVDRip

Производство: Австралия
Жанр: Pop

Описание:

Сборник видеоклипов Австралийской группы INXS

Треклист:

01. New Sensation
02. Devil Inside
03. Listen Like Thieves
04. What You Need
05. Original Sin
06. Bitter Tears
07. Never Tear Us Apart
08. Send A Message
09. Elegantly Wasted
10. Suicide Blonde
11. Mystify
12. Beautiful Girl
13. Need You Tonight
14. Baby Don't Cry
15. Heaven Sent
16. Disappear

Продолжительность: 01:07:14
Качество видео: DVDRip

Видеокодек: AVC/H.264
Битрейт видео: ~2040 Kbps
Размер кадра: 720x540~556
Аудиокодек: AC3 5.1
Битрейт аудио: 384 kbps
Код:
Код: Выделить всё
General
Unique ID                      : 184530019133654689002420796063236095979 (0x8AD3305EF2966722905DB40A5179FFEB)
Complete name                  : INXS - Gold - The videos
Format                         : Matroska
Format version                 : Version 2
File size                      : 58.4 MiB
Overall bit rate               : 2 441 Kbps
Encoded date                   : UTC 2015-04-05 17:26:44
Writing application            : mkvmerge v6.1.0 ('Old Devil')
Writing library                : libebml v1.3.0 + libmatroska v1.4.0

Video
ID                             : 1
Format                         : AVC
Format/Info                    : Advanced Video Codec
Format profile                 :
Format settings, CABAC         : Yes
Format settings, ReFrames      : 10 frames
Codec ID                       : V_MPEG4/ISO/AVC
Bit rate                       : 2 040 Kbps
Width                          : 720 pixels
Height                         : 540 pixels
Display aspect ratio           : 4:3
Original display aspect ratio  : 1.299
Frame rate mode                : Constant
Frame rate                     : 29.970 fps
Color space                    : YUV
Chroma subsampling             : 4:2:0
Bit depth                      : 8 bits
Scan type                      : Progressive
Bits/(Pixel*Frame)             : 0.200
Stream size                    : 48.1 MiB (82%)
Writing library                : x264 core 130 r2273 b3065e6
Encoding settings              : cabac=1 / ref=10 / deblock=1:-2:-1 / analyse=0x3:0x133 / me=umh / subme=11 / psy=1 / psy_rd=1.35:0.37 / mixed_ref=1 / me_range=34 / chroma_me=1 / trellis=2 / 8x8dct=1 / cqm=0 / deadzone=21,11 / fast_pskip=0 / chroma_qp_offset=-4 / threads=12 / lookahead_threads=1 / sliced_threads=0 / nr=0 / decimate=0 / interlaced=0 / bluray_compat=0 / constrained_intra=0 / bframes=8 / b_pyramid=2 / b_adapt=1 / b_bias=0 / direct=1 / weightb=1 / open_gop=1 / weightp=2 / keyint=250 / keyint_min=25 / scenecut=40 / intra_refresh=0 / rc_lookahead=50 / rc=abr / mbtree=1 / bitrate=2040 / ratetol=1.0 / qcomp=0.60 / qpmin=0 / qpmax=69 / qpstep=4 / ip_ratio=1.41 / aq=1:1.10
Default                        : Yes
Forced                         : No
Color primaries                : Generic film
Color range                    : Limited

Audio
ID                             : 2
Format                         : AC-3
Format/Info                    : Audio Coding 3
Mode extension                 : CM (complete main)
Format settings, Endianness    : Big
Codec ID                       : A_AC3
Bit rate mode                  : Constant
Bit rate                       : 384 Kbps
Channel(s)                     : 6 channels
Channel positions              : Front: L C R, Side: L R, LFE
Sampling rate                  : 48.0 KHz
Bit depth                      : 16 bits
Compression mode               : Lossy
Stream size                    : 9.19 MiB (16%)
Default                        : Yes
Forced                         : No

Проведена работа по коррекции и очистке видео

Скриншоты:



INXS — самая успешная австралийская рок-группа со времён AC/DC. Образована 16 августа 1977 года в Сиднее и первоначально играла фанк-рок.



Первоначально группа носила название Farriss Brothers, и в ее состав входили : Тим Фаррисс (гитара), Джон Фаррисс (ударные)и Эндрю Фаррисс (клавишные, гитара), Майкл Хатчинс (вокал), Кирк Пенгилли (гитара, саксофон) и Гарри Бирс (бас-гитара). В 1980 году, перед выходом первого альбома, группа сменила название на INXS.

Постепенно группа набирала известность, их третий студийный альбом «Shabooh Shoobah» вошел в пятерку лучших альбомов Австралии.

Сексуальная харизма вокалиста Майка Хатчинса и его регулярные появления на канале MTV привели к тому, что четвёртый альбом группы — «The Swing» (1984) — стал бестселлером и за пределами Австралии. Следующие альбомы — «Listen Like Thieves» (1985) и «Kick» (1987) — разошлись многомиллионными тиражами в США и Европе. Сингл «Need You Tonight» одно время возглавлял хит-парад продаж США.

В 1990-е гг. популярность группы пошла на убыль, однако имя Хатчинса продолжало регулярно мелькать в новостях в связи с перипетиями его романтических отношений с супермоделью Хеленой Кристенсен и певицей Кайли Миноуг. 22 ноября 1997 года Хатчинс покончил с собой, и группа на некоторое время прекратила существование.

В период с 2000 по 2004 группа сделала несколько попыток заменить вокалиста — они выступали и с известным соул-певцом Теренсом Трентом Д’Арби, и с автралийскими исполнителями Сьюзи ДеМарчи и Джимми Барнсом. В 2000 году к группе присоединился новозеландский певец Джон Стивенс, однако в 2003 году он ушел из группы ради сольной карьеры.

В 2004 году участники INXS объявили конкурс на замещение вакантного места вокалиста, победителем которого стал канадец Джей Ди Форчун, и вскоре выпустили новый альбом, «Switch».

--------------------------------------------------------------------------
Студийные альбомы

1980 — INXS
1981 — Underneath the Colours
1982 — Shabooh Shoobah
1984 — The Swing
1985 — Listen Like Thieves
1987 — Kick
1990 — X
1992 — Welcome to Wherever You Are
1993 — Full Moon, Dirty Hearts
1997 — Elegantly Wasted
2005 — Switch

----------------------------------------------------------------------------
Концертные альбомы

1991 — Live Baby Live
2004 — INXS: Live at Barker Hangar

-----------------------------------------------------------------------------
Сборники

1982 — INXSIVE
1994 — The Greatest Hits (INXS)|The Greatest Hits
2001 — Shine Like It Does: The Anthology (1979—1997)
2002 — Definitive INXS/The Best of INXS
2002 — The Years 1979—1997
2002 — Stay Young 1979—1982
2004 — INXS?: The Remixes
2004 — Original Sin — The Collection
2006 — Taste It : The Collection

------------------------------------------------------------------------------

Время раздачи:
12:00-22:00
 
Не забывайте говорить Спасибо. Не уходите с раздачи!   
Торрент: Зарегистрирован [07 апр 2015, 10:09] Скачать торрент
Скачать торрент
[ Размер 92.69 КБ / Просмотров 17 ]
Статус:
Проверен
 
.torrent скачан: 0 раз
Хэш: 9eec04724be8a63988dec486095ae80f3a1c6539
Размер: 1.14 ГБ (1 223 567 780 байт)
Стать Автором раздачи
 
 
Раздал: 6.67 ГБ
Скачал: 302.5 МБ
Ратио: 22.576
Сообщения: 374198
Зарегистрирован: 17 апр 2014, 11:05


  • Похожие торренты
    Ответы
    Просмотры
    Последнее сообщение

Вернуться в Музыкальные клипы (транзит)

Ресурс не предоставляет электронные версии произведений, а занимается лишь коллекционированием и каталогизацией ссылок, присылаемых и публикуемых на форуме нашими читателями. Если вы являетесь правообладателем какого-либо представленного материала и не желаете чтобы ссылка на него находилась в нашем каталоге, свяжитесь с нами и мы незамедлительно удалим её. Файлы для обмена на трекере предоставлены пользователями сайта, и администрация не несёт ответственности за их содержание. Просьба не заливать файлы, защищенные авторскими правами, а также файлы нелегального содержания!
cron